<?xml version="1.0" standalone="no"?>
<!DOCTYPE svg PUBLIC "-//W3C//DTD SVG 1.1//EN" "http://www.w3.org/Graphics/SVG/1.1/DTD/svg11.dtd" >
<svg xmlns="http://www.w3.org/2000/svg" xmlns:xlink="http://www.w3.org/1999/xlink" version="1.1">
<metadata>
Created by FontForge 20201107 at Sun Oct 24 09:45:16 2021
 By Unknown
Created Font by Tariqua Kadiriya Boudchichya morocco
</metadata>
<defs>
<font id="AljamalQuran-Bold" horiz-adv-x="1635" >
  <font-face 
    font-family="Aljamal Quran"
    font-weight="700"
    font-stretch="normal"
    units-per-em="2048"
    panose-1="2 0 8 0 0 0 0 0 0 0"
    ascent="1638"
    descent="-410"
    x-height="939"
    cap-height="1214"
    bbox="-1757 -1017 2771 1933"
    underline-thickness="102"
    underline-position="-790"
    unicode-range="U+0020-FEFC"
  />
<missing-glyph horiz-adv-x="779" 
d="M52 -15v1184h641v-1184h-641zM173 102h399v955h-399v-955z" />
    <glyph glyph-name="uniFB6A" unicode="&#xfe97;&#xfe98;&#xfe96;" horiz-adv-x="1173" arabic-form="isolated" 
d="M927 -29l-72 50q-99 -38 -331 -38h-39q-219 0 -375 159q-104 124 -104 296q0 246 207 470q2 1 2 2q34 32 49 43q23 0 53 -39q-177 -195 -177 -406q0 -218 234 -299q90 -34 178 -34q222 0 401 60q49 11 86 11q110 -5 83 -88q-84 -172 -113 -193q-40 -21 -82 6zM833 567
q0 -38 -28 -66t-71 -28q-42 0 -70.5 28t-28.5 66t29 66.5t70 28.5t70 -28.5t29 -66.5zM626 495q0 -38 -28 -66t-71 -28q-42 0 -70.5 28t-28.5 66t29 66.5t70 28.5t70 -28.5t29 -66.5z" />
    <glyph glyph-name="uniFB6B" unicode="&#x640;&#x640;&#xfe96;" horiz-adv-x="1039" arabic-form="final" 
d="M1006 -15q-83 5 -140 100q-199 -102 -386 -102h-35q-204 0 -349 147q-96 118 -96 276v4q0 223 189 428l7 7l52 47l44 -46q-164 -182 -164 -376q0 -201 215 -277q83 -30 164 -30q173 0 384 133q12 2 17 2q36 0 36 -62q0 -32 20 -52q13 -13 22 -17q10 -3 23 -3q36 0 60 -39
q19 -23 19 -56q0 -13 -3 -26q-5 -14 -13 -25q-9 -11 -22 -21q-15 -9 -34 -12h-10zM735 526q0 -38 -28 -66t-71 -28q-42 0 -70.5 28t-28.5 66t29 66.5t70 28.5t70 -28.5t29 -66.5zM528 454q0 -38 -28 -66t-71 -28q-42 0 -70.5 28t-28.5 66t29 66.5t70 28.5t70 -28.5t29 -66.5
z" />
    <glyph glyph-name="uniFB6E" unicode="&#xfe9b;&#xfe9c;&#xfe9a;" horiz-adv-x="1173" arabic-form="isolated" 
d="M927 -29l-72 50q-99 -38 -331 -38h-39q-219 0 -375 159q-104 124 -104 296q0 246 207 470q2 1 2 2q34 32 49 43q23 0 53 -39q-177 -195 -177 -406q0 -218 234 -299q90 -34 178 -34q222 0 401 60q49 11 86 11q110 -5 83 -88q-84 -172 -113 -193q-40 -21 -82 6zM671 520
q0 -42 -31 -73t-79 -31q-47 0 -78.5 31t-31.5 73t32 73.5t78 31.5t78 -31.5t32 -73.5zM915 553q0 -42 -31 -73t-79 -31q-47 0 -78.5 31t-31.5 73t32 73.5t78 31.5t78 -31.5t32 -73.5zM769 744q0 -42 -31 -73t-79 -31q-47 0 -78.5 31t-31.5 73t32 73.5t78 31.5t78 -31.5
t32 -73.5z" />
    <glyph glyph-name="uniFB6F" unicode="&#x640;&#x640;&#xfe9a;" horiz-adv-x="1039" arabic-form="final" 
d="M1006 -15q-83 5 -140 100q-199 -102 -386 -102h-35q-204 0 -349 147q-96 118 -96 276v4q0 223 189 428l7 7l52 47l44 -46q-164 -182 -164 -376q0 -201 215 -277q83 -30 164 -30q173 0 384 133q12 2 17 2q36 0 36 -62q0 -32 20 -52q13 -13 22 -17q10 -3 23 -3q36 0 60 -39
q19 -23 19 -56q0 -13 -3 -26q-5 -14 -13 -25q-9 -11 -22 -21q-15 -9 -34 -12h-10zM544 456q0 -42 -31 -73t-79 -31q-47 0 -78.5 31t-31.5 73t32 73.5t78 31.5t78 -31.5t32 -73.5zM788 489q0 -42 -31 -73t-79 -31q-47 0 -78.5 31t-31.5 73t32 73.5t78 31.5t78 -31.5t32 -73.5
zM642 680q0 -42 -31 -73t-79 -31q-47 0 -78.5 31t-31.5 73t32 73.5t78 31.5t78 -31.5t32 -73.5z" />
    <glyph glyph-name="uniFB7A" unicode="&#xfee7;&#xfee8;&#xfee6;" horiz-adv-x="601" arabic-form="isolated" 
d="M-1454 -389q63 -133 169 -238q264 -264 668 -264t713 265q254 217 322 512l1 1q29 122 -163 269v18l104 168h29q132 -95 152 -282v-114q-38 -393 -357 -675q-321 -284 -775 -284q-455 0 -751 303q-136 138 -209 322z" />
    <glyph glyph-name="uniFB7B" unicode="&#x640;&#x640;&#xfee6;" horiz-adv-x="607" arabic-form="final" 
d="M-1451 -387q64 -134 168 -238q266 -266 670 -266t713 265q254 217 321 507q-2 112 -119 205v18l58 167h31q133 -106 183 -106h4q76 0 82 -92v-10q0 -80 -83 -80q-36 0 -43 3l1 -30q0 -45 -5 -101q-35 -284 -348 -574q-315 -294 -769 -294q-455 0 -751 303
q-134 137 -207 318z" />
    <glyph glyph-name="uniFB8A" unicode="&#xfedb;&#xfedc;&#xfeda;" horiz-adv-x="1181" arabic-form="isolated" 
d="M699 74q-32 6 -61 13q-41 8 -89 8q-51 0 -100 -6q-52 -7 -105 -7h-4q1 -9 1 -28t-4 -34q-2 -16 -10 -33q-5 -13 -21 -42h-47q-7 31 -12 44q-6 14 -15 27q-17 15 -44 22q-31 6 -64 13q-38 9 -65 28q-28 24 -28 72q0 15 4 45q6 29 17 57q11 30 26 51q16 32 49 32
q21 0 41 -13q14 -8 25 -17q14 -12 27 -25q10 -9 19 -13q36 -13 73 -20q36 -7 77 -7q45 0 91 7q47 4 77 5v15l-63 32q74 -75 63 -75v9q-158 89 -199 300q-13 66 -13 168q0 212 56 556q3 20 3 37q0 71 -45 73q-32 0 -102 -89l-31 50q70 182 207 189q140 0 104 -176
q-186 -815 132 -964q123 -61 240 -82q113 -22 148 -33q40 -13 54 -32q8 -10 8 -20.5t-7.5 -83t-132.5 -142.5h-53l-96 47q-68 26 -131 42z" />
    <glyph glyph-name="uniFB8B" unicode="&#x640;&#x640;&#xfeda;" horiz-adv-x="1259" arabic-form="final" 
d="M643 265l-149 75q74 -75 149 -75zM923 27l-93 45q-68 26 -131 42q-32 6 -61 13q-41 8 -89 8q-51 0 -100 -6q-52 -7 -105 -7h-4q1 -9 1 -28t-4 -34q-2 -16 -10 -33q-5 -13 -21 -42h-47q-7 31 -12 44q-6 14 -15 27q-17 15 -44 22q-31 6 -64 13q-38 9 -65 28q-28 24 -28 72
q0 15 4 45q6 29 17 57q11 30 26 51q16 32 49 32q21 0 41 -13q14 -8 25 -17q14 -12 27 -25q10 -9 19 -13q36 -13 73 -20q36 -7 77 -7q45 0 91 7q47 4 77 5v-19q-158 89 -199 300q-13 66 -13 168q0 212 56 556q3 20 3 37q0 71 -45 73q-32 0 -102 -89l-31 50q70 182 207 189
q140 0 104 -176q-186 -815 132 -964q123 -61 240 -82q113 -22 148 -33q40 -13 54 -31q4 -4 4 -9q16 -65 -9 -111q-3 -4 6 13h130q43 0 69 -27q27 -27 27 -62q0 -19 -8 -36q-6 -12 -19 -25q-12 -14 -28 -22q-20 -8 -41 -8h-158q-41 0 -161 42z" />
    <glyph glyph-name="uniFB8C" unicode="&#xfe91;&#xfe92;&#xfe90;" horiz-adv-x="1167" arabic-form="isolated" 
d="M927 -29l-72 50q-99 -38 -331 -38h-39q-219 0 -375 159q-104 124 -104 296q0 246 207 470q2 1 2 2q34 32 49 43q23 0 53 -39q-177 -195 -177 -406q0 -218 234 -299q90 -34 178 -34q222 0 401 60q49 11 86 11q110 -5 83 -88q-84 -172 -113 -193q-40 -21 -82 6zM705 -213
q0 -42 -31 -73t-79 -31q-47 0 -78.5 31t-31.5 73t32 73.5t78 31.5t78 -31.5t32 -73.5z" />
    <glyph glyph-name="uniFB8D" unicode="&#x640;&#x640;&#xfe90;" horiz-adv-x="1039" arabic-form="final" 
d="M1006 -15q-83 5 -140 100q-199 -102 -386 -102h-35q-204 0 -349 147q-96 118 -96 276v4q0 223 189 428l7 7l52 47l44 -46q-164 -182 -164 -376q0 -201 215 -277q83 -30 164 -30q173 0 384 133q12 2 17 2q36 0 36 -62q0 -32 20 -52q13 -13 22 -17q10 -3 23 -3q36 0 60 -39
q19 -23 19 -56q0 -13 -3 -26q-5 -14 -13 -25q-9 -11 -22 -21q-15 -9 -34 -12h-10zM707 -187q0 -42 -31 -73t-79 -31q-47 0 -78.5 31t-31.5 73t32 73.5t78 31.5t78 -31.5t32 -73.5z" />
    <glyph glyph-name="uniFBAE" unicode="&#x640;&#x640;&#xfede;" horiz-adv-x="604" arabic-form="isolated" 
d="M-1469 -392q60 -131 158 -236q247 -263 625 -263q379 0 669 266q289 265 325 640v141l-7 824q-2 23 -96 108v13q46 162 67 186q12 15 25 19q13 7 34 7q88 -8 107 -209l4 -69v-15q2 -29 2 -54v-688q22 -44 71 -88q37 -25 64 -25q23 0 39 -11q13 -11 21 -26q6 -12 10 -28
q3 -14 3 -27t-3 -27q-4 -14 -11 -28q-9 -14 -21 -22q-15 -11 -38 -11h-15q-32 0 -63 25q-68 52 -57 27v-22q-33 -424 -355 -725q-324 -303 -750 -303q-427 0 -705 304q-126 136 -195 317h92z" />
    <glyph glyph-name="uniFBAF" unicode="&#xfeac;&#xfeef;" horiz-adv-x="1530" arabic-form="final" 
d="M1039 135q-44 0 -156 -13h-7q-24 -2 -45 -2l7 -1q-2 6 -2 -13q0 -40 -31 -103q-1 -1 -5 -18h-49q-9 35 -15 47t-14 20q-9 10 -17 16q-11 4 -27 7q-11 2 -24 5q-13 4 -24 5q-23 5 -31 7q-40 13 -57 33q-22 22 -22 63q0 47 33 133q24 52 64 52q34 0 75 -38q27 -24 37 -27
q59 -27 148 -27q49 0 165 10l-19 -2q-33 19 -91 70q-60 53 -105 113q-46 62 -71 132q-28 74 -28 156q0 96 38 196q29 81 58 121q4 4 10 12q6 6 15 18q37 28 67 28q39 0 60 -30q5 -16 5 -24q0 -19 -13 -31q-8 -14 -24 -27q-18 -10 -32 -16q-8 -4 -15 -7q-5 -5 -14 -5
q3 2 1 -5q-7 -11 -11 -36q-23 -73 -23 -139q0 -78 28 -136q28 -63 74 -114q43 -49 100 -87q61 -40 122 -75q79 -45 164 -85q16 -7 37 -22q20 -26 20 -56l-29 -75h136q43 0 69 -27q27 -27 27 -62q0 -19 -8 -36q-6 -12 -19 -25q-12 -14 -28 -22q-20 -8 -41 -8h-158
q-54 0 -117 82q-51 68 -188 68zM740 -151l-17 31l56 74h409l22 -19l-48 -86h-422zM300 336q13 7 26 11q57 21 90 21q22 0 34 -6q45 -19 45 -65q-4 -33 -32 -90q-21 -46 -57 -90h-49q0 23 -3 24q-20 -10 -50 -50q-63 -85 -85 -148q-12 -42 3 -87q18 -59 77 -77
q32 -17 154 -17h531v1h164q146 0 184 -69v-19l-148 -159h-37q-77 72 -214 74v1h-403q-364 -3 -445 211q-18 55 -16 116q3 87 37 160q38 85 122 188q29 41 51 56v4zM1233 783q0 -42 -31 -73t-79 -31q-47 0 -78.5 31t-31.5 73t32 73.5t78 31.5t78 -31.5t32 -73.5z" />
    <glyph glyph-name="uniFBB0" unicode="&#xfeaa;&#xfeef;" horiz-adv-x="1530" arabic-form="isolated" 
d="M1039 135q-44 0 -156 -13h-7q-24 -2 -45 -2l7 -1q-2 6 -2 -13q0 -40 -31 -103q-1 -1 -5 -18h-49q-9 35 -15 47t-14 20q-9 10 -17 16q-11 4 -27 7q-11 2 -24 5q-13 4 -24 5q-23 5 -31 7q-40 13 -57 33q-22 22 -22 63q0 47 33 133q24 52 64 52q34 0 75 -38q27 -24 37 -27
q59 -27 148 -27q49 0 165 10l-19 -2q-33 19 -91 70q-60 53 -105 113q-46 62 -71 132q-28 74 -28 156q0 96 38 196q29 81 58 121q4 4 10 12q6 6 15 18q37 28 67 28q39 0 60 -30q5 -16 5 -24q0 -19 -13 -31q-8 -14 -24 -27q-18 -10 -32 -16q-8 -4 -15 -7q-5 -5 -14 -5
q3 2 1 -5q-7 -11 -11 -36q-23 -73 -23 -139q0 -78 28 -136q28 -63 74 -114q43 -49 100 -87q61 -40 122 -75q79 -45 164 -85q16 -7 37 -22q20 -26 20 -56l-29 -75h136q43 0 69 -27q27 -27 27 -62q0 -19 -8 -36q-6 -12 -19 -25q-12 -14 -28 -22q-20 -8 -41 -8h-158
q-54 0 -117 82q-51 68 -188 68zM740 -151l-17 31l56 74h409l22 -19l-48 -86h-422zM300 336q13 7 26 11q57 21 90 21q22 0 34 -6q45 -19 45 -65q-4 -33 -32 -90q-21 -46 -57 -90h-49q0 23 -3 24q-20 -10 -50 -50q-63 -85 -85 -148q-12 -42 3 -87q18 -59 77 -77
q32 -17 154 -17h531v1h164q146 0 184 -69v-19l-148 -159h-37q-77 72 -214 74v1h-403q-364 -3 -445 211q-18 55 -16 116q3 87 37 160q38 85 122 188q29 41 51 56v4z" />
    <glyph glyph-name="uniFBB1" unicode="&#xfedf;&#xfee0;&#xfede;" horiz-adv-x="544" arabic-form="final" 
d="M-1470 -389q60 -133 159 -239q247 -263 625 -263q379 0 669 266q289 265 325 640v141l-7 824q-2 23 -96 108v13q46 162 67 186q12 15 25 19q13 7 34 7q88 -8 107 -209l4 -69v-15q2 -29 2 -54v-951q-33 -424 -355 -725q-324 -303 -750 -303q-427 0 -705 304
q-127 137 -196 319z" />
    <glyph glyph-name="uniFBB2" unicode="&#xfeab;&#xfeef;" horiz-adv-x="1483" 
d="M850 -151l-23 25l61 51h404l30 -15l-56 -61h-416zM300 336q13 7 26 11q57 21 90 21q22 0 34 -6q45 -19 45 -65q-4 -33 -32 -90q-21 -46 -57 -90h-49q0 23 -3 24q-20 -10 -50 -50q-63 -85 -85 -148q-12 -42 3 -87q18 -59 77 -77q32 -17 154 -17h531v1h164q146 0 184 -69
v-19l-148 -159h-37q-77 72 -214 74v1h-403q-364 -3 -445 211q-18 55 -16 116q3 87 37 160q38 85 122 188q29 41 51 56v4zM801 -91h-47q-7 31 -12 44q-6 14 -15 27q-17 15 -44 22q-31 6 -64 13q-38 9 -65 28q-28 24 -28 72q0 15 4 45q6 29 17 57q11 30 26 51q16 32 49 32
q21 0 41 -13q14 -8 25 -17q14 -12 27 -25q10 -9 19 -13q36 -13 73 -20q36 -7 77 -7q45 0 91 7q48 4 49 4q-27 17 -88 69q-58 50 -105 111q-44 64 -71 135q-25 71 -25 153q0 52 8 100q10 48 28 97q8 20 18 49q12 29 30 57q17 29 42 48q25 27 62 27q24 0 45 -16q18 -17 18 -40
q0 -27 -18 -41q-13 -13 -32 -23l-34 -17q-9 -4 -14 -11q-6 -11 -11 -34q-8 -24 -12 -48q-4 -27 -8 -51q-2 -23 -2 -40q0 -77 27 -139q28 -61 74 -111q43 -49 103 -89q58 -40 121 -75l40 -20q31 -16 64 -33q31 -16 57 -31q30 -15 36 -21q13 -13 17 -28q8 -13 8 -26
q0 -20 -10 -50t-25 -58q-15 -26 -32 -48q-25 -25 -56 -25q-24 0 -52 15q-20 11 -46 24q-26 12 -59 23q-31 10 -78 10q-51 0 -100 -6q-52 -7 -105 -7h-12q-7 0 8 0q1 -9 1 -28t-4 -34q-2 -16 -10 -33q-5 -13 -21 -42zM1226 779q0 -42 -31 -73t-79 -31q-47 0 -78.5 31
t-31.5 73t32 73.5t78 31.5t78 -31.5t32 -73.5z" />
    <glyph glyph-name="uniFBB3" unicode="&#xfea9;&#xfeef;" horiz-adv-x="1483" 
d="M830 -157l-23 25l61 51h404l30 -15l-56 -61h-416zM300 336q13 7 26 11q57 21 90 21q22 0 34 -6q45 -19 45 -65q-4 -33 -32 -90q-21 -46 -57 -90h-49q0 23 -3 24q-20 -10 -50 -50q-63 -85 -85 -148q-12 -42 3 -87q18 -59 77 -77q32 -17 154 -17h531v1h164q146 0 184 -69
v-19l-148 -159h-37q-77 72 -214 74v1h-403q-364 -3 -445 211q-18 55 -16 116q3 87 37 160q38 85 122 188q29 41 51 56v4zM801 -91h-47q-7 31 -12 44q-6 14 -15 27q-17 15 -44 22q-31 6 -64 13q-38 9 -65 28q-28 24 -28 72q0 15 4 45q6 29 17 57q11 30 26 51q16 32 49 32
q21 0 41 -13q14 -8 25 -17q14 -12 27 -25q10 -9 19 -13q36 -13 73 -20q36 -7 77 -7q45 0 91 7q48 4 49 4q-27 17 -88 69q-58 50 -105 111q-44 64 -71 135q-25 71 -25 153q0 52 8 100q10 48 28 97q8 20 18 49q12 29 30 57q17 29 42 48q25 27 62 27q24 0 45 -16q18 -17 18 -40
q0 -27 -18 -41q-13 -13 -32 -23l-34 -17q-9 -4 -14 -11q-6 -11 -11 -34q-8 -24 -12 -48q-4 -27 -8 -51q-2 -23 -2 -40q0 -77 27 -139q28 -61 74 -111q43 -49 103 -89q58 -40 121 -75l40 -20q31 -16 64 -33q31 -16 57 -31q30 -15 36 -21q13 -13 17 -28q8 -13 8 -26
q0 -20 -10 -50t-25 -58q-15 -26 -32 -48q-25 -25 -56 -25q-24 0 -52 15q-20 11 -46 24q-26 12 -59 23q-31 10 -78 10q-51 0 -100 -6q-52 -7 -105 -7h-12q-7 0 8 0q1 -9 1 -28t-4 -34q-2 -16 -10 -33q-5 -13 -21 -42z" />
    <glyph glyph-name="uniFBE6_uniFB7D" unicode="&#xfbe6;&#xfb7d;" horiz-adv-x="1072" 
d="M960 104zM947 -152q0 -28 -21 -50t-53 -22t-53.5 22t-21.5 50t21.5 50t53.5 22t53 -22t21 -50zM791 -152q0 -28 -21 -50t-54 -22q-32 0 -53.5 22t-21.5 50t21.5 50t53.5 22q33 0 54 -22t21 -50zM647 84h233q1 8 3 30l9 34l23 25q70 12 83 -40l2 -29l-2 -34l-11 -59
l-26 -26h-546q-37 0 -90 48l-12 10q-24 22 -32 35l-7 10q-44 62 -42 56q-3 -6 -40 -48q-80 -111 -161 -111h-12q-61 0 -67 85q2 69 69 94q82 0 140 117l5 395q10 8 -8 -6q-125 -92 -161 -92q-25 0 -28 21q0 12 12 23q51 40 187 156l3 205q0 22 -105 107v14q47 161 67 185
q21 27 56 27q80 0 99 -210q0 -6 1 -12q5 -59 5 -125l-1 -83q57 49 177 153q27 20 58 20q56 0 56 -39q0 -2 -1 -13q-2 -16 -47 -52q-45 -3 -177 -119q-39 -34 -67 -57l-5 -483q12 -54 65.5 -128.5t132.5 -79.5l36 -4l59 1z" />
    <glyph glyph-name="uniFBE7" unicode="&#xfef4;&#x640;&#xfef4;" horiz-adv-x="634" arabic-form="medial" 
d="M5 -15q-19 0 -34 8q-20 9 -27 26q-10 10 -15 25q-4 16 -4 30q0 13 4 28q3 15 14 31l21 21q19 11 41 11h277v199q0 16 5 28q6 14 13 22q8 11 22 18q11 6 24 6q14 0 27 -7q11 -6 19 -16q8 -9 14 -24q3 -14 3 -27v-199h193q22 0 37 -11q15 -10 24 -22q9 -14 14 -29
q4 -16 4 -29q0 -14 -4 -30q-5 -14 -14 -25q-9 -17 -28 -26q-15 -8 -33 -8h-597zM258 -235q-36 0 -59.5 23.5t-23.5 55.5q0 31 23.5 54.5t59.5 23.5q37 0 60.5 -23.5t23.5 -54.5q0 -32 -23.5 -55.5t-60.5 -23.5zM432 -232q-36 0 -59.5 23.5t-23.5 55.5q0 31 23.5 54.5
t59.5 23.5q37 0 60.5 -23.5t23.5 -54.5q0 -32 -23.5 -55.5t-60.5 -23.5z" />
    <glyph glyph-name="uniFBE8" unicode="&#xfeb3;&#xfeb4;&#xfeb2;" horiz-adv-x="1488" arabic-form="initial" 
d="M-1423 -401q64 -126 166 -226q269 -264 680 -264q413 0 728 265q285 240 339 569q-6 98 -60 158q-60 66 -98 101l-7 16l1 14l4 12l4 11l6 14l10 14l8 10l9 11l13 17l13 15l10 9l7 8l10 8l8 9l14 12l13 8l19 9l25 3q16 -16 -4 10v1q179 -230 284 -230t186 184l13 17l4 4
l9 6l18 4h13l11 -4l4 -2l10 -5l4 -7l4 -7l2 -7q-21 -183 138 -209q71 3 101 89q12 63 -77 117q-10 85 34 190h35q116 -47 129 -237v-21q-7 -209 -141 -294q-36 -19 -70 -19q-169 -8 -222 121q-49 -113 -182 -121q-109 -7 -175 62v24l4 -86q-17 -392 -369 -694
q-349 -301 -811 -301q-464 0 -765 303q-132 132 -207 308z" />
    <glyph glyph-name="uniFBE9" unicode="&#x640;&#x640;&#xfeb2;" horiz-adv-x="1502" arabic-form="medial" 
d="M1351 269q16 -38 60 -79q37 -25 65 -25q23 0 39 -12q12 -10 20 -25q30 -55 1 -109q-9 -16 -23 -23q-14 -11 -37 -11h-15q-53 0 -141 102q-13 16 -21 30q-7 12 9 -18q-18 -48 -96 -98q-36 -19 -70 -19q-169 -8 -222 121q-49 -113 -182 -121q-109 -7 -175 62v24l4 -86
q-17 -392 -369 -694q-349 -301 -811 -301q-464 0 -765 303q-217 218 -261 510l84 22q42 -261 234 -449q269 -264 680 -264q413 0 728 265q285 240 339 569q-6 98 -60 158q-60 66 -98 101l-7 16l1 14l4 12l4 11l6 14l10 14l8 10l9 11l13 17l13 15l10 9l7 8l10 8l8 9l14 12
l13 8l19 9l25 3q16 -16 -4 10v1q179 -230 284 -230t186 184l13 17l4 4l9 6l18 4h13l11 -4l4 -2l10 -5l4 -7l4 -7l2 -7q-21 -183 138 -209q71 3 101 89q12 63 -77 117q-10 85 34 190h35q116 -47 129 -237v-21q0 -15 -2 -26z" />
    <glyph glyph-name="uniFEB7_uniFEB8_uniFEB6" unicode="&#xfeb7;&#xfeb8;&#xfeb6;" horiz-adv-x="1488" 
d="M-1423 -401q64 -126 166 -226q269 -264 680 -264q413 0 728 265q285 240 339 569q-6 98 -60 158q-60 66 -98 101l-7 16l1 14l4 12l4 11l6 14l10 14l8 10l9 11l13 17l13 15l10 9l7 8l10 8l8 9l14 12l13 8l19 9l25 3q16 -16 -4 10v1q179 -230 284 -230t186 184l13 17l4 4
l9 6l18 4h13l11 -4l4 -2l10 -5l4 -7l4 -7l2 -7q-21 -183 138 -209q71 3 101 89q12 63 -77 117q-10 85 34 190h35q116 -47 129 -237v-21q-7 -209 -141 -294q-36 -19 -70 -19q-169 -8 -222 121q-49 -113 -182 -121q-109 -7 -175 62v24l4 -86q-17 -392 -369 -694
q-349 -301 -811 -301q-464 0 -765 303q-132 132 -207 308zM915 670q0 -42 -31 -73t-79 -31q-47 0 -78.5 31t-31.5 73t32 73.5t78 31.5t78 -31.5t32 -73.5zM1159 703q0 -42 -31 -73t-79 -31q-47 0 -78.5 31t-31.5 73t32 73.5t78 31.5t78 -31.5t32 -73.5zM1013 894
q0 -42 -31 -73t-79 -31q-47 0 -78.5 31t-31.5 73t32 73.5t78 31.5t78 -31.5t32 -73.5z" />
    <glyph glyph-name="uni0640_uni0640_uniFEB6" unicode="&#x640;&#x640;&#xfeb6;" horiz-adv-x="1502" 
d="M1351 269q16 -38 60 -79q37 -25 65 -25q23 0 39 -12q12 -10 20 -25q30 -55 1 -109q-9 -16 -23 -23q-14 -11 -37 -11h-15q-53 0 -141 102q-13 16 -21 30q-7 12 9 -18q-18 -48 -96 -98q-36 -19 -70 -19q-169 -8 -222 121q-49 -113 -182 -121q-109 -7 -175 62v24l4 -86
q-17 -392 -369 -694q-349 -301 -811 -301q-464 0 -765 303q-217 218 -261 510l84 22q42 -261 234 -449q269 -264 680 -264q413 0 728 265q285 240 339 569q-6 98 -60 158q-60 66 -98 101l-7 16l1 14l4 12l4 11l6 14l10 14l8 10l9 11l13 17l13 15l10 9l7 8l10 8l8 9l14 12
l13 8l19 9l25 3q16 -16 -4 10v1q179 -230 284 -230t186 184l13 17l4 4l9 6l18 4h13l11 -4l4 -2l10 -5l4 -7l4 -7l2 -7q-21 -183 138 -209q71 3 101 89q12 63 -77 117q-10 85 34 190h35q116 -47 129 -237v-21q0 -15 -2 -26zM881 670q0 -42 -31 -73t-79 -31q-47 0 -78.5 31
t-31.5 73t32 73.5t78 31.5t78 -31.5t32 -73.5zM1125 703q0 -42 -31 -73t-79 -31q-47 0 -78.5 31t-31.5 73t32 73.5t78 31.5t78 -31.5t32 -73.5zM979 894q0 -42 -31 -73t-79 -31q-47 0 -78.5 31t-31.5 73t32 73.5t78 31.5t78 -31.5t32 -73.5z" />
    <glyph glyph-name="uniFBEB" unicode="&#xfee3;&#xfee8;&#xfee8;&#xfe8e;" horiz-adv-x="2542" arabic-form="final" 
d="M2378 179q-50 79 -85 79h-1q-30 0 -85 -51q59 -91 90 -91q35 0 81 63zM469 785l-14 28l45 67h324l21 -18l-39 -77h-337zM796 640q0 -42 -31 -73t-79 -31q-47 0 -78.5 31t-31.5 73t32 73.5t78 31.5t78 -31.5t32 -73.5zM1573 513q-34 0 -56 22t-22 51t22 50.5t56 21.5
t56 -21.5t22 -50.5t-22 -51t-56 -22zM420 -15q-47 0 -132 70l-39 -71h-36l-115 89l70 134v777q-2 23 -96 108v13q47 162 67 185q11 16 27 21q13 6 32 6q78 -8 97 -210q0 -22 1 -42v-741q0 -159 139 -159h3q79 0 148 73q84 103 117 103q41 0 100 -81q78 -95 146 -95h301
q6 0 12 -1q6 1 12 1h277v199q0 16 5 28q6 14 13 22q8 11 22 18q11 6 24 6q14 0 27 -7q11 -6 19 -16q8 -9 14 -24q3 -14 3 -27v-199h212q71 0 199 139q141 134 212 137q75 -2 135 -84q59 -102 59 -176q0 -41 -19 -74q-110 -168 -179 -168h-6q-114 0 -183 179
q-128 -133 -218 -133h-616q-6 0 -12 1q-6 -1 -12 -1h-320q-55 0 -97 20q-27 13 -64 52q-71 80 -94 103q-130 -175 -237 -175h-18zM2092 510l-14 28l45 67h324l21 -18l-39 -77h-337zM1000 651q0 74 50 121q50 51 120 51q76 0 127 -51q50 -47 50 -121q0 -66 -49 -114
q-49 -51 -128 -51q-71 0 -121 51q-49 48 -49 114z" />
    <glyph glyph-name="uniFBEE" unicode="&#xfebf;&#xfec0;&#xfebe;" horiz-adv-x="1370" arabic-form="isolated" 
d="M1174 167q-80 198 -278 307q-45 13 -65 13q-132 0 -471 -320h814zM-1640 -404q62 -124 159 -223q258 -264 654 -264t698 265q266 233 322 549q2 40 -30 59q-75 38 -40 126q23 56 282 266q278 241 418 275q21 3 39 4h2q14 2 30 2q211 0 395 -302l10 -17q8 -15 20 -38
q31 -86 5 -200q-84 -182 -170 -219h-46l-173 106h-599q-37 -400 -361 -695q-332 -303 -776 -303q-446 0 -736 303q-127 131 -199 306h96zM914 874q0 -42 -31 -73t-79 -31q-47 0 -78.5 31t-31.5 73t32 73.5t78 31.5t78 -31.5t32 -73.5z" />
    <glyph glyph-name="uniFBEF" unicode="&#x640;&#x640;&#xfebe;" horiz-adv-x="1461" arabic-form="final" 
d="M1158 167q-80 198 -278 307q-45 13 -65 13q-132 0 -471 -320h814zM-1661 -392q62 -131 164 -235q258 -264 654 -264t698 265q266 233 322 549v3q0 38 -30 56q-51 25 -51 76q0 22 11 50q23 56 282 266q278 241 418 275q39 6 71 6q211 0 395 -302l63 -118q53 -70 87 -70
q41 0 59 -37q13 -21 13 -55q0 -13 -3 -27q-10 -37 -33 -51q-16 -10 -51 -10q-51 0 -117 76q-69 -146 -153 -182h-46l-173 106h-599q-37 -400 -361 -695q-332 -303 -776 -303q-446 0 -736 303q-130 136 -203 314zM905 894q0 -42 -31 -73t-79 -31q-47 0 -78.5 31t-31.5 73
t32 73.5t78 31.5t78 -31.5t32 -73.5z" />
    <glyph glyph-name="uniFBF0" unicode="&#xfebb;&#xfebc;&#xfeba;" horiz-adv-x="1399" arabic-form="isolated" 
d="M1158 167q-80 198 -278 307q-45 13 -65 13q-132 0 -471 -320h814zM-1656 -404q62 -124 159 -223q258 -264 654 -264t698 265q266 233 322 549q2 40 -30 59q-75 38 -40 126q23 56 282 266q278 241 418 275q21 3 39 4h2q14 2 30 2q211 0 395 -302l10 -17q8 -15 20 -38
q31 -86 5 -200q-84 -182 -170 -219h-46l-173 106h-599q-37 -400 -361 -695q-332 -303 -776 -303q-446 0 -736 303q-127 131 -199 306h96z" />
    <glyph glyph-name="uniFBF1" unicode="&#x640;&#x640;&#xfeba;" horiz-adv-x="1447" arabic-form="final" 
d="M1159 167q-80 198 -278 307q-45 13 -65 13q-132 0 -471 -320h814zM-1656 -402q61 -124 160 -225q258 -264 654 -264t698 265q266 233 322 549v3q0 38 -30 56q-51 25 -51 76q0 22 11 50q23 56 282 266q278 241 418 275q39 6 71 6q211 0 395 -302l63 -118q53 -70 87 -70
q41 0 59 -37q13 -21 13 -55q0 -13 -3 -27q-10 -37 -33 -51q-16 -10 -51 -10q-51 0 -117 76q-69 -146 -153 -182h-46l-173 106h-599q-37 -400 -361 -695q-332 -303 -776 -303q-446 0 -736 303q-131 137 -205 321z" />
    <glyph glyph-name="uniFBFC" unicode="&#xfef3;&#xfef4;&#xfef2;" horiz-adv-x="788" arabic-form="isolated" 
d="M-1576 -392q55 -74 120 -134q290 -264 735 -264t784 266q270 188 351 433q-16 76 -127 77h-137q-42 0 -42 52v3q0 91 182 257q124 122 191 167q89 74 161 74q73 0 96 -64q3 -13 3 -30q0 -85 -80 -177q-47 -47 -123 -47q-22 0 -59 5q-34 4 -82 12q-40 -32 -84 -78v14
q212 -56 212 -228q0 -19 -5 -53h-1q-38 -270 -338 -503q-377 -302 -873 -302q-497 0 -820 303q-100 92 -178 217h114z" />
    <glyph glyph-name="uniFC02" unicode="&#xfed7;&#xfed8;&#xfed6;" horiz-adv-x="773" arabic-form="isolated" 
d="M458 165q40 6 75 35q-53 63 -96 63q-40 0 -60 -31l1 -8q7 -59 80 -59zM-1442 -416q67 -117 169 -211q287 -264 729 -264q443 0 779 265q294 232 357 547l7 35q12 148 2 178h28q-52 -132 -192 -149h-2q-10 -2 -21 -2q-77 0 -119 69q-11 35 -12 49v23q0 140 57 258
q44 75 107 82l24 1q114 0 198 -141q64 -117 61 -275l-5 -50q-25 -414 -382 -710q-365 -302 -858 -302t-816 303q-134 126 -215 291zM592 682q0 -38 -28 -66t-71 -28q-42 0 -70.5 28t-28.5 66t29 66.5t70 28.5t70 -28.5t29 -66.5zM385 610q0 -38 -28 -66t-71 -28
q-42 0 -70.5 28t-28.5 66t29 66.5t70 28.5t70 -28.5t29 -66.5z" />
    <glyph glyph-name="uniFC03" unicode="&#x640;&#x640;&#xfed6;" horiz-adv-x="650" arabic-form="isolated" 
d="M407 164q-47 120 -118 120q-42 -3 -61 -30q2 -90 116 -90h63zM-1650 -363q72 -149 197 -264q287 -264 729 -264q443 0 780 265q293 232 356 547l7 36l4 28h-139q-153 0 -172 156q0 128 101 270q60 71 118 71q40 0 76 -22q130 -76 171 -295h59q32 0 57 -28q26 -26 26 -61
q0 -36 -26 -62q-24 -29 -57 -29h-76q-41 -400 -400 -698q-363 -300 -856 -300t-815 303q-153 142 -231 327zM452 711q0 -38 -28 -66t-71 -28q-42 0 -70.5 28t-28.5 66t29 66.5t70 28.5t70 -28.5t29 -66.5zM245 639q0 -38 -28 -66t-71 -28q-42 0 -70.5 28t-28.5 66t29 66.5
t70 28.5t70 -28.5t29 -66.5z" />
    <glyph glyph-name="uniFC04" unicode="&#x640;&#x640;&#xfef2;" horiz-adv-x="702" arabic-form="isolated" 
d="M-1637 -402q67 -125 173 -224q283 -264 717 -264t764 265q234 189 337 425q-28 36 -103 75q-43 27 -71 45q-118 58 -64 238q30 71 46 89h-1q49 55 83 83q44 35 85 60q80 47 114 47q13 0 30 -11q18 -10 52 -100q32 -82 91 -136q37 -25 64 -25q23 0 39 -11q13 -11 21 -25
q6 -13 10 -28q3 -15 3 -28t-3 -27q-4 -14 -11 -27q-8 -13 -20 -23q-16 -11 -39 -11h-16q-113 13 -268 288q-33 -10 -81 -55q-48 -44 -70 -69q0 -40 130 -116q95 -65 95 -183q-16 -306 -337 -560q-367 -302 -852 -302t-802 303q-137 130 -215 302z" />
    <glyph glyph-name="uniFEF3_uniFE9E" unicode="&#xfef3;&#xfe9e;" horiz-adv-x="1486" 
d="M608 -334q0 -42 -31 -73t-79 -31q-47 0 -78.5 31t-31.5 73t32 73.5t78 31.5t78 -31.5t32 -73.5zM544 335l30 9q170 -98 269 -125q25 -5 55 -10q4 -1 7 -1q46 -14 46 -50q0 -22 -177 -183h-28q-104 60 -142 69q-13 2 -27 2q-34 0 -86 -13q-336 -91 -336 -377
q0 -218 197 -345q174 -123 530 -123q69 0 168 5v-62q-163 -39 -293 -39q-388 0 -598 180q-157 156 -157 384q0 272 227 456q113 92 247 115q-114 84 -177 101q-81 19 -118 24q-76 7 -94 25q-9 12 -9 32q19 99 89 170q34 22 60 22q23 0 42 -5q18 -5 38 -21q64 -62 69 -62h123
q7 0 497 2q225 21 248 139q13 124 -186 183l-7 23q42 149 74 155q38 9 113 -54q163 -164 88 -403q-59 -163 -277 -213q-20 -10 -505 -10zM1434 273q0 -38 -28 -66t-71 -28q-42 0 -70.5 28t-28.5 66t29 66.5t70 28.5t70 -28.5t29 -66.5zM1227 201q0 -38 -28 -66t-71 -28
q-42 0 -70.5 28t-28.5 66t29 66.5t70 28.5t70 -28.5t29 -66.5z" />
    <glyph glyph-name="uniFEF3_uniFEA2" unicode="&#xfef3;&#xfea2;" horiz-adv-x="1486" 
d="M544 335l30 9q170 -98 269 -125q25 -5 55 -10q4 -1 7 -1q46 -14 46 -50q0 -22 -177 -183h-28q-104 60 -142 69q-13 2 -27 2q-34 0 -86 -13q-336 -91 -336 -377q0 -218 197 -345q174 -123 530 -123q69 0 168 5v-62q-163 -39 -293 -39q-388 0 -598 180q-157 156 -157 384
q0 272 227 456q113 92 247 115q-114 84 -177 101q-81 19 -118 24q-76 7 -94 25q-9 12 -9 32q19 99 89 170q34 22 60 22q23 0 42 -5q18 -5 38 -21q64 -62 69 -62h123q7 0 497 2q225 21 248 139q13 124 -186 183l-7 23q42 149 74 155q38 9 113 -54q163 -164 88 -403
q-59 -163 -277 -213q-20 -10 -505 -10zM1439 255q0 -38 -28 -66t-71 -28q-42 0 -70.5 28t-28.5 66t29 66.5t70 28.5t70 -28.5t29 -66.5zM1232 183q0 -38 -28 -66t-71 -28q-42 0 -70.5 28t-28.5 66t29 66.5t70 28.5t70 -28.5t29 -66.5z" />
    <glyph glyph-name="uniFEF3_uniFEA6" unicode="&#xfef3;&#xfea6;" horiz-adv-x="1486" 
d="M544 335l30 9q170 -98 269 -125q25 -5 55 -10q4 -1 7 -1q46 -14 46 -50q0 -22 -177 -183h-28q-104 60 -142 69q-13 2 -27 2q-34 0 -86 -13q-336 -91 -336 -377q0 -218 197 -345q174 -123 530 -123q69 0 168 5v-62q-163 -39 -293 -39q-388 0 -598 180q-157 156 -157 384
q0 272 227 456q113 92 247 115q-114 84 -177 101q-81 19 -118 24q-76 7 -94 25q-9 12 -9 32q19 99 89 170q34 22 60 22q23 0 42 -5q18 -5 38 -21q64 -62 69 -62h123q7 0 497 2q225 21 248 139q13 124 -186 183l-7 23q42 149 74 155q38 9 113 -54q163 -164 88 -403
q-59 -163 -277 -213q-20 -10 -505 -10zM347 841q0 -42 -31 -73t-79 -31q-47 0 -78.5 31t-31.5 73t32 73.5t78 31.5t78 -31.5t32 -73.5zM1439 255q0 -38 -28 -66t-71 -28q-42 0 -70.5 28t-28.5 66t29 66.5t70 28.5t70 -28.5t29 -66.5zM1232 183q0 -38 -28 -66t-71 -28
q-42 0 -70.5 28t-28.5 66t29 66.5t70 28.5t70 -28.5t29 -66.5z" />
    <glyph glyph-name="uniFC05" unicode="&#xfe91;&#xfe9e;" horiz-adv-x="1239" arabic-form="isolated" 
d="M1208 268q0 -42 -31 -73t-79 -31q-47 0 -78.5 31t-31.5 73t32 73.5t78 31.5t78 -31.5t32 -73.5zM597 -318q0 -42 -31 -73t-79 -31q-47 0 -78.5 31t-31.5 73t32 73.5t78 31.5t78 -31.5t32 -73.5zM544 335l30 9q170 -98 269 -125q25 -5 55 -10q4 -1 7 -1q46 -14 46 -50
q0 -22 -177 -183h-28q-104 60 -142 69q-13 2 -27 2q-34 0 -86 -13q-336 -91 -336 -377q0 -218 197 -345q174 -123 530 -123q69 0 168 5v-62q-163 -39 -293 -39q-388 0 -598 180q-157 156 -157 384q0 272 227 456q113 92 247 115q-114 84 -177 101q-81 19 -118 24
q-76 7 -94 25q-9 12 -9 32q19 99 89 170q34 22 60 22q23 0 42 -5q18 -5 38 -21q64 -62 69 -62h123l297 2q225 21 248 139q13 124 -186 183l-7 23q42 149 74 155q38 9 113 -54q163 -164 88 -403q-59 -163 -277 -213q-20 -10 -305 -10z" />
    <glyph glyph-name="uniFC06" unicode="&#xfe91;&#xfea2;" horiz-adv-x="1240" arabic-form="isolated" 
d="M1200 250q0 -46 -33.5 -79.5t-85.5 -33.5q-51 0 -85 33.5t-34 79.5t34.5 80t84.5 34t84.5 -34t34.5 -80zM544 335l30 9q170 -98 269 -125q25 -5 55 -10q4 -1 7 -1q46 -14 46 -50q0 -22 -177 -183h-28q-104 60 -142 69q-13 2 -27 2q-34 0 -86 -13q-336 -91 -336 -377
q0 -218 197 -345q174 -123 530 -123q69 0 168 5v-62q-163 -39 -293 -39q-388 0 -598 180q-157 156 -157 384q0 272 227 456q113 92 247 115q-114 84 -177 101q-81 19 -118 24q-76 7 -94 25q-9 12 -9 32q19 99 89 170q34 22 60 22q23 0 42 -5q18 -5 38 -21q64 -62 69 -62h123
l297 2q225 21 248 139q13 124 -186 183l-7 23q42 149 74 155q38 9 113 -54q163 -164 88 -403q-59 -163 -277 -213q-20 -10 -305 -10z" />
    <glyph glyph-name="uniFC07" unicode="&#xfe91;&#xfea6;" horiz-adv-x="1240" arabic-form="isolated" 
d="M544 335l30 9q170 -98 269 -125q25 -5 55 -10q4 -1 7 -1q46 -14 46 -50q0 -22 -177 -183h-28q-104 60 -142 69q-13 2 -27 2q-34 0 -86 -13q-336 -91 -336 -377q0 -218 197 -345q174 -123 530 -123q69 0 168 5v-62q-163 -39 -293 -39q-388 0 -598 180q-157 156 -157 384
q0 272 227 456q113 92 247 115q-114 84 -177 101q-81 19 -118 24q-76 7 -94 25q-9 12 -9 32q19 99 89 170q34 22 60 22q23 0 42 -5q18 -5 38 -21q64 -62 69 -62h123l297 2q225 21 248 139q13 124 -186 183l-7 23q42 149 74 155q38 9 113 -54q163 -164 88 -403
q-59 -163 -277 -213q-20 -10 -305 -10zM1200 240q0 -46 -33.5 -79.5t-85.5 -33.5q-51 0 -85 33.5t-34 79.5t34.5 80t84.5 34t84.5 -34t34.5 -80zM418 849q0 -46 -33.5 -79.5t-85.5 -33.5q-51 0 -85 33.5t-34 79.5t34.5 80t84.5 34t84.5 -34t34.5 -80z" />
    <glyph glyph-name="uniFC0B" unicode="&#xfe97;&#xfe9e;" horiz-adv-x="1240" arabic-form="isolated" 
d="M544 335l30 9q170 -98 269 -125q25 -5 55 -10q4 -1 7 -1q46 -14 46 -50q0 -22 -177 -183h-28q-104 60 -142 69q-13 2 -27 2q-34 0 -86 -13q-336 -91 -336 -377q0 -218 197 -345q174 -123 530 -123q69 0 168 5v-62q-163 -39 -293 -39q-388 0 -598 180q-157 156 -157 384
q0 272 227 456q113 92 247 115q-114 84 -177 101q-81 19 -118 24q-76 7 -94 25q-9 12 -9 32q19 99 89 170q34 22 60 22q23 0 42 -5q18 -5 38 -21q64 -62 69 -62h123l297 2q225 21 248 139q13 124 -186 183l-7 23q42 149 74 155q38 9 113 -54q163 -164 88 -403
q-59 -163 -277 -213q-20 -10 -305 -10zM622 -379q0 -42 -31 -73t-79 -31q-47 0 -78.5 31t-31.5 73t32 73.5t78 31.5t78 -31.5t32 -73.5zM1081 1300q0 -38 -28 -66t-71 -28q-42 0 -70.5 28t-28.5 66t29 66.5t70 28.5t70 -28.5t29 -66.5zM874 1228q0 -38 -28 -66t-71 -28
q-42 0 -70.5 28t-28.5 66t29 66.5t70 28.5t70 -28.5t29 -66.5z" />
    <glyph glyph-name="uniFC0C" unicode="&#xfe97;&#xfea2;" horiz-adv-x="1240" arabic-form="isolated" 
d="M544 335l30 9q170 -98 269 -125q25 -5 55 -10q4 -1 7 -1q46 -14 46 -50q0 -22 -177 -183h-28q-104 60 -142 69q-13 2 -27 2q-34 0 -86 -13q-336 -91 -336 -377q0 -218 197 -345q174 -123 530 -123q69 0 168 5v-62q-163 -39 -293 -39q-388 0 -598 180q-157 156 -157 384
q0 272 227 456q113 92 247 115q-114 84 -177 101q-81 19 -118 24q-76 7 -94 25q-9 12 -9 32q19 99 89 170q34 22 60 22q23 0 42 -5q18 -5 38 -21q64 -62 69 -62h123l297 2q225 21 248 139q13 124 -186 183l-7 23q42 149 74 155q38 9 113 -54q163 -164 88 -403
q-59 -163 -277 -213q-20 -10 -305 -10zM1081 1300q0 -38 -28 -66t-71 -28q-42 0 -70.5 28t-28.5 66t29 66.5t70 28.5t70 -28.5t29 -66.5zM874 1228q0 -38 -28 -66t-71 -28q-42 0 -70.5 28t-28.5 66t29 66.5t70 28.5t70 -28.5t29 -66.5z" />
    <glyph glyph-name="uniFC0D" unicode="&#xfe97;&#xfea6;" horiz-adv-x="1240" arabic-form="isolated" 
d="M544 335l30 9q170 -98 269 -125q25 -5 55 -10q4 -1 7 -1q46 -14 46 -50q0 -22 -177 -183h-28q-104 60 -142 69q-13 2 -27 2q-34 0 -86 -13q-336 -91 -336 -377q0 -218 197 -345q174 -123 530 -123q69 0 168 5v-62q-163 -39 -293 -39q-388 0 -598 180q-157 156 -157 384
q0 272 227 456q113 92 247 115q-114 84 -177 101q-81 19 -118 24q-76 7 -94 25q-9 12 -9 32q19 99 89 170q34 22 60 22q23 0 42 -5q18 -5 38 -21q64 -62 69 -62h123l297 2q225 21 248 139q13 124 -186 183l-7 23q42 149 74 155q38 9 113 -54q163 -164 88 -403
q-59 -163 -277 -213q-20 -10 -305 -10zM362 857q0 -42 -31 -73t-79 -31q-47 0 -78.5 31t-31.5 73t32 73.5t78 31.5t78 -31.5t32 -73.5zM1081 1300q0 -38 -28 -66t-71 -28q-42 0 -70.5 28t-28.5 66t29 66.5t70 28.5t70 -28.5t29 -66.5zM874 1228q0 -38 -28 -66t-71 -28
q-42 0 -70.5 28t-28.5 66t29 66.5t70 28.5t70 -28.5t29 -66.5z" />
    <glyph glyph-name="uniFED4_uniFEA6" unicode="&#xfed4;&#xfea6;" horiz-adv-x="1152" 
d="M352 852q0 -42 -31 -73t-79 -31q-47 0 -78.5 31t-31.5 73t32 73.5t78 31.5t78 -31.5t32 -73.5zM950 1227q0 -42 -31 -73t-79 -31q-47 0 -78.5 31t-31.5 73t32 73.5t78 31.5t78 -31.5t32 -73.5zM818 720q26 -24 48 -16t33.5 22.5t4.5 61t-42 54t-51.5 -14.5t-17.5 -52.5
t25 -54.5zM541 334l35 9q17 -10 57 -32q135 -71 210 -92q25 -5 55 -10q4 -1 7 -1q46 -14 46 -50q0 -22 -177 -183h-28q-104 60 -142 69q-13 2 -27 2q-34 0 -86 -13q-336 -91 -336 -377q0 -218 197 -345q174 -123 530 -123q69 0 168 5v-62q-163 -39 -293 -39q-388 0 -598 180
q-157 156 -157 384q0 272 227 456q113 92 247 115q-114 84 -177 101q-81 19 -118 24q-76 7 -94 25q-9 12 -9 32q19 99 89 170q34 22 60 22q23 0 42 -5q18 -5 38 -21q64 -62 69 -62h123l58 1q130 4 199 48q-97 43 -97 158q0 59 32 134q91 188 201 188h3q132 -12 132 -203
q2 -18 2 -37q0 -146 -74 -235q50 -53 169 -53q43 0 68 -31q19 -27 19 -58q0 -37 -19 -61q-25 -30 -122 -30q-140 0 -207 134q-156 -134 -307 -134h-15z" />
    <glyph glyph-name="uniFED4_uniFEA2" unicode="&#xfed4;&#xfea2;" horiz-adv-x="1154" 
d="M818 720q26 -24 48 -16t33.5 22.5t4.5 61t-42 54t-51.5 -14.5t-17.5 -52.5t25 -54.5zM541 334l35 9q17 -10 57 -32q135 -71 210 -92q25 -5 55 -10q4 -1 7 -1q46 -14 46 -50q0 -22 -177 -183h-28q-104 60 -142 69q-13 2 -27 2q-34 0 -86 -13q-336 -91 -336 -377
q0 -218 197 -345q174 -123 530 -123q69 0 168 5v-62q-163 -39 -293 -39q-388 0 -598 180q-157 156 -157 384q0 272 227 456q113 92 247 115q-114 84 -177 101q-81 19 -118 24q-76 7 -94 25q-9 12 -9 32q19 99 89 170q34 22 60 22q23 0 42 -5q18 -5 38 -21q64 -62 69 -62h123
l58 1q130 4 199 48q-97 43 -97 158q0 59 32 134q91 188 201 188h3q132 -12 132 -203q2 -18 2 -37q0 -146 -74 -235q50 -53 169 -53q43 0 68 -31q19 -27 19 -58q0 -37 -19 -61q-25 -30 -122 -30q-140 0 -207 134q-156 -134 -307 -134h-15zM954 1231q0 -42 -31 -73t-79 -31
q-47 0 -78.5 31t-31.5 73t32 73.5t78 31.5t78 -31.5t32 -73.5z" />
    <glyph glyph-name="uniFED4_uniFE9E" unicode="&#xfed4;&#xfe9e;" horiz-adv-x="1154" 
d="M818 720q26 -24 48 -16t33.5 22.5t4.5 61t-42 54t-51.5 -14.5t-17.5 -52.5t25 -54.5zM541 334l35 9q17 -10 57 -32q135 -71 210 -92q25 -5 55 -10q4 -1 7 -1q46 -14 46 -50q0 -22 -177 -183h-28q-104 60 -142 69q-13 2 -27 2q-34 0 -86 -13q-336 -91 -336 -377
q0 -218 197 -345q174 -123 530 -123q69 0 168 5v-62q-163 -39 -293 -39q-388 0 -598 180q-157 156 -157 384q0 272 227 456q113 92 247 115q-114 84 -177 101q-81 19 -118 24q-76 7 -94 25q-9 12 -9 32q19 99 89 170q34 22 60 22q23 0 42 -5q18 -5 38 -21q64 -62 69 -62h123
l58 1q130 4 199 48q-97 43 -97 158q0 59 32 134q91 188 201 188h3q132 -12 132 -203q2 -18 2 -37q0 -146 -74 -235q50 -53 169 -53q43 0 68 -31q19 -27 19 -58q0 -37 -19 -61q-25 -30 -122 -30q-140 0 -207 134q-156 -134 -307 -134h-15zM954 1231q0 -42 -31 -73t-79 -31
q-47 0 -78.5 31t-31.5 73t32 73.5t78 31.5t78 -31.5t32 -73.5zM574 -335q0 -42 -31 -73t-79 -31q-47 0 -78.5 31t-31.5 73t32 73.5t78 31.5t78 -31.5t32 -73.5z" />
    <glyph glyph-name="uniFED8_uniFEA6" unicode="&#xfed8;&#xfea6;" horiz-adv-x="1152" 
d="M818 720q26 -24 48 -16t33.5 22.5t4.5 61t-42 54t-51.5 -14.5t-17.5 -52.5t25 -54.5zM541 334l35 9q17 -10 57 -32q135 -71 210 -92q25 -5 55 -10q4 -1 7 -1q46 -14 46 -50q0 -22 -177 -183h-28q-104 60 -142 69q-13 2 -27 2q-34 0 -86 -13q-336 -91 -336 -377
q0 -218 197 -345q174 -123 530 -123q69 0 168 5v-62q-163 -39 -293 -39q-388 0 -598 180q-157 156 -157 384q0 272 227 456q113 92 247 115q-114 84 -177 101q-81 19 -118 24q-76 7 -94 25q-9 12 -9 32q19 99 89 170q34 22 60 22q23 0 42 -5q18 -5 38 -21q64 -62 69 -62h120
q7 2 18 2h64v0q109 3 178 47q-97 43 -97 158q0 59 32 134q91 188 201 188h3q132 -12 132 -203q2 -18 2 -37q0 -146 -74 -235q50 -53 169 -53q43 0 68 -31q19 -27 19 -58q0 -37 -19 -61q-25 -30 -122 -30q-140 0 -207 134q-156 -134 -307 -134h-15zM354 850q0 -42 -31 -73
t-79 -31q-47 0 -78.5 31t-31.5 73t32 73.5t78 31.5t78 -31.5t32 -73.5zM1023 1283q0 -38 -28 -66t-71 -28q-42 0 -70.5 28t-28.5 66t29 66.5t70 28.5t70 -28.5t29 -66.5zM816 1211q0 -38 -28 -66t-71 -28q-42 0 -70.5 28t-28.5 66t29 66.5t70 28.5t70 -28.5t29 -66.5z" />
    <glyph glyph-name="uniFED8_uniFEA2" unicode="&#xfed8;&#xfea2;" horiz-adv-x="1154" 
d="M818 720q26 -24 48 -16t33.5 22.5t4.5 61t-42 54t-51.5 -14.5t-17.5 -52.5t25 -54.5zM541 334l35 9q17 -10 57 -32q135 -71 210 -92q25 -5 55 -10q4 -1 7 -1q46 -14 46 -50q0 -22 -177 -183h-28q-104 60 -142 69q-13 2 -27 2q-34 0 -86 -13q-336 -91 -336 -377
q0 -218 197 -345q174 -123 530 -123q69 0 168 5v-62q-163 -39 -293 -39q-388 0 -598 180q-157 156 -157 384q0 272 227 456q113 92 247 115q-114 84 -177 101q-81 19 -118 24q-76 7 -94 25q-9 12 -9 32q19 99 89 170q34 22 60 22q23 0 42 -5q18 -5 38 -21q64 -62 69 -62h120
q7 2 18 2h64v0q109 3 178 47q-97 43 -97 158q0 59 32 134q91 188 201 188h3q132 -12 132 -203q2 -18 2 -37q0 -146 -74 -235q50 -53 169 -53q43 0 68 -31q19 -27 19 -58q0 -37 -19 -61q-25 -30 -122 -30q-140 0 -207 134q-156 -134 -307 -134h-15zM1023 1283q0 -38 -28 -66
t-71 -28q-42 0 -70.5 28t-28.5 66t29 66.5t70 28.5t70 -28.5t29 -66.5zM816 1211q0 -38 -28 -66t-71 -28q-42 0 -70.5 28t-28.5 66t29 66.5t70 28.5t70 -28.5t29 -66.5z" />
    <glyph glyph-name="uniFED8_uniFE9E" unicode="&#xfed8;&#xfe9e;" horiz-adv-x="1154" 
d="M818 720q26 -24 48 -16t33.5 22.5t4.5 61t-42 54t-51.5 -14.5t-17.5 -52.5t25 -54.5zM541 334l35 9q17 -10 57 -32q135 -71 210 -92q25 -5 55 -10q4 -1 7 -1q46 -14 46 -50q0 -22 -177 -183h-28q-104 60 -142 69q-13 2 -27 2q-34 0 -86 -13q-336 -91 -336 -377
q0 -218 197 -345q174 -123 530 -123q69 0 168 5v-62q-163 -39 -293 -39q-388 0 -598 180q-157 156 -157 384q0 272 227 456q113 92 247 115q-114 84 -177 101q-81 19 -118 24q-76 7 -94 25q-9 12 -9 32q19 99 89 170q34 22 60 22q23 0 42 -5q18 -5 38 -21q64 -62 69 -62h120
q7 2 18 2h64v0q109 3 178 47q-97 43 -97 158q0 59 32 134q91 188 201 188h3q132 -12 132 -203q2 -18 2 -37q0 -146 -74 -235q50 -53 169 -53q43 0 68 -31q19 -27 19 -58q0 -37 -19 -61q-25 -30 -122 -30q-140 0 -207 134q-156 -134 -307 -134h-15zM573 -337q0 -42 -31 -73
t-79 -31q-47 0 -78.5 31t-31.5 73t32 73.5t78 31.5t78 -31.5t32 -73.5zM1023 1283q0 -38 -28 -66t-71 -28q-42 0 -70.5 28t-28.5 66t29 66.5t70 28.5t70 -28.5t29 -66.5zM816 1211q0 -38 -28 -66t-71 -28q-42 0 -70.5 28t-28.5 66t29 66.5t70 28.5t70 -28.5t29 -66.5z" />
    <glyph glyph-name="uniFEE8_uniFEA6" unicode="&#xfee8;&#xfea6;" horiz-adv-x="1071" 
d="M541 334l32 11q20 -12 60 -34q135 -71 210 -92q25 -5 55 -10q4 -1 7 -1q46 -14 46 -50q0 -22 -177 -183h-28q-104 60 -142 69q-13 2 -27 2q-34 0 -86 -13q-336 -91 -336 -377q0 -218 197 -345q174 -123 530 -123q69 0 168 5v-62q-163 -39 -293 -39q-388 0 -598 180
q-157 156 -157 384q0 272 227 456q113 92 247 115q-114 84 -177 101q-81 19 -118 24q-76 7 -94 25q-9 12 -9 32q19 99 89 170q34 22 60 22q23 0 42 -5q18 -5 38 -21q64 -62 69 -62h120q7 2 18 2h42q67 7 130 71q84 104 115 104q43 0 101 -80q78 -96 147 -96q28 0 46 -36
q11 -29 11 -59q0 -31 -11 -55q-20 -30 -46 -30h-21q-55 0 -97 20q-25 13 -64 53q-70 78 -94 101q-130 -174 -232 -174zM344 850q0 -42 -31 -73t-79 -31q-47 0 -78.5 31t-31.5 73t32 73.5t78 31.5t78 -31.5t32 -73.5zM905 993q0 -42 -31 -73t-79 -31q-47 0 -78.5 31t-31.5 73
t32 73.5t78 31.5t78 -31.5t32 -73.5z" />
    <glyph glyph-name="uniFEE8_uniFEA2" unicode="&#xfee8;&#xfea2;" horiz-adv-x="1071" 
d="M541 334l32 11q20 -12 60 -34q135 -71 210 -92q25 -5 55 -10q4 -1 7 -1q46 -14 46 -50q0 -22 -177 -183h-28q-104 60 -142 69q-13 2 -27 2q-34 0 -86 -13q-336 -91 -336 -377q0 -218 197 -345q174 -123 530 -123q69 0 168 5v-62q-163 -39 -293 -39q-388 0 -598 180
q-157 156 -157 384q0 272 227 456q113 92 247 115q-114 84 -177 101q-81 19 -118 24q-76 7 -94 25q-9 12 -9 32q19 99 89 170q34 22 60 22q23 0 42 -5q18 -5 38 -21q64 -62 69 -62h120q7 2 18 2h42q67 7 130 71q84 104 115 104q43 0 101 -80q78 -96 147 -96q28 0 46 -36
q11 -29 11 -59q0 -31 -11 -55q-20 -30 -46 -30h-21q-55 0 -97 20q-25 13 -64 53q-70 78 -94 101q-130 -174 -232 -174zM910 987q0 -42 -31 -73t-79 -31q-47 0 -78.5 31t-31.5 73t32 73.5t78 31.5t78 -31.5t32 -73.5z" />
    <glyph glyph-name="uniFEE8_uniFE9E" unicode="&#xfee8;&#xfe9e;" horiz-adv-x="1071" 
d="M541 334l32 11q20 -12 60 -34q135 -71 210 -92q25 -5 55 -10q4 -1 7 -1q46 -14 46 -50q0 -22 -177 -183h-28q-104 60 -142 69q-13 2 -27 2q-34 0 -86 -13q-336 -91 -336 -377q0 -218 197 -345q174 -123 530 -123q69 0 168 5v-62q-163 -39 -293 -39q-388 0 -598 180
q-157 156 -157 384q0 272 227 456q113 92 247 115q-114 84 -177 101q-81 19 -118 24q-76 7 -94 25q-9 12 -9 32q19 99 89 170q34 22 60 22q23 0 42 -5q18 -5 38 -21q64 -62 69 -62h120q7 2 18 2h42q67 7 130 71q84 104 115 104q43 0 101 -80q78 -96 147 -96q28 0 46 -36
q11 -29 11 -59q0 -31 -11 -55q-20 -30 -46 -30h-21q-55 0 -97 20q-25 13 -64 53q-70 78 -94 101q-130 -174 -232 -174zM585 -323q0 -42 -31 -73t-79 -31q-47 0 -78.5 31t-31.5 73t32 73.5t78 31.5t78 -31.5t32 -73.5zM910 987q0 -42 -31 -73t-79 -31q-47 0 -78.5 31
t-31.5 73t32 73.5t78 31.5t78 -31.5t32 -73.5z" />
    <glyph glyph-name="uniFEE8_uniFEA0" unicode="&#xfee8;&#xfea0;" horiz-adv-x="1067" 
d="M548 334q-6 -1 27 -1q102 -110 130 -127q23 -19 90 -36l103 -25q48 -8 48 -48l-2 -16q0 -19 -177 -166h-40q-94 107 -159 107q-11 0 -20 -1q-46 -12 -90 -23q-47 -9 -185 -13h-261q-37 8 -57 34q-22 23 -22 57q0 35 27 62q29 27 69 27h473q-125 142 -200 163
q-82 19 -120 24q-77 7 -92 26q-9 11 -9 31q17 99 89 170q31 22 60 22q23 0 42 -5q16 -5 38 -21q64 -62 67 -62h153q3 1 10 1q78 0 149 72q84 104 115 104q43 0 101 -80q78 -96 147 -96q28 0 46 -36q11 -29 11 -59q0 -31 -11 -55q-20 -30 -46 -30h-21q-55 0 -97 20
q-25 13 -64 53q-70 78 -94 101q-126 -168 -228 -174zM679 -195q0 -42 -31 -73t-79 -31q-47 0 -78.5 31t-31.5 73t32 73.5t78 31.5t78 -31.5t32 -73.5zM913 987q0 -42 -31 -73t-79 -31q-47 0 -78.5 31t-31.5 73t32 73.5t78 31.5t78 -31.5t32 -73.5z" />
    <glyph glyph-name="uniFEE8_uniFEA4" unicode="&#xfee8;&#xfea4;" horiz-adv-x="1065" 
d="M548 334q-6 -1 27 -1q102 -110 130 -127q23 -19 90 -36l103 -25q48 -8 48 -48l-2 -16q0 -19 -177 -166h-40q-94 107 -159 107q-11 0 -20 -1q-46 -12 -90 -23q-47 -9 -185 -13h-261q-37 8 -57 34q-22 23 -22 57q0 35 27 62q29 27 69 27h473q-125 142 -200 163
q-82 19 -120 24q-77 7 -92 26q-9 11 -9 31q17 99 89 170q31 22 60 22q23 0 42 -5q16 -5 38 -21q64 -62 67 -62h153q3 1 10 1q78 0 149 72q84 104 115 104q43 0 101 -80q78 -96 147 -96q28 0 46 -36q11 -29 11 -59q0 -31 -11 -55q-20 -30 -46 -30h-21q-55 0 -97 20
q-25 13 -64 53q-70 78 -94 101q-126 -168 -228 -174zM913 984q0 -42 -31 -73t-79 -31q-47 0 -78.5 31t-31.5 73t32 73.5t78 31.5t78 -31.5t32 -73.5z" />
    <glyph glyph-name="uniFEE8_uniFEA8" unicode="&#xfee8;&#xfea8;" horiz-adv-x="1071" 
d="M548 334q-6 -1 27 -1q102 -110 130 -127q23 -19 90 -36l103 -25q48 -8 48 -48l-2 -16q0 -19 -177 -166h-40q-94 107 -159 107q-11 0 -20 -1q-46 -12 -90 -23q-47 -9 -185 -13h-261q-37 8 -57 34q-22 23 -22 57q0 35 27 62q29 27 69 27h473q-125 142 -200 163
q-82 19 -120 24q-77 7 -92 26q-9 11 -9 31q17 99 89 170q31 22 60 22q23 0 42 -5q16 -5 38 -21q64 -62 67 -62h153q3 1 10 1q78 0 149 72q84 104 115 104q43 0 101 -80q78 -96 147 -96q28 0 46 -36q11 -29 11 -59q0 -31 -11 -55q-20 -30 -46 -30h-21q-55 0 -97 20
q-25 13 -64 53q-70 78 -94 101q-126 -168 -228 -174zM397 862q0 -42 -31 -73t-79 -31q-47 0 -78.5 31t-31.5 73t32 73.5t78 31.5t78 -31.5t32 -73.5zM913 987q0 -42 -31 -73t-79 -31q-47 0 -78.5 31t-31.5 73t32 73.5t78 31.5t78 -31.5t32 -73.5z" />
    <glyph glyph-name="uniFE9C_uniFEA6" unicode="&#xfe9c;&#xfea6;" horiz-adv-x="1071" 
d="M541 334l32 11q20 -12 60 -34q135 -71 210 -92q25 -5 55 -10q4 -1 7 -1q46 -14 46 -50q0 -22 -177 -183h-28q-104 60 -142 69q-13 2 -27 2q-34 0 -86 -13q-336 -91 -336 -377q0 -218 197 -345q174 -123 530 -123q69 0 168 5v-62q-163 -39 -293 -39q-388 0 -598 180
q-157 156 -157 384q0 272 227 456q113 92 247 115q-114 84 -177 101q-81 19 -118 24q-76 7 -94 25q-9 12 -9 32q19 99 89 170q34 22 60 22q23 0 42 -5q18 -5 38 -21q64 -62 69 -62h120q7 2 18 2h42q67 7 130 71q84 104 115 104q43 0 101 -80q78 -96 147 -96q28 0 46 -36
q11 -29 11 -59q0 -31 -11 -55q-20 -30 -46 -30h-21q-55 0 -97 20q-25 13 -64 53q-70 78 -94 101q-130 -174 -232 -174zM351 852q0 -42 -31 -73t-79 -31q-47 0 -78.5 31t-31.5 73t32 73.5t78 31.5t78 -31.5t32 -73.5zM753 962q0 -42 -31 -73t-79 -31q-47 0 -78.5 31t-31.5 73
t32 73.5t78 31.5t78 -31.5t32 -73.5zM997 995q0 -42 -31 -73t-79 -31q-47 0 -78.5 31t-31.5 73t32 73.5t78 31.5t78 -31.5t32 -73.5zM836 1201q0 -42 -31 -73t-79 -31q-47 0 -78.5 31t-31.5 73t32 73.5t78 31.5t78 -31.5t32 -73.5z" />
    <glyph glyph-name="uniFE9C_uniFEA2" unicode="&#xfe9c;&#xfea2;" horiz-adv-x="1071" 
d="M541 334l32 11q20 -12 60 -34q135 -71 210 -92q25 -5 55 -10q4 -1 7 -1q46 -14 46 -50q0 -22 -177 -183h-28q-104 60 -142 69q-13 2 -27 2q-34 0 -86 -13q-336 -91 -336 -377q0 -218 197 -345q174 -123 530 -123q69 0 168 5v-62q-163 -39 -293 -39q-388 0 -598 180
q-157 156 -157 384q0 272 227 456q113 92 247 115q-114 84 -177 101q-81 19 -118 24q-76 7 -94 25q-9 12 -9 32q19 99 89 170q34 22 60 22q23 0 42 -5q18 -5 38 -21q64 -62 69 -62h120q7 2 18 2h42q67 7 130 71q84 104 115 104q43 0 101 -80q78 -96 147 -96q28 0 46 -36
q11 -29 11 -59q0 -31 -11 -55q-20 -30 -46 -30h-21q-55 0 -97 20q-25 13 -64 53q-70 78 -94 101q-130 -174 -232 -174zM753 962q0 -42 -31 -73t-79 -31q-47 0 -78.5 31t-31.5 73t32 73.5t78 31.5t78 -31.5t32 -73.5zM997 995q0 -42 -31 -73t-79 -31q-47 0 -78.5 31t-31.5 73
t32 73.5t78 31.5t78 -31.5t32 -73.5zM836 1201q0 -42 -31 -73t-79 -31q-47 0 -78.5 31t-31.5 73t32 73.5t78 31.5t78 -31.5t32 -73.5z" />
    <glyph glyph-name="uniFE9C_uniFE9E" unicode="&#xfe9c;&#xfe9e;" horiz-adv-x="1071" 
d="M541 334l32 11q20 -12 60 -34q135 -71 210 -92q25 -5 55 -10q4 -1 7 -1q46 -14 46 -50q0 -22 -177 -183h-28q-104 60 -142 69q-13 2 -27 2q-34 0 -86 -13q-336 -91 -336 -377q0 -218 197 -345q174 -123 530 -123q69 0 168 5v-62q-163 -39 -293 -39q-388 0 -598 180
q-157 156 -157 384q0 272 227 456q113 92 247 115q-114 84 -177 101q-81 19 -118 24q-76 7 -94 25q-9 12 -9 32q19 99 89 170q34 22 60 22q23 0 42 -5q18 -5 38 -21q64 -62 69 -62h120q7 2 18 2h42q67 7 130 71q84 104 115 104q43 0 101 -80q78 -96 147 -96q28 0 46 -36
q11 -29 11 -59q0 -31 -11 -55q-20 -30 -46 -30h-21q-55 0 -97 20q-25 13 -64 53q-70 78 -94 101q-130 -174 -232 -174zM753 962q0 -42 -31 -73t-79 -31q-47 0 -78.5 31t-31.5 73t32 73.5t78 31.5t78 -31.5t32 -73.5zM997 995q0 -42 -31 -73t-79 -31q-47 0 -78.5 31t-31.5 73
t32 73.5t78 31.5t78 -31.5t32 -73.5zM836 1201q0 -42 -31 -73t-79 -31q-47 0 -78.5 31t-31.5 73t32 73.5t78 31.5t78 -31.5t32 -73.5zM575 -331q0 -42 -31 -73t-79 -31q-47 0 -78.5 31t-31.5 73t32 73.5t78 31.5t78 -31.5t32 -73.5z" />
    <glyph glyph-name="uniFE9C_uniFEA0" unicode="&#xfe9c;&#xfea0;" horiz-adv-x="1067" 
d="M548 334q-6 -1 27 -1q102 -110 130 -127q23 -19 90 -36l103 -25q48 -8 48 -48l-2 -16q0 -19 -177 -166h-40q-94 107 -159 107q-11 0 -20 -1q-46 -12 -90 -23q-47 -9 -185 -13h-261q-37 8 -57 34q-22 23 -22 57q0 35 27 62q29 27 69 27h473q-125 142 -200 163
q-82 19 -120 24q-77 7 -92 26q-9 11 -9 31q17 99 89 170q31 22 60 22q23 0 42 -5q16 -5 38 -21q64 -62 67 -62h153q3 1 10 1q78 0 149 72q84 104 115 104q43 0 101 -80q78 -96 147 -96q28 0 46 -36q11 -29 11 -59q0 -31 -11 -55q-20 -30 -46 -30h-21q-55 0 -97 20
q-25 13 -64 53q-70 78 -94 101q-126 -168 -228 -174zM765 1002q0 -42 -31 -73t-79 -31q-47 0 -78.5 31t-31.5 73t32 73.5t78 31.5t78 -31.5t32 -73.5zM1009 1035q0 -42 -31 -73t-79 -31q-47 0 -78.5 31t-31.5 73t32 73.5t78 31.5t78 -31.5t32 -73.5zM848 1241q0 -42 -31 -73
t-79 -31q-47 0 -78.5 31t-31.5 73t32 73.5t78 31.5t78 -31.5t32 -73.5zM684 -180q0 -42 -31 -73t-79 -31q-47 0 -78.5 31t-31.5 73t32 73.5t78 31.5t78 -31.5t32 -73.5z" />
    <glyph glyph-name="uniFE9C_uniFEA4" unicode="&#xfe9c;&#xfea4;" horiz-adv-x="1065" 
d="M548 334q-6 -1 27 -1q102 -110 130 -127q23 -19 90 -36l103 -25q48 -8 48 -48l-2 -16q0 -19 -177 -166h-40q-94 107 -159 107q-11 0 -20 -1q-46 -12 -90 -23q-47 -9 -185 -13h-261q-37 8 -57 34q-22 23 -22 57q0 35 27 62q29 27 69 27h473q-125 142 -200 163
q-82 19 -120 24q-77 7 -92 26q-9 11 -9 31q17 99 89 170q31 22 60 22q23 0 42 -5q16 -5 38 -21q64 -62 67 -62h153q3 1 10 1q78 0 149 72q84 104 115 104q43 0 101 -80q78 -96 147 -96q28 0 46 -36q11 -29 11 -59q0 -31 -11 -55q-20 -30 -46 -30h-21q-55 0 -97 20
q-25 13 -64 53q-70 78 -94 101q-126 -168 -228 -174zM765 1002q0 -42 -31 -73t-79 -31q-47 0 -78.5 31t-31.5 73t32 73.5t78 31.5t78 -31.5t32 -73.5zM1009 1035q0 -42 -31 -73t-79 -31q-47 0 -78.5 31t-31.5 73t32 73.5t78 31.5t78 -31.5t32 -73.5zM848 1241q0 -42 -31 -73
t-79 -31q-47 0 -78.5 31t-31.5 73t32 73.5t78 31.5t78 -31.5t32 -73.5z" />
    <glyph glyph-name="uniFE9C_uniFEA8" unicode="&#xfe9c;&#xfea8;" horiz-adv-x="1071" 
d="M548 334q-6 -1 27 -1q102 -110 130 -127q23 -19 90 -36l103 -25q48 -8 48 -48l-2 -16q0 -19 -177 -166h-40q-94 107 -159 107q-11 0 -20 -1q-46 -12 -90 -23q-47 -9 -185 -13h-261q-37 8 -57 34q-22 23 -22 57q0 35 27 62q29 27 69 27h473q-125 142 -200 163
q-82 19 -120 24q-77 7 -92 26q-9 11 -9 31q17 99 89 170q31 22 60 22q23 0 42 -5q16 -5 38 -21q64 -62 67 -62h153q3 1 10 1q78 0 149 72q84 104 115 104q43 0 101 -80q78 -96 147 -96q28 0 46 -36q11 -29 11 -59q0 -31 -11 -55q-20 -30 -46 -30h-21q-55 0 -97 20
q-25 13 -64 53q-70 78 -94 101q-126 -168 -228 -174zM765 1002q0 -42 -31 -73t-79 -31q-47 0 -78.5 31t-31.5 73t32 73.5t78 31.5t78 -31.5t32 -73.5zM1009 1035q0 -42 -31 -73t-79 -31q-47 0 -78.5 31t-31.5 73t32 73.5t78 31.5t78 -31.5t32 -73.5zM848 1241q0 -42 -31 -73
t-79 -31q-47 0 -78.5 31t-31.5 73t32 73.5t78 31.5t78 -31.5t32 -73.5zM334 832q0 -42 -31 -73t-79 -31q-47 0 -78.5 31t-31.5 73t32 73.5t78 31.5t78 -31.5t32 -73.5z" />
    <glyph glyph-name="uniFE98_uniFEA6" unicode="&#xfe98;&#xfea6;" horiz-adv-x="1071" 
d="M541 334l32 11q20 -12 60 -34q135 -71 210 -92q25 -5 55 -10q4 -1 7 -1q46 -14 46 -50q0 -22 -177 -183h-28q-104 60 -142 69q-13 2 -27 2q-34 0 -86 -13q-336 -91 -336 -377q0 -218 197 -345q174 -123 530 -123q69 0 168 5v-62q-163 -39 -293 -39q-388 0 -598 180
q-157 156 -157 384q0 272 227 456q113 92 247 115q-114 84 -177 101q-81 19 -118 24q-76 7 -94 25q-9 12 -9 32q19 99 89 170q34 22 60 22q23 0 42 -5q18 -5 38 -21q64 -62 69 -62h120q7 2 18 2h42q67 7 130 71q84 104 115 104q43 0 101 -80q78 -96 147 -96q28 0 46 -36
q11 -29 11 -59q0 -31 -11 -55q-20 -30 -46 -30h-21q-55 0 -97 20q-25 13 -64 53q-70 78 -94 101q-130 -174 -232 -174zM1003 1013q0 -42 -31 -73t-79 -31q-47 0 -78.5 31t-31.5 73t32 73.5t78 31.5t78 -31.5t32 -73.5zM796 941q0 -42 -31 -73t-79 -31q-47 0 -78.5 31
t-31.5 73t32 73.5t78 31.5t78 -31.5t32 -73.5zM347 846q0 -42 -31 -73t-79 -31q-47 0 -78.5 31t-31.5 73t32 73.5t78 31.5t78 -31.5t32 -73.5z" />
    <glyph glyph-name="uniFE98_uniFEA2" unicode="&#xfe98;&#xfea2;" horiz-adv-x="1071" 
d="M541 334l32 11q20 -12 60 -34q135 -71 210 -92q25 -5 55 -10q4 -1 7 -1q46 -14 46 -50q0 -22 -177 -183h-28q-104 60 -142 69q-13 2 -27 2q-34 0 -86 -13q-336 -91 -336 -377q0 -218 197 -345q174 -123 530 -123q69 0 168 5v-62q-163 -39 -293 -39q-388 0 -598 180
q-157 156 -157 384q0 272 227 456q113 92 247 115q-114 84 -177 101q-81 19 -118 24q-76 7 -94 25q-9 12 -9 32q19 99 89 170q34 22 60 22q23 0 42 -5q18 -5 38 -21q64 -62 69 -62h120q7 2 18 2h42q67 7 130 71q84 104 115 104q43 0 101 -80q78 -96 147 -96q28 0 46 -36
q11 -29 11 -59q0 -31 -11 -55q-20 -30 -46 -30h-21q-55 0 -97 20q-25 13 -64 53q-70 78 -94 101q-130 -174 -232 -174zM988 992q0 -42 -31 -73t-79 -31q-47 0 -78.5 31t-31.5 73t32 73.5t78 31.5t78 -31.5t32 -73.5zM781 920q0 -42 -31 -73t-79 -31q-47 0 -78.5 31t-31.5 73
t32 73.5t78 31.5t78 -31.5t32 -73.5z" />
    <glyph glyph-name="uniFE98_uniFE9E" unicode="&#xfe98;&#xfe9e;" horiz-adv-x="1071" 
d="M541 334l32 11q20 -12 60 -34q135 -71 210 -92q25 -5 55 -10q4 -1 7 -1q46 -14 46 -50q0 -22 -177 -183h-28q-104 60 -142 69q-13 2 -27 2q-34 0 -86 -13q-336 -91 -336 -377q0 -218 197 -345q174 -123 530 -123q69 0 168 5v-62q-163 -39 -293 -39q-388 0 -598 180
q-157 156 -157 384q0 272 227 456q113 92 247 115q-114 84 -177 101q-81 19 -118 24q-76 7 -94 25q-9 12 -9 32q19 99 89 170q34 22 60 22q23 0 42 -5q18 -5 38 -21q64 -62 69 -62h120q7 2 18 2h42q67 7 130 71q84 104 115 104q43 0 101 -80q78 -96 147 -96q28 0 46 -36
q11 -29 11 -59q0 -31 -11 -55q-20 -30 -46 -30h-21q-55 0 -97 20q-25 13 -64 53q-70 78 -94 101q-130 -174 -232 -174zM1003 1013q0 -42 -31 -73t-79 -31q-47 0 -78.5 31t-31.5 73t32 73.5t78 31.5t78 -31.5t32 -73.5zM796 941q0 -42 -31 -73t-79 -31q-47 0 -78.5 31
t-31.5 73t32 73.5t78 31.5t78 -31.5t32 -73.5zM580 -326q0 -42 -31 -73t-79 -31q-47 0 -78.5 31t-31.5 73t32 73.5t78 31.5t78 -31.5t32 -73.5z" />
    <glyph glyph-name="uniFE98_uniFEA0" unicode="&#xfe98;&#xfea0;" horiz-adv-x="1067" 
d="M548 334q-6 -1 27 -1q102 -110 130 -127q23 -19 90 -36l103 -25q48 -8 48 -48l-2 -16q0 -19 -177 -166h-40q-94 107 -159 107q-11 0 -20 -1q-46 -12 -90 -23q-47 -9 -185 -13h-261q-37 8 -57 34q-22 23 -22 57q0 35 27 62q29 27 69 27h473q-125 142 -200 163
q-82 19 -120 24q-77 7 -92 26q-9 11 -9 31q17 99 89 170q31 22 60 22q23 0 42 -5q16 -5 38 -21q64 -62 67 -62h153q3 1 10 1q78 0 149 72q84 104 115 104q43 0 101 -80q78 -96 147 -96q28 0 46 -36q11 -29 11 -59q0 -31 -11 -55q-20 -30 -46 -30h-21q-55 0 -97 20
q-25 13 -64 53q-70 78 -94 101q-126 -168 -228 -174zM1006 1013q0 -42 -31 -73t-79 -31q-47 0 -78.5 31t-31.5 73t32 73.5t78 31.5t78 -31.5t32 -73.5zM799 941q0 -42 -31 -73t-79 -31q-47 0 -78.5 31t-31.5 73t32 73.5t78 31.5t78 -31.5t32 -73.5zM678 -194q0 -42 -31 -73
t-79 -31q-47 0 -78.5 31t-31.5 73t32 73.5t78 31.5t78 -31.5t32 -73.5z" />
    <glyph glyph-name="uniFE98_uniFEA4" unicode="&#xfe98;&#xfea4;" horiz-adv-x="1065" 
d="M548 334q-6 -1 27 -1q102 -110 130 -127q23 -19 90 -36l103 -25q48 -8 48 -48l-2 -16q0 -19 -177 -166h-40q-94 107 -159 107q-11 0 -20 -1q-46 -12 -90 -23q-47 -9 -185 -13h-261q-37 8 -57 34q-22 23 -22 57q0 35 27 62q29 27 69 27h473q-125 142 -200 163
q-82 19 -120 24q-77 7 -92 26q-9 11 -9 31q17 99 89 170q31 22 60 22q23 0 42 -5q16 -5 38 -21q64 -62 67 -62h153q3 1 10 1q78 0 149 72q84 104 115 104q43 0 101 -80q78 -96 147 -96q28 0 46 -36q11 -29 11 -59q0 -31 -11 -55q-20 -30 -46 -30h-21q-55 0 -97 20
q-25 13 -64 53q-70 78 -94 101q-126 -168 -228 -174zM1006 1013q0 -42 -31 -73t-79 -31q-47 0 -78.5 31t-31.5 73t32 73.5t78 31.5t78 -31.5t32 -73.5zM799 941q0 -42 -31 -73t-79 -31q-47 0 -78.5 31t-31.5 73t32 73.5t78 31.5t78 -31.5t32 -73.5z" />
    <glyph glyph-name="uniFE98_uniFEA8" unicode="&#xfe98;&#xfea8;" horiz-adv-x="1071" 
d="M548 334q-6 -1 27 -1q102 -110 130 -127q23 -19 90 -36l103 -25q48 -8 48 -48l-2 -16q0 -19 -177 -166h-40q-94 107 -159 107q-11 0 -20 -1q-46 -12 -90 -23q-47 -9 -185 -13h-261q-37 8 -57 34q-22 23 -22 57q0 35 27 62q29 27 69 27h473q-125 142 -200 163
q-82 19 -120 24q-77 7 -92 26q-9 11 -9 31q17 99 89 170q31 22 60 22q23 0 42 -5q16 -5 38 -21q64 -62 67 -62h153q3 1 10 1q78 0 149 72q84 104 115 104q43 0 101 -80q78 -96 147 -96q28 0 46 -36q11 -29 11 -59q0 -31 -11 -55q-20 -30 -46 -30h-21q-55 0 -97 20
q-25 13 -64 53q-70 78 -94 101q-126 -168 -228 -174zM1006 1013q0 -42 -31 -73t-79 -31q-47 0 -78.5 31t-31.5 73t32 73.5t78 31.5t78 -31.5t32 -73.5zM799 941q0 -42 -31 -73t-79 -31q-47 0 -78.5 31t-31.5 73t32 73.5t78 31.5t78 -31.5t32 -73.5zM399 861q0 -42 -31 -73
t-79 -31q-47 0 -78.5 31t-31.5 73t32 73.5t78 31.5t78 -31.5t32 -73.5z" />
    <glyph glyph-name="uniFE9B_uniFEA6" unicode="&#xfe9b;&#xfea6;" horiz-adv-x="1240" 
d="M544 335l30 9q170 -98 269 -125q25 -5 55 -10q4 -1 7 -1q46 -14 46 -50q0 -22 -177 -183h-28q-104 60 -142 69q-13 2 -27 2q-34 0 -86 -13q-336 -91 -336 -377q0 -218 197 -345q174 -123 530 -123q69 0 168 5v-62q-163 -39 -293 -39q-388 0 -598 180q-157 156 -157 384
q0 272 227 456q113 92 247 115q-114 84 -177 101q-81 19 -118 24q-76 7 -94 25q-9 12 -9 32q19 99 89 170q34 22 60 22q23 0 42 -5q18 -5 38 -21q64 -62 69 -62h123l297 2q225 21 248 139q13 124 -186 183l-7 23q42 149 74 155q38 9 113 -54q163 -164 88 -403
q-59 -163 -277 -213q-20 -10 -305 -10zM866 1250q0 -42 -31 -73t-79 -31q-47 0 -78.5 31t-31.5 73t32 73.5t78 31.5t78 -31.5t32 -73.5zM1110 1283q0 -42 -31 -73t-79 -31q-47 0 -78.5 31t-31.5 73t32 73.5t78 31.5t78 -31.5t32 -73.5zM949 1489q0 -42 -31 -73t-79 -31
q-47 0 -78.5 31t-31.5 73t32 73.5t78 31.5t78 -31.5t32 -73.5zM419 843q0 -42 -31 -73t-79 -31q-47 0 -78.5 31t-31.5 73t32 73.5t78 31.5t78 -31.5t32 -73.5z" />
    <glyph glyph-name="uniFE9B_uniFEA2" unicode="&#xfe9b;&#xfea2;" horiz-adv-x="1240" 
d="M544 335l30 9q170 -98 269 -125q25 -5 55 -10q4 -1 7 -1q46 -14 46 -50q0 -22 -177 -183h-28q-104 60 -142 69q-13 2 -27 2q-34 0 -86 -13q-336 -91 -336 -377q0 -218 197 -345q174 -123 530 -123q69 0 168 5v-62q-163 -39 -293 -39q-388 0 -598 180q-157 156 -157 384
q0 272 227 456q113 92 247 115q-114 84 -177 101q-81 19 -118 24q-76 7 -94 25q-9 12 -9 32q19 99 89 170q34 22 60 22q23 0 42 -5q18 -5 38 -21q64 -62 69 -62h123l297 2q225 21 248 139q13 124 -186 183l-7 23q42 149 74 155q38 9 113 -54q163 -164 88 -403
q-59 -163 -277 -213q-20 -10 -305 -10zM849 1245q0 -42 -31 -73t-79 -31q-47 0 -78.5 31t-31.5 73t32 73.5t78 31.5t78 -31.5t32 -73.5zM1093 1278q0 -42 -31 -73t-79 -31q-47 0 -78.5 31t-31.5 73t32 73.5t78 31.5t78 -31.5t32 -73.5zM932 1484q0 -42 -31 -73t-79 -31
q-47 0 -78.5 31t-31.5 73t32 73.5t78 31.5t78 -31.5t32 -73.5z" />
    <glyph glyph-name="uniFC11" unicode="&#xfe9b;&#xfe9e;" horiz-adv-x="1240" arabic-form="isolated" 
d="M544 335l30 9q170 -98 269 -125q25 -5 55 -10q4 -1 7 -1q46 -14 46 -50q0 -22 -177 -183h-28q-104 60 -142 69q-13 2 -27 2q-34 0 -86 -13q-336 -91 -336 -377q0 -218 197 -345q174 -123 530 -123q69 0 168 5v-62q-163 -39 -293 -39q-388 0 -598 180q-157 156 -157 384
q0 272 227 456q113 92 247 115q-114 84 -177 101q-81 19 -118 24q-76 7 -94 25q-9 12 -9 32q19 99 89 170q34 22 60 22q23 0 42 -5q18 -5 38 -21q64 -62 69 -62h123l297 2q225 21 248 139q13 124 -186 183l-7 23q42 149 74 155q38 9 113 -54q163 -164 88 -403
q-59 -163 -277 -213q-20 -10 -305 -10zM866 1268q0 -42 -31 -73t-79 -31q-47 0 -78.5 31t-31.5 73t32 73.5t78 31.5t78 -31.5t32 -73.5zM1110 1301q0 -42 -31 -73t-79 -31q-47 0 -78.5 31t-31.5 73t32 73.5t78 31.5t78 -31.5t32 -73.5zM949 1507q0 -42 -31 -73t-79 -31
q-47 0 -78.5 31t-31.5 73t32 73.5t78 31.5t78 -31.5t32 -73.5zM595 -303q0 -42 -31 -73t-79 -31q-47 0 -78.5 31t-31.5 73t32 73.5t78 31.5t78 -31.5t32 -73.5z" />
    <glyph glyph-name="uniFC17" unicode="&#xfea3;&#xfe9e;" horiz-adv-x="1824" arabic-form="isolated" 
d="M1268 515q-174 178 -285 178q-68 0 -97 -46l-1 -3q-11 -26 -11 -58q0 -47 17 -71h377zM541 334l35 9q168 -97 267 -124q25 -5 55 -10q4 -1 7 -1q46 -14 46 -50q0 -22 -177 -183h-28q-104 60 -142 69q-13 2 -27 2q-34 0 -86 -13q-336 -91 -336 -377q0 -218 197 -345
q174 -123 530 -123q69 0 168 5v-62q-163 -39 -293 -39q-388 0 -598 180q-157 156 -157 384q0 272 227 456q113 92 247 115q-114 84 -177 101q-81 19 -118 24q-76 7 -94 25q-9 12 -9 32q19 99 89 170q34 22 60 22q23 0 42 -5q18 -5 38 -21q64 -62 69 -62h129q5 1 13 1h236
q0 183 119 311q64 53 143 53q171 0 384 -221q78 -75 128 -107q68 -42 148 -57q48 -9 48 -48q0 -36 -179 -183h-41q-98 92 -183 92q-13 0 -27 -2q-40 -8 -183 -18h-570zM618 -389q0 -42 -31 -73t-79 -31q-47 0 -78.5 31t-31.5 73t32 73.5t78 31.5t78 -31.5t32 -73.5z" />
    <glyph glyph-name="uniFC19" unicode="&#xfe92;&#xfea2;" horiz-adv-x="1410" arabic-form="isolated" 
d="M1231 -233q0 -46 -33.5 -79.5t-85.5 -33.5q-51 0 -85 33.5t-34 79.5t34.5 80t84.5 34t84.5 -34t34.5 -80zM538 512q249 22 361 265q6 28 12 40q5 14 12 22q12 9 28 9q18 0 34 -8q10 -10 20 -36q7 -21 43 -130t65 -170q27 -64 62 -140q34 -74 68 -124q33 -49 68 -60
q40 -16 55 -16h15q35 -5 62 -33q21 -27 21 -62t-22 -58q-28 -26 -63 -26h-15q-118 0 -220 160q-100 155 -124 231q-27 73 -81 233h25q-81 -131 -193 -202q-111 -73 -179 -74q152 -87 251 -114q25 -5 55 -10q4 -1 7 -1q46 -14 46 -50q0 -22 -177 -183h-28q-104 60 -142 69
q-13 2 -27 2q-34 0 -86 -13q-336 -91 -336 -377q0 -218 197 -345q174 -123 530 -123q69 0 168 5v-62q-163 -39 -293 -39q-388 0 -598 180q-157 156 -157 384q0 272 227 456q113 92 247 115q-114 84 -177 101q-81 19 -118 24q-76 7 -94 25q-9 12 -9 32q19 99 89 170
q34 22 60 22q23 0 42 -5q18 -5 38 -21q64 -62 69 -62z" />
    <glyph glyph-name="uniFC1A" unicode="&#xfef4;&#xfea2;" horiz-adv-x="1410" arabic-form="isolated" 
d="M538 512q249 22 361 265q6 28 12 40q5 14 12 22q12 9 28 9q18 0 34 -8q10 -10 20 -36q7 -21 43 -130t65 -170q27 -64 62 -140q34 -74 68 -124q33 -49 68 -60q40 -16 55 -16h15q35 -5 62 -33q21 -27 21 -62t-22 -58q-28 -26 -63 -26h-15q-118 0 -220 160
q-100 155 -124 231q-27 73 -81 233h25q-81 -131 -193 -202q-111 -73 -179 -74q152 -87 251 -114q25 -5 55 -10q4 -1 7 -1q46 -14 46 -50q0 -22 -177 -183h-28q-104 60 -142 69q-13 2 -27 2q-34 0 -86 -13q-336 -91 -336 -377q0 -218 197 -345q174 -123 530 -123q69 0 168 5
v-62q-163 -39 -293 -39q-388 0 -598 180q-157 156 -157 384q0 272 227 456q113 92 247 115q-114 84 -177 101q-81 19 -118 24q-76 7 -94 25q-9 12 -9 32q19 99 89 170q34 22 60 22q23 0 42 -5q18 -5 38 -21q64 -62 69 -62zM1364 -207q0 -38 -28 -66t-71 -28q-42 0 -70.5 28
t-28.5 66t29 66.5t70 28.5t70 -28.5t29 -66.5zM1157 -279q0 -38 -28 -66t-71 -28q-42 0 -70.5 28t-28.5 66t29 66.5t70 28.5t70 -28.5t29 -66.5z" />
    <glyph glyph-name="uniFE92_uniFEA6" unicode="&#xfe92;&#xfea6;" horiz-adv-x="1410" 
d="M1234 -239q0 -46 -33.5 -79.5t-85.5 -33.5q-51 0 -85 33.5t-34 79.5t34.5 80t84.5 34t84.5 -34t34.5 -80zM418 876q0 -46 -33.5 -79.5t-85.5 -33.5q-51 0 -85 33.5t-34 79.5t34.5 80t84.5 34t84.5 -34t34.5 -80zM538 512q249 22 361 265q6 28 12 40q5 14 12 22q12 9 28 9
q18 0 34 -8q10 -10 20 -36q7 -21 43 -130t65 -170q27 -64 62 -140q34 -74 68 -124q33 -49 68 -60q40 -16 55 -16h15q35 -5 62 -33q21 -27 21 -62t-22 -58q-28 -26 -63 -26h-15q-118 0 -220 160q-100 155 -124 231q-27 73 -81 233h25q-81 -131 -193 -202q-111 -73 -179 -74
q152 -87 251 -114q25 -5 55 -10q4 -1 7 -1q46 -14 46 -50q0 -22 -177 -183h-28q-104 60 -142 69q-13 2 -27 2q-34 0 -86 -13q-336 -91 -336 -377q0 -218 197 -345q174 -123 530 -123q69 0 168 5v-62q-163 -39 -293 -39q-388 0 -598 180q-157 156 -157 384q0 272 227 456
q113 92 247 115q-114 84 -177 101q-81 19 -118 24q-76 7 -94 25q-9 12 -9 32q19 99 89 170q34 22 60 22q23 0 42 -5q18 -5 38 -21q64 -62 69 -62z" />
    <glyph glyph-name="uniFE92_uniFE9E" unicode="&#xfe92;&#xfe9e;" horiz-adv-x="1410" 
d="M1245 -222q0 -46 -33.5 -79.5t-85.5 -33.5q-51 0 -85 33.5t-34 79.5t34.5 80t84.5 34t84.5 -34t34.5 -80zM626 -400q0 -46 -33.5 -79.5t-85.5 -33.5q-51 0 -85 33.5t-34 79.5t34.5 80t84.5 34t84.5 -34t34.5 -80zM538 512q249 22 361 265q6 28 12 40q5 14 12 22
q12 9 28 9q18 0 34 -8q10 -10 20 -36q7 -21 43 -130t65 -170q27 -64 62 -140q34 -74 68 -124q33 -49 68 -60q40 -16 55 -16h15q35 -5 62 -33q21 -27 21 -62t-22 -58q-28 -26 -63 -26h-15q-118 0 -220 160q-100 155 -124 231q-27 73 -81 233h25q-81 -131 -193 -202
q-111 -73 -179 -74q152 -87 251 -114q25 -5 55 -10q4 -1 7 -1q46 -14 46 -50q0 -22 -177 -183h-28q-104 60 -142 69q-13 2 -27 2q-34 0 -86 -13q-336 -91 -336 -377q0 -218 197 -345q174 -123 530 -123q69 0 168 5v-62q-163 -39 -293 -39q-388 0 -598 180q-157 156 -157 384
q0 272 227 456q113 92 247 115q-114 84 -177 101q-81 19 -118 24q-76 7 -94 25q-9 12 -9 32q19 99 89 170q34 22 60 22q23 0 42 -5q18 -5 38 -21q64 -62 69 -62z" />
    <glyph glyph-name="uniFEF4_uniFEA6" unicode="&#xfef4;&#xfea6;" horiz-adv-x="1410" 
d="M412 894q0 -46 -33.5 -79.5t-85.5 -33.5q-51 0 -85 33.5t-34 79.5t34.5 80t84.5 34t84.5 -34t34.5 -80zM538 512q249 22 361 265q6 28 12 40q5 14 12 22q12 9 28 9q18 0 34 -8q10 -10 20 -36q7 -21 43 -130t65 -170q27 -64 62 -140q34 -74 68 -124q33 -49 68 -60
q40 -16 55 -16h15q35 -5 62 -33q21 -27 21 -62t-22 -58q-28 -26 -63 -26h-15q-118 0 -220 160q-100 155 -124 231q-27 73 -81 233h25q-81 -131 -193 -202q-111 -73 -179 -74q152 -87 251 -114q25 -5 55 -10q4 -1 7 -1q46 -14 46 -50q0 -22 -177 -183h-28q-104 60 -142 69
q-13 2 -27 2q-34 0 -86 -13q-336 -91 -336 -377q0 -218 197 -345q174 -123 530 -123q69 0 168 5v-62q-163 -39 -293 -39q-388 0 -598 180q-157 156 -157 384q0 272 227 456q113 92 247 115q-114 84 -177 101q-81 19 -118 24q-76 7 -94 25q-9 12 -9 32q19 99 89 170
q34 22 60 22q23 0 42 -5q18 -5 38 -21q64 -62 69 -62zM1364 -207q0 -38 -28 -66t-71 -28q-42 0 -70.5 28t-28.5 66t29 66.5t70 28.5t70 -28.5t29 -66.5zM1157 -279q0 -38 -28 -66t-71 -28q-42 0 -70.5 28t-28.5 66t29 66.5t70 28.5t70 -28.5t29 -66.5z" />
    <glyph glyph-name="uniFEF4_uniFE9E" unicode="&#xfef4;&#xfe9e;" horiz-adv-x="1410" 
d="M633 -395q0 -46 -33.5 -79.5t-85.5 -33.5q-51 0 -85 33.5t-34 79.5t34.5 80t84.5 34t84.5 -34t34.5 -80zM538 512q249 22 361 265q6 28 12 40q5 14 12 22q12 9 28 9q18 0 34 -8q10 -10 20 -36q7 -21 43 -130t65 -170q27 -64 62 -140q34 -74 68 -124q33 -49 68 -60
q40 -16 55 -16h15q35 -5 62 -33q21 -27 21 -62t-22 -58q-28 -26 -63 -26h-15q-118 0 -220 160q-100 155 -124 231q-27 73 -81 233h25q-81 -131 -193 -202q-111 -73 -179 -74q152 -87 251 -114q25 -5 55 -10q4 -1 7 -1q46 -14 46 -50q0 -22 -177 -183h-28q-104 60 -142 69
q-13 2 -27 2q-34 0 -86 -13q-336 -91 -336 -377q0 -218 197 -345q174 -123 530 -123q69 0 168 5v-62q-163 -39 -293 -39q-388 0 -598 180q-157 156 -157 384q0 272 227 456q113 92 247 115q-114 84 -177 101q-81 19 -118 24q-76 7 -94 25q-9 12 -9 32q19 99 89 170
q34 22 60 22q23 0 42 -5q18 -5 38 -21q64 -62 69 -62zM1364 -207q0 -38 -28 -66t-71 -28q-42 0 -70.5 28t-28.5 66t29 66.5t70 28.5t70 -28.5t29 -66.5zM1157 -279q0 -38 -28 -66t-71 -28q-42 0 -70.5 28t-28.5 66t29 66.5t70 28.5t70 -28.5t29 -66.5z" />
    <glyph glyph-name="uniFE92_uniFEA4" unicode="&#xfe92;&#xfea4;" horiz-adv-x="1410" 
d="M562 333q-75 0 -99 29q-24 27 -24 62q0 34 25 61q24 27 63 27h7q252 20 365 265q6 28 12 40q5 14 12 22q12 9 28 9q18 0 34 -8q10 -10 20 -36q7 -21 43 -130t65 -170q27 -64 62 -140q34 -74 68 -124q33 -49 68 -60q40 -16 55 -16h15q35 -5 62 -33q21 -27 21 -62t-22 -58
q-28 -26 -63 -26h-15q-118 0 -220 160q-100 155 -124 231q-27 73 -81 233h25q-81 -131 -193 -202q-114 -74 -209 -74zM764 -85h-40q-94 107 -159 107q-11 0 -20 -1q-46 -12 -90 -23q-47 -9 -185 -13h-261q-37 8 -57 34q-22 23 -22 57q0 35 27 62q29 27 69 27h473
q-125 142 -200 163q-82 19 -120 24q-77 7 -92 26q-9 11 -9 31q17 99 89 170q31 22 60 22q23 0 42 -5q16 -5 38 -21q64 -62 67 -62h156q20 0 37 -9q42 -29 42 -82q0 -49 -42 -80q-20 -9 5 -9q102 -110 130 -127q23 -19 90 -36l103 -25q48 -8 48 -48l-2 -16q0 -19 -177 -166z
M1227 -233q0 -46 -33.5 -79.5t-85.5 -33.5q-51 0 -85 33.5t-34 79.5t34.5 80t84.5 34t84.5 -34t34.5 -80z" />
    <glyph glyph-name="uniFEF4_uniFEA4" unicode="&#xfef4;&#xfea4;" horiz-adv-x="1410" 
d="M540 512q247 23 359 265q6 28 12 40q5 14 12 22q12 9 28 9q18 0 34 -8q10 -10 20 -36q7 -21 43 -130t65 -170q27 -64 62 -140q34 -74 68 -124q33 -49 68 -60q40 -16 55 -16h15q35 -5 62 -33q21 -27 21 -62t-22 -58q-28 -26 -63 -26h-15q-118 0 -220 160
q-100 155 -124 231q-25 67 -72 208q-76 -113 -177 -177q-110 -72 -203 -74h4q102 -110 130 -127q23 -19 90 -36l103 -25q48 -8 48 -48l-2 -16q0 -19 -177 -166h-40q-94 107 -159 107q-11 0 -20 -1q-46 -12 -90 -23q-47 -9 -185 -13h-261q-37 8 -57 34q-22 23 -22 57
q0 35 27 62q29 27 69 27h473q-125 142 -200 163q-82 19 -120 24q-77 7 -92 26q-9 11 -9 31q17 99 89 170q31 22 60 22q23 0 42 -5q16 -5 38 -21q64 -62 67 -62h156q5 0 10 -1zM1157 -279q0 -38 -28 -66t-71 -28q-42 0 -70.5 28t-28.5 66t29 66.5t70 28.5t70 -28.5t29 -66.5z
M1364 -207q0 -38 -28 -66t-71 -28q-42 0 -70.5 28t-28.5 66t29 66.5t70 28.5t70 -28.5t29 -66.5z" />
    <glyph glyph-name="uniFE92_uniFEA8" unicode="&#xfe92;&#xfea8;" horiz-adv-x="1410" 
d="M562 333q-75 0 -99 29q-24 27 -24 62q0 34 25 61q24 27 63 27h7q252 20 365 265q6 28 12 40q5 14 12 22q12 9 28 9q18 0 34 -8q10 -10 20 -36q7 -21 43 -130t65 -170q27 -64 62 -140q34 -74 68 -124q33 -49 68 -60q40 -16 55 -16h15q35 -5 62 -33q21 -27 21 -62t-22 -58
q-28 -26 -63 -26h-15q-118 0 -220 160q-100 155 -124 231q-27 73 -81 233h25q-81 -131 -193 -202q-114 -74 -209 -74zM764 -85h-40q-94 107 -159 107q-11 0 -20 -1q-46 -12 -90 -23q-47 -9 -185 -13h-261q-37 8 -57 34q-22 23 -22 57q0 35 27 62q29 27 69 27h473
q-125 142 -200 163q-82 19 -120 24q-77 7 -92 26q-9 11 -9 31q17 99 89 170q31 22 60 22q23 0 42 -5q16 -5 38 -21q64 -62 67 -62h156q20 0 37 -9q42 -29 42 -82q0 -49 -42 -80q-20 -9 5 -9q102 -110 130 -127q23 -19 90 -36l103 -25q48 -8 48 -48l-2 -16q0 -19 -177 -166z
M1228 -239q0 -46 -33.5 -79.5t-85.5 -33.5q-51 0 -85 33.5t-34 79.5t34.5 80t84.5 34t84.5 -34t34.5 -80zM400 882q0 -46 -33.5 -79.5t-85.5 -33.5q-51 0 -85 33.5t-34 79.5t34.5 80t84.5 34t84.5 -34t34.5 -80z" />
    <glyph glyph-name="uniFE92_uniFEA0" unicode="&#xfe92;&#xfea0;" horiz-adv-x="1410" 
d="M562 333q-75 0 -99 29q-24 27 -24 62q0 34 25 61q24 27 63 27h7q252 20 365 265q6 28 12 40q5 14 12 22q12 9 28 9q18 0 34 -8q10 -10 20 -36q7 -21 43 -130t65 -170q27 -64 62 -140q34 -74 68 -124q33 -49 68 -60q40 -16 55 -16h15q35 -5 62 -33q21 -27 21 -62t-22 -58
q-28 -26 -63 -26h-15q-118 0 -220 160q-100 155 -124 231q-27 73 -81 233h25q-81 -131 -193 -202q-114 -74 -209 -74zM764 -85h-40q-94 107 -159 107q-11 0 -20 -1q-46 -12 -90 -23q-47 -9 -185 -13h-261q-37 8 -57 34q-22 23 -22 57q0 35 27 62q29 27 69 27h473
q-125 142 -200 163q-82 19 -120 24q-77 7 -92 26q-9 11 -9 31q17 99 89 170q31 22 60 22q23 0 42 -5q16 -5 38 -21q64 -62 67 -62h156q20 0 37 -9q42 -29 42 -82q0 -49 -42 -80q-20 -9 5 -9q102 -110 130 -127q23 -19 90 -36l103 -25q48 -8 48 -48l-2 -16q0 -19 -177 -166z
M1217 -222q0 -46 -33.5 -79.5t-85.5 -33.5q-51 0 -85 33.5t-34 79.5t34.5 80t84.5 34t84.5 -34t34.5 -80zM655 -198q0 -46 -33.5 -79.5t-85.5 -33.5q-51 0 -85 33.5t-34 79.5t34.5 80t84.5 34t84.5 -34t34.5 -80z" />
    <glyph glyph-name="uniFEF4_uniFEA8" unicode="&#xfef4;&#xfea8;" horiz-adv-x="1410" 
d="M540 512q247 23 359 265q6 28 12 40q5 14 12 22q12 9 28 9q18 0 34 -8q10 -10 20 -36q7 -21 43 -130t65 -170q27 -64 62 -140q34 -74 68 -124q33 -49 68 -60q40 -16 55 -16h15q35 -5 62 -33q21 -27 21 -62t-22 -58q-28 -26 -63 -26h-15q-118 0 -220 160
q-100 155 -124 231q-25 67 -72 208q-76 -113 -177 -177q-110 -72 -203 -74h4q102 -110 130 -127q23 -19 90 -36l103 -25q48 -8 48 -48l-2 -16q0 -19 -177 -166h-40q-94 107 -159 107q-11 0 -20 -1q-46 -12 -90 -23q-47 -9 -185 -13h-261q-37 8 -57 34q-22 23 -22 57
q0 35 27 62q29 27 69 27h473q-125 142 -200 163q-82 19 -120 24q-77 7 -92 26q-9 11 -9 31q17 99 89 170q31 22 60 22q23 0 42 -5q16 -5 38 -21q64 -62 67 -62h156q5 0 10 -1zM418 882q0 -46 -33.5 -79.5t-85.5 -33.5q-51 0 -85 33.5t-34 79.5t34.5 80t84.5 34t84.5 -34
t34.5 -80zM1364 -207q0 -38 -28 -66t-71 -28q-42 0 -70.5 28t-28.5 66t29 66.5t70 28.5t70 -28.5t29 -66.5zM1157 -279q0 -38 -28 -66t-71 -28q-42 0 -70.5 28t-28.5 66t29 66.5t70 28.5t70 -28.5t29 -66.5z" />
    <glyph glyph-name="uniFEF4_uniFEA0" unicode="&#xfef4;&#xfea0;" horiz-adv-x="1410" 
d="M540 512q247 23 359 265q6 28 12 40q5 14 12 22q12 9 28 9q18 0 34 -8q10 -10 20 -36q7 -21 43 -130t65 -170q27 -64 62 -140q34 -74 68 -124q33 -49 68 -60q40 -16 55 -16h15q35 -5 62 -33q21 -27 21 -62t-22 -58q-28 -26 -63 -26h-15q-118 0 -220 160
q-100 155 -124 231q-25 67 -72 208q-76 -113 -177 -177q-110 -72 -203 -74h4q102 -110 130 -127q23 -19 90 -36l103 -25q48 -8 48 -48l-2 -16q0 -19 -177 -166h-40q-94 107 -159 107q-11 0 -20 -1q-46 -12 -90 -23q-47 -9 -185 -13h-261q-37 8 -57 34q-22 23 -22 57
q0 35 27 62q29 27 69 27h473q-125 142 -200 163q-82 19 -120 24q-77 7 -92 26q-9 11 -9 31q17 99 89 170q31 22 60 22q23 0 42 -5q16 -5 38 -21q64 -62 67 -62h156q5 0 10 -1zM1157 -279q0 -38 -28 -66t-71 -28q-42 0 -70.5 28t-28.5 66t29 66.5t70 28.5t70 -28.5t29 -66.5z
M1364 -207q0 -38 -28 -66t-71 -28q-42 0 -70.5 28t-28.5 66t29 66.5t70 28.5t70 -28.5t29 -66.5zM680 -187q0 -46 -33.5 -79.5t-85.5 -33.5q-51 0 -85 33.5t-34 79.5t34.5 80t84.5 34t84.5 -34t34.5 -80z" />
    <glyph glyph-name="uniFC1C" unicode="&#xfeb3;&#xfe9e;" horiz-adv-x="1715" arabic-form="isolated" 
d="M757 -908q-388 0 -598 180q-157 156 -157 384q0 272 227 456q113 92 247 115q-114 84 -177 101q-81 19 -118 24q-76 7 -94 25q-9 12 -9 32q19 99 89 170q34 22 60 22q23 0 42 -5q18 -5 38 -21q64 -62 69 -62h154q20 0 37 -9q42 -29 42 -82q0 -49 -43 -81l8 3
q170 -98 269 -125q25 -5 55 -10q4 -1 7 -1q46 -14 46 -50q0 -22 -177 -183h-28q-104 60 -142 69q-13 2 -27 2q-34 0 -86 -13q-336 -91 -336 -377q0 -218 197 -345q174 -123 530 -123q69 0 168 5v-62q-163 -39 -293 -39zM1416 332q-190 -4 -227 113q-43 -105 -176 -113
q-138 -8 -248 141q-108 -112 -175 -141q-23 -1 -35 0h-28q-42 0 -65 38q-14 25 -14 45q0 37 16 64q28 33 66 33q83 9 242 150l11 8h15l12 -4l6 -6q83 -116 181 -122q92 -8 179 179l13 17l4 4l9 6l18 4h13l11 -4l4 -2l10 -5l4 -7l4 -7l2 -7q-21 -183 138 -209q71 3 101 89
q12 63 -77 117q-10 85 34 190h35q116 -47 129 -237q0 -226 -141 -315q-36 -19 -71 -19zM852 729q-7 -145 158 -222q67 3 97 89q5 17 31 22l45 90q42 10 45 -42q0 -226 -141 -315q-36 -19 -71 -19q-189 -4 -241 144q-100 -138 -182 -141q-60 0 -99 94l49 47q6 13 14 43
q108 33 206 215l14 14l19 3l7 1l19 -1l19 -6zM631 -406q0 -46 -33.5 -79.5t-85.5 -33.5q-51 0 -85 33.5t-34 79.5t34.5 80t84.5 34t84.5 -34t34.5 -80z" />
    <glyph glyph-name="uniFC1D" unicode="&#xfeb3;&#xfea2;" horiz-adv-x="1721" arabic-form="isolated" 
d="M757 -908q-388 0 -598 180q-157 156 -157 384q0 272 227 456q113 92 247 115q-114 84 -177 101q-81 19 -118 24q-76 7 -94 25q-9 12 -9 32q19 99 89 170q34 22 60 22q23 0 42 -5q18 -5 38 -21q64 -62 69 -62h154q20 0 37 -9q42 -29 42 -82q0 -49 -43 -81l8 3
q170 -98 269 -125q25 -5 55 -10q4 -1 7 -1q46 -14 46 -50q0 -22 -177 -183h-28q-104 60 -142 69q-13 2 -27 2q-34 0 -86 -13q-336 -91 -336 -377q0 -218 197 -345q174 -123 530 -123q69 0 168 5v-62q-163 -39 -293 -39zM1416 332q-190 -4 -227 113q-43 -105 -176 -113
q-138 -8 -248 141q-108 -112 -175 -141q-23 -1 -35 0h-28q-42 0 -65 38q-14 25 -14 45q0 37 16 64q28 33 66 33q83 9 242 150l11 8h15l12 -4l6 -6q83 -116 181 -122q92 -8 179 179l13 17l4 4l9 6l18 4h13l11 -4l4 -2l10 -5l4 -7l4 -7l2 -7q-21 -183 138 -209q71 3 101 89
q12 63 -77 117q-10 85 34 190h35q116 -47 129 -237q0 -226 -141 -315q-36 -19 -71 -19zM852 729q-7 -145 158 -222q67 3 97 89q5 17 31 22l45 90q42 10 45 -42q0 -226 -141 -315q-36 -19 -71 -19q-189 -4 -241 144q-100 -138 -182 -141q-60 0 -99 94l49 47q6 13 14 43
q108 33 206 215l14 14l19 3l7 1l19 -1l19 -6z" />
    <glyph glyph-name="uniFC1E" unicode="&#xfeb3;&#xfea6;" horiz-adv-x="1715" arabic-form="isolated" 
d="M757 -908q-388 0 -598 180q-157 156 -157 384q0 272 227 456q113 92 247 115q-114 84 -177 101q-81 19 -118 24q-76 7 -94 25q-9 12 -9 32q19 99 89 170q34 22 60 22q23 0 42 -5q18 -5 38 -21q64 -62 69 -62h154q20 0 37 -9q42 -29 42 -82q0 -49 -43 -81l8 3
q170 -98 269 -125q25 -5 55 -10q4 -1 7 -1q46 -14 46 -50q0 -22 -177 -183h-28q-104 60 -142 69q-13 2 -27 2q-34 0 -86 -13q-336 -91 -336 -377q0 -218 197 -345q174 -123 530 -123q69 0 168 5v-62q-163 -39 -293 -39zM1416 332q-190 -4 -227 113q-43 -105 -176 -113
q-138 -8 -248 141q-108 -112 -175 -141q-23 -1 -35 0h-28q-42 0 -65 38q-14 25 -14 45q0 37 16 64q28 33 66 33q83 9 242 150l11 8h15l12 -4l6 -6q83 -116 181 -122q92 -8 179 179l13 17l4 4l9 6l18 4h13l11 -4l4 -2l10 -5l4 -7l4 -7l2 -7q-21 -183 138 -209q71 3 101 89
q12 63 -77 117q-10 85 34 190h35q116 -47 129 -237q0 -226 -141 -315q-36 -19 -71 -19zM852 729q-7 -145 158 -222q67 3 97 89q5 17 31 22l45 90q42 10 45 -42q0 -226 -141 -315q-36 -19 -71 -19q-189 -4 -241 144q-100 -138 -182 -141q-60 0 -99 94l49 47q6 13 14 43
q108 33 206 215l14 14l19 3l7 1l19 -1l19 -6zM366 818q0 -46 -33.5 -79.5t-85.5 -33.5q-51 0 -85 33.5t-34 79.5t34.5 80t84.5 34t84.5 -34t34.5 -80z" />
    <glyph glyph-name="uniFC20" unicode="&#xfebb;&#xfea2;" horiz-adv-x="1815" arabic-form="isolated" 
d="M757 -908q-388 0 -598 180q-157 156 -157 384q0 272 227 456q113 92 247 115q-114 84 -177 101q-81 19 -118 24q-76 7 -94 25q-9 12 -9 32q19 99 89 170q34 22 60 22q23 0 42 -5q18 -5 38 -21q64 -62 69 -62h154q20 0 37 -9q42 -29 42 -82q0 -49 -43 -81l8 3
q170 -98 269 -125q25 -5 55 -10q4 -1 7 -1q46 -14 46 -50q0 -22 -177 -183h-28q-104 60 -142 69q-13 2 -27 2q-34 0 -86 -13q-336 -91 -336 -377q0 -218 197 -345q174 -123 530 -123q69 0 168 5v-62q-163 -39 -293 -39zM588 512l73 76q4 5 12 13q15 12 39 32q35 32 95 86
q280 243 414 275q6 3 13 3l28 4h24h11q209 0 395 -304q47 -89 47 -162v-14q0 -145 -149 -267q-31 -16 -67 -31q-55 0 -188 109h-821q-19 3 -33 12q-14 11 -21 24q-10 12 -15 25q-2 16 -2 30t4 26q3 18 14 31q9 11 21 21q16 11 41 11h65zM763 515h831v-13q-89 212 -287 320
q-45 15 -66 15q-131 0 -371 -231q-26 -17 -107 -91z" />
    <glyph glyph-name="uniFC21" unicode="&#xfebb;&#xfe92;&#xfea2;" horiz-adv-x="2346" arabic-form="isolated" 
d="M569 343l-2 -1l7 2q170 -98 269 -125q25 -5 55 -10q4 -1 7 -1q46 -14 46 -50q0 -22 -177 -183h-28q-104 60 -142 69q-13 2 -27 2q-34 0 -86 -13q-336 -91 -336 -377q0 -218 197 -345q174 -123 530 -123q69 0 168 5v-62q-163 -39 -293 -39q-388 0 -598 180
q-157 156 -157 384q0 272 227 456q113 92 247 115q-114 84 -177 101q-81 19 -118 24q-76 7 -94 25q-9 12 -9 32q19 99 89 170q34 22 60 22q23 0 42 -5q18 -5 38 -21q64 -62 69 -62h157q68 6 130 72q84 103 117 103q41 0 100 -81q78 -95 146 -95q30 0 46 -36q12 -28 12 -59
q0 -32 -12 -54q-16 -31 -46 -31h-19q-55 0 -97 20q-27 13 -64 52q-71 80 -94 103q-99 -132 -183 -164zM1080 512l73 76q4 5 12 13q15 12 39 32q35 32 95 86q280 243 414 275q6 3 13 3l28 4h24h11q209 0 395 -304q47 -89 47 -162v-14q0 -145 -149 -267q-31 -16 -67 -31
q-55 0 -188 109h-821q-19 3 -33 12q-14 11 -21 24q-10 12 -15 25q-2 16 -2 30t4 26q3 18 14 31q9 11 21 21q16 11 41 11h65zM1255 515h831v-13q-89 212 -287 320q-45 15 -66 15q-131 0 -371 -231q-26 -17 -107 -91zM1197 62q0 -46 -33.5 -79.5t-85.5 -33.5q-51 0 -85 33.5
t-34 79.5t34.5 80t84.5 34t84.5 -34t34.5 -80z" />
    <glyph glyph-name="uniFC22" unicode="&#xfebf;&#xfe9e;" horiz-adv-x="1815" arabic-form="isolated" 
d="M757 -908q-388 0 -598 180q-157 156 -157 384q0 272 227 456q113 92 247 115q-114 84 -177 101q-81 19 -118 24q-76 7 -94 25q-9 12 -9 32q19 99 89 170q34 22 60 22q23 0 42 -5q18 -5 38 -21q64 -62 69 -62h154q20 0 37 -9q42 -29 42 -82q0 -49 -43 -81l8 3
q170 -98 269 -125q25 -5 55 -10q4 -1 7 -1q46 -14 46 -50q0 -22 -177 -183h-28q-104 60 -142 69q-13 2 -27 2q-34 0 -86 -13q-336 -91 -336 -377q0 -218 197 -345q174 -123 530 -123q69 0 168 5v-62q-163 -39 -293 -39zM588 512l73 76q4 5 12 13q15 12 39 32q35 32 95 86
q280 243 414 275q6 3 13 3l28 4h24h11q209 0 395 -304q47 -89 47 -162v-14q0 -145 -149 -267q-31 -16 -67 -31q-55 0 -188 109h-821q-19 3 -33 12q-14 11 -21 24q-10 12 -15 25q-2 16 -2 30t4 26q3 18 14 31q9 11 21 21q16 11 41 11h65zM763 515h831v-13q-89 212 -287 320
q-45 15 -66 15q-131 0 -371 -231q-26 -17 -107 -91zM640 -401q0 -46 -33.5 -79.5t-85.5 -33.5q-51 0 -85 33.5t-34 79.5t34.5 80t84.5 34t84.5 -34t34.5 -80zM1371 1205q0 -46 -33.5 -79.5t-85.5 -33.5q-51 0 -85 33.5t-34 79.5t34.5 80t84.5 34t84.5 -34t34.5 -80z" />
    <glyph glyph-name="uniFC23" unicode="&#xfebf;&#xfea2;" horiz-adv-x="1815" arabic-form="isolated" 
d="M757 -908q-388 0 -598 180q-157 156 -157 384q0 272 227 456q113 92 247 115q-114 84 -177 101q-81 19 -118 24q-76 7 -94 25q-9 12 -9 32q19 99 89 170q34 22 60 22q23 0 42 -5q18 -5 38 -21q64 -62 69 -62h154q20 0 37 -9q42 -29 42 -82q0 -49 -43 -81l8 3
q170 -98 269 -125q25 -5 55 -10q4 -1 7 -1q46 -14 46 -50q0 -22 -177 -183h-28q-104 60 -142 69q-13 2 -27 2q-34 0 -86 -13q-336 -91 -336 -377q0 -218 197 -345q174 -123 530 -123q69 0 168 5v-62q-163 -39 -293 -39zM588 512l73 76q4 5 12 13q15 12 39 32q35 32 95 86
q280 243 414 275q6 3 13 3l28 4h24h11q209 0 395 -304q47 -89 47 -162v-14q0 -145 -149 -267q-31 -16 -67 -31q-55 0 -188 109h-821q-19 3 -33 12q-14 11 -21 24q-10 12 -15 25q-2 16 -2 30t4 26q3 18 14 31q9 11 21 21q16 11 41 11h65zM763 515h831v-13q-89 212 -287 320
q-45 15 -66 15q-131 0 -371 -231q-26 -17 -107 -91zM1361 1221q0 -46 -33.5 -79.5t-85.5 -33.5q-51 0 -85 33.5t-34 79.5t34.5 80t84.5 34t84.5 -34t34.5 -80z" />
    <glyph glyph-name="uniFC24" unicode="&#xfebf;&#xfea6;" horiz-adv-x="1815" arabic-form="isolated" 
d="M757 -908q-388 0 -598 180q-157 156 -157 384q0 272 227 456q113 92 247 115q-114 84 -177 101q-81 19 -118 24q-76 7 -94 25q-9 12 -9 32q19 99 89 170q34 22 60 22q23 0 42 -5q18 -5 38 -21q64 -62 69 -62h154q20 0 37 -9q42 -29 42 -82q0 -49 -43 -81l8 3
q170 -98 269 -125q25 -5 55 -10q4 -1 7 -1q46 -14 46 -50q0 -22 -177 -183h-28q-104 60 -142 69q-13 2 -27 2q-34 0 -86 -13q-336 -91 -336 -377q0 -218 197 -345q174 -123 530 -123q69 0 168 5v-62q-163 -39 -293 -39zM588 512l73 76q4 5 12 13q15 12 39 32q35 32 95 86
q280 243 414 275q6 3 13 3l28 4h24h11q209 0 395 -304q47 -89 47 -162v-14q0 -145 -149 -267q-31 -16 -67 -31q-55 0 -188 109h-821q-19 3 -33 12q-14 11 -21 24q-10 12 -15 25q-2 16 -2 30t4 26q3 18 14 31q9 11 21 21q16 11 41 11h65zM763 515h831v-13q-89 212 -287 320
q-45 15 -66 15q-131 0 -371 -231q-26 -17 -107 -91zM1367 1216q0 -46 -33.5 -79.5t-85.5 -33.5q-51 0 -85 33.5t-34 79.5t34.5 80t84.5 34t84.5 -34t34.5 -80zM362 835q0 -46 -33.5 -79.5t-85.5 -33.5q-51 0 -85 33.5t-34 79.5t34.5 80t84.5 34t84.5 -34t34.5 -80z" />
    <glyph glyph-name="uniFEE0_uniFEA8" unicode="&#xfee0;&#xfea8;" horiz-adv-x="1296" 
d="M764 -85h-40q-94 107 -159 107q-11 0 -20 -1q-46 -12 -90 -23q-47 -9 -185 -13h-261q-37 8 -57 34q-22 23 -22 57q0 35 27 62q29 27 69 27h473q-125 142 -200 163q-82 19 -120 24q-77 7 -92 26q-9 11 -9 31q17 99 89 170q31 22 60 22q23 0 42 -5q16 -5 38 -21
q64 -62 67 -62h156q20 0 37 -9q42 -29 42 -82q0 -49 -42 -80q-20 -9 5 -9q102 -110 130 -127q23 -19 90 -36l103 -25q48 -8 48 -48l-2 -16q0 -19 -177 -166zM1128 400v-103q12 -53 78 -105q37 -26 65 -26q40 0 59 -34q14 -27 14 -58q0 -56 -36 -78q-17 -10 -52 -10
q-55 0 -140 102q-115 115 -115 197v114l-1 164q-103 -149 -506 -239l-28 181q317 28 525 252l7 246q-2 23 -96 108v13q47 162 68 185q19 27 58 27q103 -10 103 -347zM418 882q0 -46 -33.5 -79.5t-85.5 -33.5q-51 0 -85 33.5t-34 79.5t34.5 80t84.5 34t84.5 -34t34.5 -80z
" />
    <glyph glyph-name="uniFEE0_uniFEA0" unicode="&#xfee0;&#xfea0;" horiz-adv-x="1298" 
d="M764 -85h-40q-94 107 -159 107q-11 0 -20 -1q-46 -12 -90 -23q-47 -9 -185 -13h-261q-37 8 -57 34q-22 23 -22 57q0 35 27 62q29 27 69 27h473q-125 142 -200 163q-82 19 -120 24q-77 7 -92 26q-9 11 -9 31q17 99 89 170q31 22 60 22q23 0 42 -5q16 -5 38 -21
q64 -62 67 -62h156q20 0 37 -9q42 -29 42 -82q0 -49 -42 -80q-20 -9 5 -9q102 -110 130 -127q23 -19 90 -36l103 -25q48 -8 48 -48l-2 -16q0 -19 -177 -166zM1128 400v-103q12 -53 78 -105q37 -26 65 -26q40 0 59 -34q14 -27 14 -58q0 -56 -36 -78q-17 -10 -52 -10
q-55 0 -140 102q-115 115 -115 197v114l-1 164q-103 -149 -506 -239l-28 181q317 28 525 252l7 246q-2 23 -96 108v13q47 162 68 185q19 27 58 27q103 -10 103 -347zM655 -198q0 -46 -33.5 -79.5t-85.5 -33.5q-51 0 -85 33.5t-34 79.5t34.5 80t84.5 34t84.5 -34t34.5 -80z
" />
    <glyph glyph-name="uniFEE0_uniFEA4" unicode="&#xfee0;&#xfea4;" horiz-adv-x="1296" 
d="M764 -85h-40q-94 107 -159 107q-11 0 -20 -1q-46 -12 -90 -23q-47 -9 -185 -13h-261q-37 8 -57 34q-22 23 -22 57q0 35 27 62q29 27 69 27h473q-125 142 -200 163q-82 19 -120 24q-77 7 -92 26q-9 11 -9 31q17 99 89 170q31 22 60 22q23 0 42 -5q16 -5 38 -21
q64 -62 67 -62h156q20 0 37 -9q42 -29 42 -82q0 -49 -42 -80q-20 -9 5 -9q102 -110 130 -127q23 -19 90 -36l103 -25q48 -8 48 -48l-2 -16q0 -19 -177 -166zM1128 400v-103q12 -53 78 -105q37 -26 65 -26q40 0 59 -34q14 -27 14 -58q0 -56 -36 -78q-17 -10 -52 -10
q-55 0 -140 102q-115 115 -115 197v114l-1 164q-103 -149 -506 -239l-28 181q317 28 525 252l7 246q-2 23 -96 108v13q47 162 68 185q19 27 58 27q103 -10 103 -347z" />
    <glyph glyph-name="uniFEE0_uniFEA6" unicode="&#xfee0;&#xfea6;" horiz-adv-x="1405" 
d="M548 195h-1q-76 69 -129 84q-80 20 -117 23q-79 8 -93 27q-9 10 -9 30q24 86 87 170q28 25 58 26q54 0 133 -70h95q308 20 523 251l7 246q-2 23 -96 108v13q47 162 68 185q19 27 58 27q103 -10 103 -347l-3 -672q12 -53 78 -105q37 -26 65 -26q40 0 59 -34q14 -27 14 -58
q0 -56 -36 -78q-17 -10 -52 -10q-55 0 -140 102q-115 115 -115 197l-1 257q-104 -149 -425 -232q-10 8 -5 4h1l42 -37l42 -31h-1q73 -54 184 -86l62 -13q47 -9 47 -48q-1 -22 -178 -183h-29q-44 31 -79 48q-34 16 -126 25q-482 -40 -485 -410v-11q0 -172 138 -299
q158 -161 727 -166l40 -7l1 -55q-162 -37 -293 -37q-367 0 -585 190l-2 -1q-180 174 -180 397q0 347 278 502q155 74 292 82q-5 6 -22 22zM426 811q0 -46 -33.5 -79.5t-85.5 -33.5q-51 0 -85 33.5t-34 79.5t34.5 80t84.5 34t84.5 -34t34.5 -80z" />
    <glyph glyph-name="uniFEE0_uniFE9E" unicode="&#xfee0;&#xfe9e;" horiz-adv-x="1405" 
d="M548 195h-1q-76 69 -129 84q-80 20 -117 23q-79 8 -93 27q-9 10 -9 30q24 86 87 170q28 25 58 26q54 0 133 -70h95q308 20 523 251l7 246q-2 23 -96 108v13q47 162 68 185q19 27 58 27q103 -10 103 -347l-3 -672q12 -53 78 -105q37 -26 65 -26q40 0 59 -34q14 -27 14 -58
q0 -56 -36 -78q-17 -10 -52 -10q-55 0 -140 102q-115 115 -115 197l-1 257q-104 -149 -425 -232q-10 8 -5 4h1l42 -37l42 -31h-1q73 -54 184 -86l62 -13q47 -9 47 -48q-1 -22 -178 -183h-29q-44 31 -79 48q-34 16 -126 25q-482 -40 -485 -410v-11q0 -172 138 -299
q158 -161 727 -166l40 -7l1 -55q-162 -37 -293 -37q-367 0 -585 190l-2 -1q-180 174 -180 397q0 347 278 502q155 74 292 82q-5 6 -22 22zM608 -389q0 -46 -33.5 -79.5t-85.5 -33.5q-51 0 -85 33.5t-34 79.5t34.5 80t84.5 34t84.5 -34t34.5 -80z" />
    <glyph glyph-name="uniFC26" unicode="&#xfee0;&#xfea2;" horiz-adv-x="1405" arabic-form="isolated" 
d="M548 195h-1q-76 69 -129 84q-80 20 -117 23q-79 8 -93 27q-9 10 -9 30q24 86 87 170q28 25 58 26q54 0 133 -70h95q308 20 523 251l7 246q-2 23 -96 108v13q47 162 68 185q19 27 58 27q103 -10 103 -347l-3 -672q12 -53 78 -105q37 -26 65 -26q40 0 59 -34q14 -27 14 -58
q0 -56 -36 -78q-17 -10 -52 -10q-55 0 -140 102q-115 115 -115 197l-1 257q-104 -149 -425 -232q-10 8 -5 4h1l42 -37l42 -31h-1q73 -54 184 -86l62 -13q47 -9 47 -48q-1 -22 -178 -183h-29q-44 31 -79 48q-34 16 -126 25q-482 -40 -485 -410v-11q0 -172 138 -299
q158 -161 727 -166l40 -7l1 -55q-162 -37 -293 -37q-367 0 -585 190l-2 -1q-180 174 -180 397q0 347 278 502q155 74 292 82q-5 6 -22 22z" />
    <glyph glyph-name="uniFC29" unicode="&#xfecb;&#xfe9e;" horiz-adv-x="1817" arabic-form="isolated" 
d="M757 -908q-388 0 -598 180q-157 156 -157 384q0 272 227 456q113 92 247 115q-114 84 -177 101q-81 19 -118 24q-76 7 -94 25q-9 12 -9 32q19 99 89 170q34 22 60 22q23 0 42 -5q18 -5 38 -21q64 -62 69 -62h154q20 0 37 -9q42 -29 42 -82q0 -49 -43 -81l8 3
q170 -98 269 -125q25 -5 55 -10q4 -1 7 -1q46 -14 46 -50q0 -22 -177 -183h-28q-104 60 -142 69q-13 2 -27 2q-34 0 -86 -13q-336 -91 -336 -377q0 -218 197 -345q174 -123 530 -123q69 0 168 5v-62q-163 -39 -293 -39zM1334 247l-35 4q-56 38 -110 57q-67 26 -109 26h-540
q-45 0 -55 66l-2 6v19q0 21 6 48q15 41 51 41h232l3 -2q-128 131 -128 275q0 141 111 285q119 136 271 136q174 -6 315 -198v-17l-81 -143h-33q-161 171 -268 176q-154 -2 -187 -130q-2 -16 -2 -31q0 -128 124 -234q127 -113 291 -113l37 -4h66q128 -3 178 -61l10 -22z
M608 -389q0 -46 -33.5 -79.5t-85.5 -33.5q-51 0 -85 33.5t-34 79.5t34.5 80t84.5 34t84.5 -34t34.5 -80z" />
    <glyph glyph-name="uniFED7_uniFEA6" unicode="&#xfed7;&#xfea6;" horiz-adv-x="1137" 
d="M783 789q39 5 73 34q-51 63 -96 63q-39 0 -58 -30l1 -8q8 -59 80 -59zM593 333q151 -87 250 -114q25 -5 55 -10q4 -1 7 -1q46 -14 46 -50q0 -22 -177 -183h-28q-104 60 -142 69q-13 2 -27 2q-34 0 -86 -13q-336 -91 -336 -377q0 -218 197 -345q174 -123 530 -123
q69 0 168 5v-62q-163 -39 -293 -39q-388 0 -598 180q-157 156 -157 384q0 272 227 456q113 92 247 115q-114 84 -177 101q-81 19 -118 24q-76 7 -94 25q-9 12 -9 32q19 99 89 170q34 22 60 22q23 0 42 -5q18 -5 38 -21q64 -62 69 -62h188q297 0 375 115q2 12 2 25
q0 46 -19 73h23q-47 -119 -205 -121q-114 5 -133 119v23q0 141 59 257q44 77 108 84h13q112 0 206 -140q58 -95 58 -228q-45 -387 -475 -387h17zM368 840q0 -46 -33.5 -79.5t-85.5 -33.5q-51 0 -85 33.5t-34 79.5t34.5 80t84.5 34t84.5 -34t34.5 -80zM954 1312
q0 -38 -28 -66t-71 -28q-42 0 -70.5 28t-28.5 66t29 66.5t70 28.5t70 -28.5t29 -66.5zM747 1240q0 -38 -28 -66t-71 -28q-42 0 -70.5 28t-28.5 66t29 66.5t70 28.5t70 -28.5t29 -66.5z" />
    <glyph glyph-name="uniFED7_uniFEA2" unicode="&#xfed7;&#xfea2;" horiz-adv-x="1137" 
d="M783 789q39 5 73 34q-51 63 -96 63q-39 0 -58 -30l1 -8q8 -59 80 -59zM564 513q297 0 375 115q2 12 2 25q0 28 -7 49q-53 -95 -194 -97q-114 5 -133 119v23q0 141 59 257q44 77 108 84h13q112 0 206 -140q58 -95 58 -228q-44 -379 -458 -387q157 -89 250 -114
q25 -5 55 -10q4 -1 7 -1q46 -14 46 -50q0 -22 -177 -183h-28q-104 60 -142 69q-13 2 -27 2q-34 0 -86 -13q-336 -91 -336 -377q0 -218 197 -345q174 -123 530 -123q69 0 168 5v-62q-163 -39 -293 -39q-388 0 -598 180q-157 156 -157 384q0 272 227 456q113 92 247 115
q-114 84 -177 101q-81 19 -118 24q-76 7 -94 25q-9 12 -9 32q19 99 89 170q34 22 60 22q23 0 42 -5q18 -5 38 -21q64 -62 69 -62h188zM954 1312q0 -38 -28 -66t-71 -28q-42 0 -70.5 28t-28.5 66t29 66.5t70 28.5t70 -28.5t29 -66.5zM747 1240q0 -38 -28 -66t-71 -28
q-42 0 -70.5 28t-28.5 66t29 66.5t70 28.5t70 -28.5t29 -66.5z" />
    <glyph glyph-name="uniFED7_uniFE9E" unicode="&#xfed7;&#xfe9e;" horiz-adv-x="1137" 
d="M783 789q39 5 73 34q-51 63 -96 63q-39 0 -58 -30l1 -8q8 -59 80 -59zM564 513q297 0 375 115q2 12 2 25q0 28 -7 49q-53 -95 -194 -97q-114 5 -133 119v23q0 141 59 257q44 77 108 84h13q112 0 206 -140q58 -95 58 -228q-44 -379 -458 -387q157 -89 250 -114
q25 -5 55 -10q4 -1 7 -1q46 -14 46 -50q0 -22 -177 -183h-28q-104 60 -142 69q-13 2 -27 2q-34 0 -86 -13q-336 -91 -336 -377q0 -218 197 -345q174 -123 530 -123q69 0 168 5v-62q-163 -39 -293 -39q-388 0 -598 180q-157 156 -157 384q0 272 227 456q113 92 247 115
q-114 84 -177 101q-81 19 -118 24q-76 7 -94 25q-9 12 -9 32q19 99 89 170q34 22 60 22q23 0 42 -5q18 -5 38 -21q64 -62 69 -62h188zM626 -389q0 -46 -33.5 -79.5t-85.5 -33.5q-51 0 -85 33.5t-34 79.5t34.5 80t84.5 34t84.5 -34t34.5 -80zM954 1312q0 -38 -28 -66t-71 -28
q-42 0 -70.5 28t-28.5 66t29 66.5t70 28.5t70 -28.5t29 -66.5zM747 1240q0 -38 -28 -66t-71 -28q-42 0 -70.5 28t-28.5 66t29 66.5t70 28.5t70 -28.5t29 -66.5z" />
    <glyph glyph-name="uniFED3_uniFEA6" unicode="&#xfed3;&#xfea6;" horiz-adv-x="1137" 
d="M757 -908q-388 0 -598 180q-157 156 -157 384q0 272 227 456q113 92 247 115q-114 84 -177 101q-81 19 -118 24q-76 7 -94 25q-9 12 -9 32q19 99 89 170q34 22 60 22q23 0 42 -5q18 -5 38 -21q64 -62 69 -62h154q20 0 37 -9q42 -29 42 -82q0 -49 -43 -81l8 3
q170 -98 269 -125q25 -5 55 -10q4 -1 7 -1q46 -14 46 -50q0 -22 -177 -183h-28q-104 60 -142 69q-13 2 -27 2q-34 0 -86 -13q-336 -91 -336 -377q0 -218 197 -345q174 -123 530 -123q69 0 168 5v-62q-163 -39 -293 -39zM783 789q39 5 73 34q-51 63 -96 63q-39 0 -58 -30
l1 -8q8 -59 80 -59zM576 333h-47q-39 0 -61 31q-18 25 -18 60q0 27 19 57q21 32 60 32h35q297 0 375 115q2 12 2 25q0 46 -19 73h23q-47 -119 -205 -121q-114 5 -133 119v23q0 141 59 257q44 77 108 84h13q112 0 206 -140q58 -95 58 -228q-45 -387 -475 -387zM868 1271
q0 -46 -33.5 -79.5t-85.5 -33.5q-51 0 -85 33.5t-34 79.5t34.5 80t84.5 34t84.5 -34t34.5 -80zM343 826q0 -46 -33.5 -79.5t-85.5 -33.5q-51 0 -85 33.5t-34 79.5t34.5 80t84.5 34t84.5 -34t34.5 -80z" />
    <glyph glyph-name="uniFED3_uniFEA2" unicode="&#xfed3;&#xfea2;" horiz-adv-x="1137" 
d="M757 -908q-388 0 -598 180q-157 156 -157 384q0 272 227 456q113 92 247 115q-114 84 -177 101q-81 19 -118 24q-76 7 -94 25q-9 12 -9 32q19 99 89 170q34 22 60 22q23 0 42 -5q18 -5 38 -21q64 -62 69 -62h154q20 0 37 -9q42 -29 42 -82q0 -49 -43 -81l8 3
q170 -98 269 -125q25 -5 55 -10q4 -1 7 -1q46 -14 46 -50q0 -22 -177 -183h-28q-104 60 -142 69q-13 2 -27 2q-34 0 -86 -13q-336 -91 -336 -377q0 -218 197 -345q174 -123 530 -123q69 0 168 5v-62q-163 -39 -293 -39zM783 789q39 5 73 34q-51 63 -96 63q-39 0 -58 -30
l1 -8q8 -59 80 -59zM576 333h-47q-39 0 -61 31q-18 25 -18 60q0 27 19 57q21 32 60 32h35q297 0 375 115q2 12 2 25q0 46 -19 73h23q-47 -119 -205 -121q-114 5 -133 119v23q0 141 59 257q44 77 108 84h13q112 0 206 -140q58 -95 58 -228q-45 -387 -475 -387zM868 1271
q0 -46 -33.5 -79.5t-85.5 -33.5q-51 0 -85 33.5t-34 79.5t34.5 80t84.5 34t84.5 -34t34.5 -80z" />
    <glyph glyph-name="uniFC2D" unicode="&#xfed3;&#xfe9e;" horiz-adv-x="1137" arabic-form="isolated" 
d="M757 -908q-388 0 -598 180q-157 156 -157 384q0 272 227 456q113 92 247 115q-114 84 -177 101q-81 19 -118 24q-76 7 -94 25q-9 12 -9 32q19 99 89 170q34 22 60 22q23 0 42 -5q18 -5 38 -21q64 -62 69 -62h154q20 0 37 -9q42 -29 42 -82q0 -49 -43 -81l8 3
q170 -98 269 -125q25 -5 55 -10q4 -1 7 -1q46 -14 46 -50q0 -22 -177 -183h-28q-104 60 -142 69q-13 2 -27 2q-34 0 -86 -13q-336 -91 -336 -377q0 -218 197 -345q174 -123 530 -123q69 0 168 5v-62q-163 -39 -293 -39zM783 789q39 5 73 34q-51 63 -96 63q-39 0 -58 -30
l1 -8q8 -59 80 -59zM576 333h-47q-39 0 -61 31q-18 25 -18 60q0 27 19 57q21 32 60 32h35q297 0 375 115q2 12 2 25q0 46 -19 73h23q-47 -119 -205 -121q-114 5 -133 119v23q0 141 59 257q44 77 108 84h13q112 0 206 -140q58 -95 58 -228q-45 -387 -475 -387zM868 1271
q0 -46 -33.5 -79.5t-85.5 -33.5q-51 0 -85 33.5t-34 79.5t34.5 80t84.5 34t84.5 -34t34.5 -80zM643 -415q0 -46 -33.5 -79.5t-85.5 -33.5q-51 0 -85 33.5t-34 79.5t34.5 80t84.5 34t84.5 -34t34.5 -80z" />
    <glyph glyph-name="uniFC31" unicode="&#xfed3;&#xfef0;" horiz-adv-x="1238" arabic-form="isolated" 
d="M673 799q40 6 74 35q-52 63 -96 63q-39 0 -60 -32l1 -7q8 -59 81 -59zM1072 -87h-37q-78 71 -196 74h-353q-379 0 -461 186l-3 10q-18 34 -21 96q0 70 47 149q44 74 133 144q77 66 115 66q29 0 51 -37q37 -78 192 -78q185 0 281 98q3 26 3 50q0 52 -11 67h24
q-48 -120 -207 -121q-114 4 -131 117v24q0 140 57 258q44 75 107 82l14 1q113 0 208 -141q56 -94 56 -256q-26 -315 -369 -358h-9q-245 0 -317 128q-3 -1 -33 -18q-29 -17 -53 -42q-22 -24 -22 -55q0 -58 62 -124q77 -74 287 -74h548q145 0 185 -68v-20zM718 1344
q0 -46 -33.5 -79.5t-85.5 -33.5q-51 0 -85 33.5t-34 79.5t34.5 80t84.5 34t84.5 -34t34.5 -80z" />
    <glyph glyph-name="uniFC32" unicode="&#xfed4;&#xfef0;" horiz-adv-x="1107" arabic-form="isolated" 
d="M730 428.5q-1 -30.5 25 -54.5t48 -16t33.5 22.5t4.5 61t-42 54t-51.5 -14.5t-17.5 -52.5zM1061 168q43 0 68 -31q19 -27 19 -58q0 -37 -19 -61q-25 -30 -122 -30q-140 0 -208 135q-177 -139 -321 -138l-13 3q-59 -4 -69 90q0 35 19 59q24 31 60 31h4q139 0 214 48
q-97 43 -97 158q0 59 32 134q91 188 201 188h3q132 -12 132 -203q2 -18 2 -37q0 -146 -74 -235q50 -53 169 -53zM322 274q50 -102 160 -106q73 -8 84 -97q-20 -86 -92 -86h-8q-109 0 -215 124q-110 -46 -110 -124q-7 0 -7 7q0 -111 174 -180q82 -13 130 -13h403
q268 0 286 -79v-12q-138 -156 -160 -163h-26q-94 72 -194 72h-230q-400 0 -494 177q-23 67 -23 90v58q0 154 272 332h50zM909 865q0 -46 -33.5 -79.5t-85.5 -33.5q-51 0 -85 33.5t-34 79.5t34.5 80t84.5 34t84.5 -34t34.5 -80z" />
    <glyph glyph-name="uniFC38" unicode="&#xfedb;&#xfe9e;" horiz-adv-x="2340" arabic-form="isolated" 
d="M757 -908q-388 0 -598 180q-157 156 -157 384q0 272 227 456q113 92 247 115q-114 84 -177 101q-81 19 -118 24q-76 7 -94 25q-9 12 -9 32q19 99 89 170q34 22 60 22q23 0 42 -5q18 -5 38 -21q64 -62 69 -62h154q20 0 37 -9q42 -29 42 -82q0 -49 -43 -81l8 3
q170 -98 269 -125q25 -5 55 -10q4 -1 7 -1q46 -14 46 -50q0 -22 -177 -183h-28q-104 60 -142 69q-13 2 -27 2q-34 0 -86 -13q-336 -91 -336 -377q0 -218 197 -345q174 -123 530 -123q69 0 168 5v-62q-163 -39 -293 -39zM2213 684q12 -17 23 -36q19 -46 19 -116
q0 -169 -133 -272q-18 -16 -45 -33h-50l-174 106h-1334q-36 0 -63 33q-17 26 -17 58q0 31 18 58q26 31 62 31h1571q-22 40 -74 92l1 1q-62 61 -152 61h-595q-502 0 -608 115q-58 64 -58 154q24 252 390 559q143 124 263.5 181.5t209.5 0.5t134 -157l-115 -126
q-60 116 -134 119q-148 5 -413.5 -229t-203 -337t515.5 -101h614q209 0 325 -130zM631 -406q0 -46 -33.5 -79.5t-85.5 -33.5q-51 0 -85 33.5t-34 79.5t34.5 80t84.5 34t84.5 -34t34.5 -80z" />
    <glyph glyph-name="uniFC39" unicode="&#xfedb;&#xfea2;" horiz-adv-x="2334" arabic-form="isolated" 
d="M757 -908q-388 0 -598 180q-157 156 -157 384q0 272 227 456q113 92 247 115q-114 84 -177 101q-81 19 -118 24q-76 7 -94 25q-9 12 -9 32q19 99 89 170q34 22 60 22q23 0 42 -5q18 -5 38 -21q64 -62 69 -62h154q20 0 37 -9q42 -29 42 -82q0 -49 -43 -81l8 3
q170 -98 269 -125q25 -5 55 -10q4 -1 7 -1q46 -14 46 -50q0 -22 -177 -183h-28q-104 60 -142 69q-13 2 -27 2q-34 0 -86 -13q-336 -91 -336 -377q0 -218 197 -345q174 -123 530 -123q69 0 168 5v-62q-163 -39 -293 -39zM2213 684q12 -17 23 -36q19 -46 19 -116
q0 -169 -133 -272q-18 -16 -45 -33h-50l-174 106h-1334q-36 0 -63 33q-17 26 -17 58q0 31 18 58q26 31 62 31h1571q-22 40 -74 92l1 1q-62 61 -152 61h-595q-502 0 -608 115q-58 64 -58 154q24 252 390 559q143 124 263.5 181.5t209.5 0.5t134 -157l-115 -126
q-60 116 -134 119q-148 5 -413.5 -229t-203 -337t515.5 -101h614q209 0 325 -130z" />
    <glyph glyph-name="uniFC3A" unicode="&#xfedb;&#xfea6;" horiz-adv-x="2340" arabic-form="isolated" 
d="M757 -908q-388 0 -598 180q-157 156 -157 384q0 272 227 456q113 92 247 115q-114 84 -177 101q-81 19 -118 24q-76 7 -94 25q-9 12 -9 32q19 99 89 170q34 22 60 22q23 0 42 -5q18 -5 38 -21q64 -62 69 -62h154q20 0 37 -9q42 -29 42 -82q0 -49 -43 -81l8 3
q170 -98 269 -125q25 -5 55 -10q4 -1 7 -1q46 -14 46 -50q0 -22 -177 -183h-28q-104 60 -142 69q-13 2 -27 2q-34 0 -86 -13q-336 -91 -336 -377q0 -218 197 -345q174 -123 530 -123q69 0 168 5v-62q-163 -39 -293 -39zM2213 684q12 -17 23 -36q19 -46 19 -116
q0 -169 -133 -272q-18 -16 -45 -33h-50l-174 106h-1334q-36 0 -63 33q-17 26 -17 58q0 31 18 58q26 31 62 31h1571q-22 40 -74 92l1 1q-62 61 -152 61h-595q-502 0 -608 115q-58 64 -58 154q24 252 390 559q143 124 263.5 181.5t209.5 0.5t134 -157l-115 -126
q-60 116 -134 119q-148 5 -413.5 -229t-203 -337t515.5 -101h614q209 0 325 -130zM337 830q0 -46 -33.5 -79.5t-85.5 -33.5q-51 0 -85 33.5t-34 79.5t34.5 80t84.5 34t84.5 -34t34.5 -80z" />
    <glyph glyph-name="uniFC3F" unicode="&#xfedf;&#xfe9e;" horiz-adv-x="1037" arabic-form="isolated" 
d="M757 -908q-388 0 -598 180q-157 156 -157 384q0 272 227 456q113 92 247 115q-114 84 -177 101q-81 19 -118 24q-76 7 -94 25q-9 12 -9 32q19 99 89 170q34 22 60 22q23 0 42 -5q18 -5 38 -21q64 -62 69 -62h154q20 0 37 -9q42 -29 42 -82q0 -49 -43 -81l8 3
q170 -98 269 -125q25 -5 55 -10q4 -1 7 -1q46 -14 46 -50q0 -22 -177 -183h-28q-104 60 -142 69q-13 2 -27 2q-34 0 -86 -13q-336 -91 -336 -377q0 -218 197 -345q174 -123 530 -123q69 0 168 5v-62q-163 -39 -293 -39zM560 336q-59 0 -80 41q-20 34 -20 60q0 19 19 49
q19 32 70 32q238 51 255 271q-10 208 -186 320l-6 19q27 178 71 178q35 0 89 -60q144 -166 144 -387q0 -220 -86 -346q-88 -131 -195 -164q-42 -13 -75 -13zM631 -406q0 -46 -33.5 -79.5t-85.5 -33.5q-51 0 -85 33.5t-34 79.5t34.5 80t84.5 34t84.5 -34t34.5 -80z" />
    <glyph glyph-name="uniFC40" unicode="&#xfedf;&#xfea2;" horiz-adv-x="1037" arabic-form="isolated" 
d="M757 -908q-388 0 -598 180q-157 156 -157 384q0 272 227 456q113 92 247 115q-114 84 -177 101q-81 19 -118 24q-76 7 -94 25q-9 12 -9 32q19 99 89 170q34 22 60 22q23 0 42 -5q18 -5 38 -21q64 -62 69 -62h154q20 0 37 -9q42 -29 42 -82q0 -49 -43 -81l8 3
q170 -98 269 -125q25 -5 55 -10q4 -1 7 -1q46 -14 46 -50q0 -22 -177 -183h-28q-104 60 -142 69q-13 2 -27 2q-34 0 -86 -13q-336 -91 -336 -377q0 -218 197 -345q174 -123 530 -123q69 0 168 5v-62q-163 -39 -293 -39zM560 336q-59 0 -80 41q-20 34 -20 60q0 19 19 49
q19 32 70 32q238 51 255 271q-10 208 -186 320l-6 19q27 178 71 178q35 0 89 -60q144 -166 144 -387q0 -220 -86 -346q-88 -131 -195 -164q-42 -13 -75 -13z" />
    <glyph glyph-name="uniFC41" unicode="&#xfedf;&#xfea6;" horiz-adv-x="1037" arabic-form="isolated" 
d="M757 -908q-388 0 -598 180q-157 156 -157 384q0 272 227 456q113 92 247 115q-114 84 -177 101q-81 19 -118 24q-76 7 -94 25q-9 12 -9 32q19 99 89 170q34 22 60 22q23 0 42 -5q18 -5 38 -21q64 -62 69 -62h154q20 0 37 -9q42 -29 42 -82q0 -49 -43 -81l8 3
q170 -98 269 -125q25 -5 55 -10q4 -1 7 -1q46 -14 46 -50q0 -22 -177 -183h-28q-104 60 -142 69q-13 2 -27 2q-34 0 -86 -13q-336 -91 -336 -377q0 -218 197 -345q174 -123 530 -123q69 0 168 5v-62q-163 -39 -293 -39zM560 336q-59 0 -80 41q-20 34 -20 60q0 19 19 49
q19 32 70 32q238 51 255 271q-10 208 -186 320l-6 19q27 178 71 178q35 0 89 -60q144 -166 144 -387q0 -220 -86 -346q-88 -131 -195 -164q-42 -13 -75 -13zM331 807q0 -46 -33.5 -79.5t-85.5 -33.5q-51 0 -85 33.5t-34 79.5t34.5 80t84.5 34t84.5 -34t34.5 -80z" />
    <glyph glyph-name="uniFC43" unicode="&#xfedf;&#xfef0;" horiz-adv-x="917" arabic-form="isolated" 
d="M243 386q-15 -4 -47 -71q-45 -91 -11 -153q33 -65 162 -64l389 1l70 -1q82 0 85 -62q-8 -55 -38 -87q-49 -104 -131 -25h-459q-188 51 -211 213q-15 103 2 204q15 98 92 207q79 102 176 1q69 -67 178 -55q141 -2 186 30q59 28 55 109q0 363 -3 367q6 67 -25 111
q-37 9 -57 57q-1 33 7 71q18 63 70 97q37 23 89 -49q34 -45 37 -96q20 -19 21 -232q1 -281 -3 -374q-3 -73 -66 -151q-68 -88 -340 -112q-89 -9 -228 64z" />
    <glyph glyph-name="uniFC45" unicode="&#xfee3;&#xfe9e;" horiz-adv-x="1205" arabic-form="isolated" 
d="M913 647q27 -18 43 -11q39 17 36 61q-6 40 -46 44q-20 -1 -40 -23q-14 -22 7 -71zM435 513q212 -2 320 26q57 17 58 20q-66 39 -71 117q-14 110 66 181q56 49 151 52q113 -8 183 -101q50 -127 -20 -227q-45 -57 -124 -101q-206 -115 -453 -142zM760 -908q-388 0 -598 180
q-157 156 -157 384q0 272 227 456q113 92 247 115q-114 84 -177 101q-81 19 -118 24q-76 7 -94 25q-9 12 -9 32q19 99 89 170q34 22 60 22q23 0 42 -5q18 -5 38 -21q64 -62 69 -62h154q20 0 37 -9q42 -29 42 -82q0 -49 -43 -81l8 3q170 -98 269 -125q25 -5 55 -10q4 -1 7 -1
q46 -14 46 -50q0 -22 -177 -183h-28q-104 60 -142 69q-13 2 -27 2q-34 0 -86 -13q-336 -91 -336 -377q0 -218 197 -345q174 -123 530 -123q69 0 168 5v-62q-163 -39 -293 -39zM634 -406q0 -46 -33.5 -79.5t-85.5 -33.5q-51 0 -85 33.5t-34 79.5t34.5 80t84.5 34t84.5 -34
t34.5 -80z" />
    <glyph glyph-name="uniFC46" unicode="&#xfee3;&#xfea2;" horiz-adv-x="1205" arabic-form="isolated" 
d="M913 647q27 -18 43 -11q39 17 36 61q-6 40 -46 44q-20 -1 -40 -23q-14 -22 7 -71zM435 513q212 -2 320 26q57 17 58 20q-66 39 -71 117q-14 110 66 181q56 49 151 52q113 -8 183 -101q50 -127 -20 -227q-45 -57 -124 -101q-206 -115 -453 -142zM760 -908q-388 0 -598 180
q-157 156 -157 384q0 272 227 456q113 92 247 115q-114 84 -177 101q-81 19 -118 24q-76 7 -94 25q-9 12 -9 32q19 99 89 170q34 22 60 22q23 0 42 -5q18 -5 38 -21q64 -62 69 -62h154q20 0 37 -9q42 -29 42 -82q0 -49 -43 -81l8 3q170 -98 269 -125q25 -5 55 -10q4 -1 7 -1
q46 -14 46 -50q0 -22 -177 -183h-28q-104 60 -142 69q-13 2 -27 2q-34 0 -86 -13q-336 -91 -336 -377q0 -218 197 -345q174 -123 530 -123q69 0 168 5v-62q-163 -39 -293 -39z" />
    <glyph glyph-name="uniFC47" unicode="&#xfee3;&#xfea6;" horiz-adv-x="1205" arabic-form="isolated" 
d="M913 647q27 -18 43 -11q39 17 36 61q-6 40 -46 44q-20 -1 -40 -23q-14 -22 7 -71zM435 513q212 -2 320 26q57 17 58 20q-66 39 -71 117q-14 110 66 181q56 49 151 52q113 -8 183 -101q50 -127 -20 -227q-45 -57 -124 -101q-206 -115 -453 -142zM760 -908q-388 0 -598 180
q-157 156 -157 384q0 272 227 456q113 92 247 115q-114 84 -177 101q-81 19 -118 24q-76 7 -94 25q-9 12 -9 32q19 99 89 170q34 22 60 22q23 0 42 -5q18 -5 38 -21q64 -62 69 -62h154q20 0 37 -9q42 -29 42 -82q0 -49 -43 -81l8 3q170 -98 269 -125q25 -5 55 -10q4 -1 7 -1
q46 -14 46 -50q0 -22 -177 -183h-28q-104 60 -142 69q-13 2 -27 2q-34 0 -86 -13q-336 -91 -336 -377q0 -218 197 -345q174 -123 530 -123q69 0 168 5v-62q-163 -39 -293 -39zM374 818q0 -46 -33.5 -79.5t-85.5 -33.5q-51 0 -85 33.5t-34 79.5t34.5 80t84.5 34t84.5 -34
t34.5 -80z" />
    <glyph glyph-name="uniFC4B" unicode="&#xfee7;&#xfe9e;" horiz-adv-x="1048" arabic-form="isolated" 
d="M760 -908q-388 0 -598 180q-157 156 -157 384q0 272 227 456q113 92 247 115q-114 84 -177 101q-81 19 -118 24q-76 7 -94 25q-9 12 -9 32q19 99 89 170q34 22 60 22q23 0 42 -5q18 -5 38 -21q64 -62 69 -62h154q20 0 37 -9q42 -29 42 -82q0 -49 -43 -81l8 3
q170 -98 269 -125q25 -5 55 -10q4 -1 7 -1q46 -14 46 -50q0 -22 -177 -183h-28q-104 60 -142 69q-13 2 -27 2q-34 0 -86 -13q-336 -91 -336 -377q0 -218 197 -345q174 -123 530 -123q69 0 168 5v-62q-163 -39 -293 -39zM596 333h-68q-37 8 -57 34q-22 23 -22 57q0 35 27 62
q29 27 69 27h50q186 20 206 139l2 16q0 112 -185 167l-7 23q45 158 83 158q36 0 103 -57q112 -112 112 -261q0 -67 -24 -142q-64 -179 -289 -223zM634 -406q0 -46 -33.5 -79.5t-85.5 -33.5q-51 0 -85 33.5t-34 79.5t34.5 80t84.5 34t84.5 -34t34.5 -80zM842 1269
q0 -46 -33.5 -79.5t-85.5 -33.5q-51 0 -85 33.5t-34 79.5t34.5 80t84.5 34t84.5 -34t34.5 -80z" />
    <glyph glyph-name="uniFC4C" unicode="&#xfee7;&#xfea2;" horiz-adv-x="1048" arabic-form="isolated" 
d="M760 -908q-388 0 -598 180q-157 156 -157 384q0 272 227 456q113 92 247 115q-114 84 -177 101q-81 19 -118 24q-76 7 -94 25q-9 12 -9 32q19 99 89 170q34 22 60 22q23 0 42 -5q18 -5 38 -21q64 -62 69 -62h154q20 0 37 -9q42 -29 42 -82q0 -49 -43 -81l8 3
q170 -98 269 -125q25 -5 55 -10q4 -1 7 -1q46 -14 46 -50q0 -22 -177 -183h-28q-104 60 -142 69q-13 2 -27 2q-34 0 -86 -13q-336 -91 -336 -377q0 -218 197 -345q174 -123 530 -123q69 0 168 5v-62q-163 -39 -293 -39zM596 333h-68q-37 8 -57 34q-22 23 -22 57q0 35 27 62
q29 27 69 27h50q186 20 206 139l2 16q0 112 -185 167l-7 23q45 158 83 158q36 0 103 -57q112 -112 112 -261q0 -67 -24 -142q-64 -179 -289 -223zM842 1269q0 -46 -33.5 -79.5t-85.5 -33.5q-51 0 -85 33.5t-34 79.5t34.5 80t84.5 34t84.5 -34t34.5 -80z" />
    <glyph glyph-name="uniFC4D" unicode="&#xfee7;&#xfea6;" horiz-adv-x="1048" arabic-form="isolated" 
d="M596 333q151 -87 250 -114q25 -5 55 -10q4 -1 7 -1q46 -14 46 -50q0 -22 -177 -183h-28q-104 60 -142 69q-13 2 -27 2q-34 0 -86 -13q-336 -91 -336 -377q0 -218 197 -345q174 -123 530 -123q69 0 168 5v-62q-163 -39 -293 -39q-388 0 -598 180q-157 156 -157 384
q0 272 227 456q113 92 247 115q-114 84 -177 101q-81 19 -118 24q-76 7 -94 25q-9 12 -9 32q19 99 89 170q34 22 60 22q23 0 42 -5q18 -5 38 -21q64 -62 69 -62h216q186 20 206 139l2 16q0 112 -185 167l-7 23q45 158 83 158q36 0 103 -57q112 -112 112 -261q0 -67 -24 -142
q-64 -179 -289 -223v0zM842 1269q0 -46 -33.5 -79.5t-85.5 -33.5q-51 0 -85 33.5t-34 79.5t34.5 80t84.5 34t84.5 -34t34.5 -80zM340 813q0 -46 -33.5 -79.5t-85.5 -33.5q-51 0 -85 33.5t-34 79.5t34.5 80t84.5 34t84.5 -34t34.5 -80z" />
    <glyph glyph-name="uniFC4F" unicode="&#xfee7;&#xfef0;" horiz-adv-x="1038" arabic-form="isolated" 
d="M874 -187h-37q-78 71 -196 74h-153q-379 0 -461 186l-3 10q-18 34 -21 96q0 70 47 149q44 74 133 144q77 66 115 66q29 0 51 -37q34 -74 111 -78q111 18 166 130q2 3 2 7q0 35 -98 118q0 17 35 190h35q119 -48 141 -227l1 -29q0 -156 -82 -248q-80 -90 -206 -106
q-12 -2 -24 -2q-99 0 -181 117q-5 -2 -35 -19q-29 -17 -53 -42q-22 -24 -22 -55q0 -58 62 -124q77 -74 287 -74h348q145 0 185 -68v-20zM625 1073q0 -46 -33.5 -79.5t-85.5 -33.5q-51 0 -85 33.5t-34 79.5t34.5 80t84.5 34t84.5 -34t34.5 -80z" />
    <glyph glyph-name="uniFC6F" unicode="&#xfe92;&#xfef0;" horiz-adv-x="1034" arabic-form="final" 
d="M468 -15q-42 5 -96 39q-86 58 -102 82q-5 -2 -35 -19q-29 -17 -53 -42q-22 -24 -22 -55q0 -58 62 -124q77 -74 287 -74h448q145 0 185 -68v-20l-147 -158h-37q-78 71 -196 74h-253q-379 0 -462 188q0 1 -2 8q-18 34 -21 96q0 70 47 149q44 74 133 144q77 66 115 66
q29 0 50 -37q37 -69 107 -69h21q81 0 149 72q84 104 118 104q40 0 99 -80q78 -96 146 -96q32 0 46 -36q11 -29 11 -59q0 -31 -11 -55q-15 -30 -46 -30h-20q-52 0 -96 20q-27 13 -63 53q-72 78 -95 101q-109 -146 -204 -170q-12 -4 -25 -4h-38zM845 -53q0 -46 -33.5 -79.5
t-85.5 -33.5q-51 0 -85 33.5t-34 79.5t34.5 80t84.5 34t84.5 -34t34.5 -80z" />
    <glyph glyph-name="uniFC74" unicode="&#xfedf;&#xfe98;&#x649;" horiz-adv-x="1348" arabic-form="final" 
d="M468 -15q-42 5 -96 39q-86 58 -102 82q-5 -2 -35 -19q-29 -17 -53 -42q-22 -24 -22 -55q0 -58 62 -124q77 -74 287 -74h448q145 0 185 -68v-20l-147 -158h-37q-78 71 -196 74h-253q-379 0 -462 188q0 1 -2 8q-18 34 -21 96q0 70 47 149q44 74 133 144q77 66 115 66
q29 0 50 -37q37 -69 107 -69h21q81 0 149 72q84 104 118 104q40 0 99 -80q78 -96 146 -96h4q72 6 125 115l-10 708q0 22 -102 107v14q47 162 67 185q11 16 27 21q13 6 32 6q88 -8 107 -209q2 -37 4 -69v-15q2 -29 2 -54v-659q-4 -73 -32 -126q-29 -55 -63 -92
q-78 -110 -160 -112h-21q-52 0 -96 20q-27 13 -63 53q-72 78 -95 101q-109 -146 -204 -170q-12 -4 -25 -4h-38zM942 729q0 -38 -28 -66t-71 -28q-42 0 -70.5 28t-28.5 66t29 66.5t70 28.5t70 -28.5t29 -66.5zM735 657q0 -38 -28 -66t-71 -28q-42 0 -70.5 28t-28.5 66
t29 66.5t70 28.5t70 -28.5t29 -66.5z" />
    <glyph glyph-name="uniFC75" unicode="&#xfe98;&#xfef0;" horiz-adv-x="1034" arabic-form="final" 
d="M468 -15q-42 5 -96 39q-86 58 -102 82q-5 -2 -35 -19q-29 -17 -53 -42q-22 -24 -22 -55q0 -58 62 -124q77 -74 287 -74h448q145 0 185 -68v-20l-147 -158h-37q-78 71 -196 74h-253q-379 0 -462 188q0 1 -2 8q-18 34 -21 96q0 70 47 149q44 74 133 144q77 66 115 66
q29 0 50 -37q37 -69 107 -69h21q81 0 149 72q84 104 118 104q40 0 99 -80q78 -96 146 -96q32 0 46 -36q11 -29 11 -59q0 -31 -11 -55q-15 -30 -46 -30h-20q-52 0 -96 20q-27 13 -63 53q-72 78 -95 101q-109 -146 -204 -170q-12 -4 -25 -4h-38zM948 694q0 -38 -28 -66
t-71 -28q-42 0 -70.5 28t-28.5 66t29 66.5t70 28.5t70 -28.5t29 -66.5zM741 622q0 -38 -28 -66t-71 -28q-42 0 -70.5 28t-28.5 66t29 66.5t70 28.5t70 -28.5t29 -66.5z" />
    <glyph glyph-name="uniFC8D" unicode="&#xfe9b;&#xfef0;" horiz-adv-x="1038" arabic-form="final" 
d="M874 -187h-37q-78 71 -196 74h-153q-379 0 -461 186l-3 10q-18 34 -21 96q0 70 47 149q44 74 133 144q77 66 115 66q29 0 51 -37q34 -74 111 -78q111 18 166 130q2 3 2 7q0 35 -98 118q0 17 35 190h35q119 -48 141 -227l1 -29q0 -156 -82 -248q-80 -90 -206 -106
q-12 -2 -24 -2q-99 0 -181 117q-5 -2 -35 -19q-29 -17 -53 -42q-22 -24 -22 -55q0 -58 62 -124q77 -74 287 -74h348q145 0 185 -68v-20zM665 1075q0 -38 -28 -66t-71 -28q-42 0 -70.5 28t-28.5 66t29 66.5t70 28.5t70 -28.5t29 -66.5zM458 1003q0 -38 -28 -66t-71 -28
q-42 0 -70.5 28t-28.5 66t29 66.5t70 28.5t70 -28.5t29 -66.5z" />
    <glyph glyph-name="uniFC8F" unicode="&#xfee8;&#xfef0;" horiz-adv-x="1034" arabic-form="final" 
d="M468 -15q-42 5 -96 39q-86 58 -102 82q-5 -2 -35 -19q-29 -17 -53 -42q-22 -24 -22 -55q0 -58 62 -124q77 -74 287 -74h448q145 0 185 -68v-20l-147 -158h-37q-78 71 -196 74h-253q-379 0 -462 188q0 1 -2 8q-18 34 -21 96q0 70 47 149q44 74 133 144q77 66 115 66
q29 0 50 -37q37 -69 107 -69h21q81 0 149 72q84 104 118 104q40 0 99 -80q78 -96 146 -96q32 0 46 -36q11 -29 11 -59q0 -31 -11 -55q-15 -30 -46 -30h-20q-52 0 -96 20q-27 13 -63 53q-72 78 -95 101q-109 -146 -204 -170q-12 -4 -25 -4h-38zM822 651q0 -46 -33.5 -79.5
t-85.5 -33.5q-51 0 -85 33.5t-34 79.5t34.5 80t84.5 34t84.5 -34t34.5 -80z" />
    <glyph glyph-name="uniFC96" unicode="&#xfe91;&#xfef0;" horiz-adv-x="1038" arabic-form="final" 
d="M874 -187h-37q-78 71 -196 74h-153q-379 0 -461 186l-3 10q-18 34 -21 96q0 70 47 149q44 74 133 144q77 66 115 66q29 0 51 -37q34 -74 111 -78q111 18 166 130q2 3 2 7q0 35 -98 118q0 17 35 190h35q119 -48 141 -227l1 -29q0 -156 -82 -248q-80 -90 -206 -106
q-12 -2 -24 -2q-99 0 -181 117q-5 -2 -35 -19q-29 -17 -53 -42q-22 -24 -22 -55q0 -58 62 -124q77 -74 287 -74h348q145 0 185 -68v-20zM759 200q0 -46 -33.5 -79.5t-85.5 -33.5q-51 0 -85 33.5t-34 79.5t34.5 80t84.5 34t84.5 -34t34.5 -80z" />
    <glyph glyph-name="uniFC9C" unicode="&#xfe91;&#xfea0;" horiz-adv-x="1239" arabic-form="initial" 
d="M796 515q225 21 248 139q13 124 -186 183l-7 23q42 149 74 155q38 9 113 -54q163 -164 88 -403q-65 -180 -329 -223h-68q-37 8 -57 34q-22 23 -22 57q0 35 27 62q29 27 69 27h50zM811 515q22 0 37 -11q15 -10 24 -22q9 -14 14 -29q4 -16 4 -29q0 -14 -4 -30
q-5 -14 -14 -25q-9 -17 -28 -26q-15 -8 -33 -8h-297q-19 0 -34 8q-20 9 -27 26q-10 10 -15 25q-4 16 -4 30q0 13 4 28q3 15 14 31l21 21q19 11 41 11h297zM764 -85h-40q-94 107 -159 107q-11 0 -20 -1q-46 -12 -90 -23q-47 -9 -185 -13h-261q-37 8 -57 34q-22 23 -22 57
q0 35 27 62q29 27 69 27h473q-125 142 -200 163q-82 19 -120 24q-77 7 -92 26q-9 11 -9 31q17 99 89 170q31 22 60 22q23 0 42 -5q16 -5 38 -21q64 -62 67 -62h156q20 0 37 -9q42 -29 42 -82q0 -49 -42 -80q-20 -9 5 -9q102 -110 130 -127q23 -19 90 -36l103 -25
q48 -8 48 -48l-2 -16q0 -19 -177 -166zM1203 230q0 -46 -33.5 -79.5t-85.5 -33.5q-51 0 -85 33.5t-34 79.5t34.5 80t84.5 34t84.5 -34t34.5 -80zM660 -197q0 -46 -33.5 -79.5t-85.5 -33.5q-51 0 -85 33.5t-34 79.5t34.5 80t84.5 34t84.5 -34t34.5 -80z" />
    <glyph glyph-name="uniFC9D" unicode="&#xfe91;&#xfea4;" horiz-adv-x="1239" arabic-form="initial" 
d="M796 515q225 21 248 139q13 124 -186 183l-7 23q42 149 74 155q38 9 113 -54q163 -164 88 -403q-65 -180 -329 -223h-68q-37 8 -57 34q-22 23 -22 57q0 35 27 62q29 27 69 27h50zM811 515q22 0 37 -11q15 -10 24 -22q9 -14 14 -29q4 -16 4 -29q0 -14 -4 -30
q-5 -14 -14 -25q-9 -17 -28 -26q-15 -8 -33 -8h-297q-19 0 -34 8q-20 9 -27 26q-10 10 -15 25q-4 16 -4 30q0 13 4 28q3 15 14 31l21 21q19 11 41 11h297zM764 -85h-40q-94 107 -159 107q-11 0 -20 -1q-46 -12 -90 -23q-47 -9 -185 -13h-261q-37 8 -57 34q-22 23 -22 57
q0 35 27 62q29 27 69 27h473q-125 142 -200 163q-82 19 -120 24q-77 7 -92 26q-9 11 -9 31q17 99 89 170q31 22 60 22q23 0 42 -5q16 -5 38 -21q64 -62 67 -62h156q20 0 37 -9q42 -29 42 -82q0 -49 -42 -80q-20 -9 5 -9q102 -110 130 -127q23 -19 90 -36l103 -25
q48 -8 48 -48l-2 -16q0 -19 -177 -166zM1203 230q0 -46 -33.5 -79.5t-85.5 -33.5q-51 0 -85 33.5t-34 79.5t34.5 80t84.5 34t84.5 -34t34.5 -80z" />
    <glyph glyph-name="uniFC9E" unicode="&#xfe91;&#xfea8;" horiz-adv-x="1239" arabic-form="initial" 
d="M796 515q225 21 248 139q13 124 -186 183l-7 23q42 149 74 155q38 9 113 -54q163 -164 88 -403q-65 -180 -329 -223h-68q-37 8 -57 34q-22 23 -22 57q0 35 27 62q29 27 69 27h50zM811 515q22 0 37 -11q15 -10 24 -22q9 -14 14 -29q4 -16 4 -29q0 -14 -4 -30
q-5 -14 -14 -25q-9 -17 -28 -26q-15 -8 -33 -8h-297q-19 0 -34 8q-20 9 -27 26q-10 10 -15 25q-4 16 -4 30q0 13 4 28q3 15 14 31l21 21q19 11 41 11h297zM764 -85h-40q-94 107 -159 107q-11 0 -20 -1q-46 -12 -90 -23q-47 -9 -185 -13h-261q-37 8 -57 34q-22 23 -22 57
q0 35 27 62q29 27 69 27h473q-125 142 -200 163q-82 19 -120 24q-77 7 -92 26q-9 11 -9 31q17 99 89 170q31 22 60 22q23 0 42 -5q16 -5 38 -21q64 -62 67 -62h156q20 0 37 -9q42 -29 42 -82q0 -49 -42 -80q-20 -9 5 -9q102 -110 130 -127q23 -19 90 -36l103 -25
q48 -8 48 -48l-2 -16q0 -19 -177 -166zM1203 230q0 -46 -33.5 -79.5t-85.5 -33.5q-51 0 -85 33.5t-34 79.5t34.5 80t84.5 34t84.5 -34t34.5 -80zM360 836q0 -46 -33.5 -79.5t-85.5 -33.5q-51 0 -85 33.5t-34 79.5t34.5 80t84.5 34t84.5 -34t34.5 -80z" />
    <glyph glyph-name="uniFCA1" unicode="&#xfe97;&#xfea0;" horiz-adv-x="1240" arabic-form="initial" 
d="M796 515q225 21 248 139q13 124 -186 183l-7 23q42 149 74 155q38 9 113 -54q163 -164 88 -403q-58 -162 -278 -213l-4 -2q-15 -8 -33 -8h-253q2 -2 14 -2q102 -110 130 -127q23 -19 90 -36l103 -25q48 -8 48 -48l-2 -16q0 -19 -177 -166h-40q-94 107 -159 107
q-11 0 -20 -1q-46 -12 -90 -23q-47 -9 -185 -13h-261q-37 8 -57 34q-22 23 -22 57q0 35 27 62q29 27 69 27h473q-125 142 -200 163q-82 19 -120 24q-77 7 -92 26q-9 11 -9 31q17 99 89 170q31 22 60 22q23 0 42 -5q16 -5 38 -21q64 -62 67 -62h122q9 2 18 2h282zM666 -192
q0 -46 -33.5 -79.5t-85.5 -33.5q-51 0 -85 33.5t-34 79.5t34.5 80t84.5 34t84.5 -34t34.5 -80zM971 1300q0 -38 -28 -66t-71 -28q-42 0 -70.5 28t-28.5 66t29 66.5t70 28.5t70 -28.5t29 -66.5zM764 1228q0 -38 -28 -66t-71 -28q-42 0 -70.5 28t-28.5 66t29 66.5t70 28.5
t70 -28.5t29 -66.5z" />
    <glyph glyph-name="uniFCA2" unicode="&#xfe97;&#xfea4;" horiz-adv-x="1240" arabic-form="initial" 
d="M796 515q225 21 248 139q13 124 -186 183l-7 23q42 149 74 155q38 9 113 -54q163 -164 88 -403q-58 -162 -278 -213l-4 -2q-15 -8 -33 -8h-253q2 -2 14 -2q102 -110 130 -127q23 -19 90 -36l103 -25q48 -8 48 -48l-2 -16q0 -19 -177 -166h-40q-94 107 -159 107
q-11 0 -20 -1q-46 -12 -90 -23q-47 -9 -185 -13h-261q-37 8 -57 34q-22 23 -22 57q0 35 27 62q29 27 69 27h473q-125 142 -200 163q-82 19 -120 24q-77 7 -92 26q-9 11 -9 31q17 99 89 170q31 22 60 22q23 0 42 -5q16 -5 38 -21q64 -62 67 -62h122q9 2 18 2h282zM971 1277
q0 -38 -28 -66t-71 -28q-42 0 -70.5 28t-28.5 66t29 66.5t70 28.5t70 -28.5t29 -66.5zM764 1205q0 -38 -28 -66t-71 -28q-42 0 -70.5 28t-28.5 66t29 66.5t70 28.5t70 -28.5t29 -66.5z" />
    <glyph glyph-name="uniFCA3" unicode="&#xfe97;&#xfea8;" horiz-adv-x="1240" arabic-form="initial" 
d="M796 515q225 21 248 139q13 124 -186 183l-7 23q42 149 74 155q38 9 113 -54q163 -164 88 -403q-58 -162 -278 -213l-4 -2q-15 -8 -33 -8h-253q2 -2 14 -2q102 -110 130 -127q23 -19 90 -36l103 -25q48 -8 48 -48l-2 -16q0 -19 -177 -166h-40q-94 107 -159 107
q-11 0 -20 -1q-46 -12 -90 -23q-47 -9 -185 -13h-261q-37 8 -57 34q-22 23 -22 57q0 35 27 62q29 27 69 27h473q-125 142 -200 163q-82 19 -120 24q-77 7 -92 26q-9 11 -9 31q17 99 89 170q31 22 60 22q23 0 42 -5q16 -5 38 -21q64 -62 67 -62h122q9 2 18 2h282zM360 825
q0 -46 -33.5 -79.5t-85.5 -33.5q-51 0 -85 33.5t-34 79.5t34.5 80t84.5 34t84.5 -34t34.5 -80zM960 1283q0 -38 -28 -66t-71 -28q-42 0 -70.5 28t-28.5 66t29 66.5t70 28.5t70 -28.5t29 -66.5zM753 1211q0 -38 -28 -66t-71 -28q-42 0 -70.5 28t-28.5 66t29 66.5t70 28.5
t70 -28.5t29 -66.5z" />
    <glyph glyph-name="uniFCAE" unicode="&#xfeb3;&#xfea4;" horiz-adv-x="1715" arabic-form="initial" 
d="M1416 332q-190 -4 -227 113q-43 -105 -176 -113q-138 -8 -248 141q-108 -112 -175 -141q-23 -1 -35 0h-28q-42 0 -65 38q-14 25 -14 45q0 37 16 64q28 33 66 33q83 9 242 150l11 8h15l12 -4l6 -6q83 -116 181 -122q92 -8 179 179l13 17l4 4l9 6l18 4h13l11 -4l4 -2l10 -5
l4 -7l4 -7l2 -7q-21 -183 138 -209q71 3 101 89q12 63 -77 117q-10 85 34 190h35q116 -47 129 -237q0 -226 -141 -315q-36 -19 -71 -19zM852 729q-7 -145 158 -222q67 3 97 89q5 17 31 22l45 90q42 10 45 -42q0 -226 -141 -315q-36 -19 -71 -19q-189 -4 -241 144
q-100 -138 -182 -141q-60 0 -99 94l49 47q6 13 14 43q108 33 206 215l14 14l19 3l7 1l19 -1l19 -6zM764 -85h-40q-94 107 -159 107q-11 0 -20 -1q-46 -12 -90 -23q-47 -9 -185 -13h-261q-37 8 -57 34q-22 23 -22 57q0 35 27 62q29 27 69 27h473q-125 142 -200 163
q-82 19 -120 24q-77 7 -92 26q-9 11 -9 31q17 99 89 170q31 22 60 22q23 0 42 -5q16 -5 38 -21q64 -62 67 -62h156q20 0 37 -9q42 -29 42 -82q0 -49 -42 -80q-20 -9 5 -9q102 -110 130 -127q23 -19 90 -36l103 -25q48 -8 48 -48l-2 -16q0 -19 -177 -166z" />
    <glyph glyph-name="uniFCB1" unicode="&#xfebb;&#xfea4;" horiz-adv-x="1815" arabic-form="initial" 
d="M588 512l73 76q4 5 12 13q15 12 39 32q35 32 95 86q280 243 414 275q6 3 13 3l28 4h24h11q209 0 395 -304q47 -89 47 -162v-14q0 -145 -149 -267q-31 -16 -67 -31q-55 0 -188 109h-821q-19 3 -33 12q-14 11 -21 24q-10 12 -15 25q-2 16 -2 30t4 26q3 18 14 31q9 11 21 21
q16 11 41 11h65zM763 515h831v-13q-89 212 -287 320q-45 15 -66 15q-131 0 -371 -231q-26 -17 -107 -91zM764 -85h-40q-94 107 -159 107q-11 0 -20 -1q-46 -12 -90 -23q-47 -9 -185 -13h-261q-37 8 -57 34q-22 23 -22 57q0 35 27 62q29 27 69 27h473q-125 142 -200 163
q-82 19 -120 24q-77 7 -92 26q-9 11 -9 31q17 99 89 170q31 22 60 22q23 0 42 -5q16 -5 38 -21q64 -62 67 -62h156q20 0 37 -9q42 -29 42 -82q0 -49 -42 -80q-20 -9 5 -9q102 -110 130 -127q23 -19 90 -36l103 -25q48 -8 48 -48l-2 -16q0 -19 -177 -166z" />
    <glyph glyph-name="uniFCB2" unicode="&#xfebb;&#xfea8;" horiz-adv-x="1815" arabic-form="initial" 
d="M588 512l73 76q4 5 12 13q15 12 39 32q35 32 95 86q280 243 414 275q6 3 13 3l28 4h24h11q209 0 395 -304q47 -89 47 -162v-14q0 -145 -149 -267q-31 -16 -67 -31q-55 0 -188 109h-821q-19 3 -33 12q-14 11 -21 24q-10 12 -15 25q-2 16 -2 30t4 26q3 18 14 31q9 11 21 21
q16 11 41 11h65zM763 515h831v-13q-89 212 -287 320q-45 15 -66 15q-131 0 -371 -231q-26 -17 -107 -91zM764 -85h-40q-94 107 -159 107q-11 0 -20 -1q-46 -12 -90 -23q-47 -9 -185 -13h-261q-37 8 -57 34q-22 23 -22 57q0 35 27 62q29 27 69 27h473q-125 142 -200 163
q-82 19 -120 24q-77 7 -92 26q-9 11 -9 31q17 99 89 170q31 22 60 22q23 0 42 -5q16 -5 38 -21q64 -62 67 -62h156q20 0 37 -9q42 -29 42 -82q0 -49 -42 -80q-20 -9 5 -9q102 -110 130 -127q23 -19 90 -36l103 -25q48 -8 48 -48l-2 -16q0 -19 -177 -166zM371 825
q0 -46 -33.5 -79.5t-85.5 -33.5q-51 0 -85 33.5t-34 79.5t34.5 80t84.5 34t84.5 -34t34.5 -80z" />
    <glyph glyph-name="uniFCB8" unicode="&#xfec3;&#xfea4;" horiz-adv-x="1904" arabic-form="initial" 
d="M1401 773q-69 70 -133 70q-173 -21 -491 -334h351q162 128 273 264zM1468 702q-85 -94 -226 -188q-18 -11 -6 -5h366q-45 98 -134 193zM1510 932q62 104 84 238q2 22 2 40q0 106 -74 198v8q76 137 114 137q45 0 76 -71q43 -80 43 -176q0 -140 -88 -318q-35 -71 -80 -136
q100 -105 133 -159q45 -65 45 -155q0 -48 -10 -89q-86 -180 -175 -216h-52l-172 106h-786q114 -124 142 -141q22 -18 87 -34l103 -25q49 -9 49 -41l-2 -16q0 -14 -177 -161h-48q-94 107 -155 107q-10 0 -17 -1q-46 -12 -90 -23q-49 -9 -187 -13h-263q-42 9 -62 36
q-20 21 -20 49q0 29 25 54q30 29 75 29h479q-137 155 -210 175q-81 20 -117 24q-81 7 -97 27q-7 9 -7 23q16 93 87 163q33 24 66 24q25 0 46 -6q17 -5 40 -22q63 -60 61 -60l221 -8q469 480 671 494q7 5 49 5q106 0 196 -70z" />
    <glyph glyph-name="uniFED7_uniFEA0" unicode="&#xfed7;&#xfea0;" horiz-adv-x="1122" 
d="M783 789q39 5 73 34q-51 63 -96 63q-39 0 -58 -30l1 -8q8 -59 80 -59zM564 513q297 0 375 115q2 12 2 25q0 28 -7 49q-53 -95 -194 -97q-114 5 -133 119v23q0 141 59 257q44 77 108 84h13q112 0 206 -140q58 -95 58 -228q-45 -387 -475 -387h-4q102 -110 130 -127
q23 -19 90 -36l103 -25q48 -8 48 -48l-2 -16q0 -19 -177 -166h-40q-94 107 -159 107q-11 0 -20 -1q-46 -12 -90 -23q-47 -9 -185 -13h-261q-37 8 -57 34q-22 23 -22 57q0 35 27 62q29 27 69 27h473q-125 142 -200 163q-82 19 -120 24q-77 7 -92 26q-9 11 -9 31q17 99 89 170
q31 22 60 22q23 0 42 -5q16 -5 38 -21q64 -62 67 -62h190zM666 -191q0 -46 -33.5 -79.5t-85.5 -33.5q-51 0 -85 33.5t-34 79.5t34.5 80t84.5 34t84.5 -34t34.5 -80zM942 1306q0 -38 -28 -66t-71 -28q-42 0 -70.5 28t-28.5 66t29 66.5t70 28.5t70 -28.5t29 -66.5zM735 1234
q0 -38 -28 -66t-71 -28q-42 0 -70.5 28t-28.5 66t29 66.5t70 28.5t70 -28.5t29 -66.5z" />
    <glyph glyph-name="uniFED7_uniFEA4" unicode="&#xfed7;&#xfea4;" horiz-adv-x="1122" 
d="M783 789q39 5 73 34q-51 63 -96 63q-39 0 -58 -30l1 -8q8 -59 80 -59zM564 513q297 0 375 115q2 12 2 25q0 28 -7 49q-53 -95 -194 -97q-114 5 -133 119v23q0 141 59 257q44 77 108 84h13q112 0 206 -140q58 -95 58 -228q-45 -387 -475 -387h-4q102 -110 130 -127
q23 -19 90 -36l103 -25q48 -8 48 -48l-2 -16q0 -19 -177 -166h-40q-94 107 -159 107q-11 0 -20 -1q-46 -12 -90 -23q-47 -9 -185 -13h-261q-37 8 -57 34q-22 23 -22 57q0 35 27 62q29 27 69 27h473q-125 142 -200 163q-82 19 -120 24q-77 7 -92 26q-9 11 -9 31q17 99 89 170
q31 22 60 22q23 0 42 -5q16 -5 38 -21q64 -62 67 -62h190zM942 1306q0 -38 -28 -66t-71 -28q-42 0 -70.5 28t-28.5 66t29 66.5t70 28.5t70 -28.5t29 -66.5zM735 1234q0 -38 -28 -66t-71 -28q-42 0 -70.5 28t-28.5 66t29 66.5t70 28.5t70 -28.5t29 -66.5z" />
    <glyph glyph-name="uniFED7_uniFEA8" unicode="&#xfed7;&#xfea8;" horiz-adv-x="1122" 
d="M783 789q39 5 73 34q-51 63 -96 63q-39 0 -58 -30l1 -8q8 -59 80 -59zM576 333h-47q-39 0 -61 31q-18 25 -18 60q0 27 19 57q21 32 60 32h35q297 0 375 115q2 12 2 25q0 46 -19 73h23q-47 -119 -205 -121q-114 5 -133 119v23q0 141 59 257q44 77 108 84h13
q112 0 206 -140q58 -95 58 -228q-45 -387 -475 -387zM764 -85h-40q-94 107 -159 107q-11 0 -20 -1q-46 -12 -90 -23q-47 -9 -185 -13h-261q-37 8 -57 34q-22 23 -22 57q0 35 27 62q29 27 69 27h473q-125 142 -200 163q-82 19 -120 24q-77 7 -92 26q-9 11 -9 31q17 99 89 170
q31 22 60 22q23 0 42 -5q16 -5 38 -21q64 -62 67 -62h156q20 0 37 -9q42 -29 42 -82q0 -49 -42 -80q-20 -9 5 -9q102 -110 130 -127q23 -19 90 -36l103 -25q48 -8 48 -48l-2 -16q0 -19 -177 -166zM354 833q0 -46 -33.5 -79.5t-85.5 -33.5q-51 0 -85 33.5t-34 79.5t34.5 80
t84.5 34t84.5 -34t34.5 -80zM747 1209q0 -46 -33.5 -79.5t-85.5 -33.5q-51 0 -85 33.5t-34 79.5t34.5 80t84.5 34t84.5 -34t34.5 -80zM1001 1324q0 -46 -33.5 -79.5t-85.5 -33.5q-51 0 -85 33.5t-34 79.5t34.5 80t84.5 34t84.5 -34t34.5 -80z" />
    <glyph glyph-name="uniFCBE" unicode="&#xfed3;&#xfea0;" horiz-adv-x="1122" arabic-form="initial" 
d="M783 789q39 5 73 34q-51 63 -96 63q-39 0 -58 -30l1 -8q8 -59 80 -59zM576 333h-47q-39 0 -61 31q-18 25 -18 60q0 27 19 57q21 32 60 32h35q297 0 375 115q2 12 2 25q0 46 -19 73h23q-47 -119 -205 -121q-114 5 -133 119v23q0 141 59 257q44 77 108 84h13
q112 0 206 -140q58 -95 58 -228q-45 -387 -475 -387zM764 -85h-40q-94 107 -159 107q-11 0 -20 -1q-46 -12 -90 -23q-47 -9 -185 -13h-261q-37 8 -57 34q-22 23 -22 57q0 35 27 62q29 27 69 27h473q-125 142 -200 163q-82 19 -120 24q-77 7 -92 26q-9 11 -9 31q17 99 89 170
q31 22 60 22q23 0 42 -5q16 -5 38 -21q64 -62 67 -62h156q20 0 37 -9q42 -29 42 -82q0 -49 -42 -80q-20 -9 5 -9q102 -110 130 -127q23 -19 90 -36l103 -25q48 -8 48 -48l-2 -16q0 -19 -177 -166zM661 -183q0 -46 -33.5 -79.5t-85.5 -33.5q-51 0 -85 33.5t-34 79.5t34.5 80
t84.5 34t84.5 -34t34.5 -80zM903 1289q0 -46 -33.5 -79.5t-85.5 -33.5q-51 0 -85 33.5t-34 79.5t34.5 80t84.5 34t84.5 -34t34.5 -80z" />
    <glyph glyph-name="uniFCBF" unicode="&#xfed3;&#xfea4;" horiz-adv-x="1122" arabic-form="initial" 
d="M783 789q39 5 73 34q-51 63 -96 63q-39 0 -58 -30l1 -8q8 -59 80 -59zM576 333h-47q-39 0 -61 31q-18 25 -18 60q0 27 19 57q21 32 60 32h35q297 0 375 115q2 12 2 25q0 46 -19 73h23q-47 -119 -205 -121q-114 5 -133 119v23q0 141 59 257q44 77 108 84h13
q112 0 206 -140q58 -95 58 -228q-45 -387 -475 -387zM764 -85h-40q-94 107 -159 107q-11 0 -20 -1q-46 -12 -90 -23q-47 -9 -185 -13h-261q-37 8 -57 34q-22 23 -22 57q0 35 27 62q29 27 69 27h473q-125 142 -200 163q-82 19 -120 24q-77 7 -92 26q-9 11 -9 31q17 99 89 170
q31 22 60 22q23 0 42 -5q16 -5 38 -21q64 -62 67 -62h156q20 0 37 -9q42 -29 42 -82q0 -49 -42 -80q-20 -9 5 -9q102 -110 130 -127q23 -19 90 -36l103 -25q48 -8 48 -48l-2 -16q0 -19 -177 -166zM903 1289q0 -46 -33.5 -79.5t-85.5 -33.5q-51 0 -85 33.5t-34 79.5t34.5 80
t84.5 34t84.5 -34t34.5 -80z" />
    <glyph glyph-name="uniFCC0" unicode="&#xfed3;&#xfea8;" horiz-adv-x="1122" arabic-form="initial" 
d="M783 789q39 5 73 34q-51 63 -96 63q-39 0 -58 -30l1 -8q8 -59 80 -59zM576 333h-47q-39 0 -61 31q-18 25 -18 60q0 27 19 57q21 32 60 32h35q297 0 375 115q2 12 2 25q0 46 -19 73h23q-47 -119 -205 -121q-114 5 -133 119v23q0 141 59 257q44 77 108 84h13
q112 0 206 -140q58 -95 58 -228q-45 -387 -475 -387zM764 -85h-40q-94 107 -159 107q-11 0 -20 -1q-46 -12 -90 -23q-47 -9 -185 -13h-261q-37 8 -57 34q-22 23 -22 57q0 35 27 62q29 27 69 27h473q-125 142 -200 163q-82 19 -120 24q-77 7 -92 26q-9 11 -9 31q17 99 89 170
q31 22 60 22q23 0 42 -5q16 -5 38 -21q64 -62 67 -62h156q20 0 37 -9q42 -29 42 -82q0 -49 -42 -80q-20 -9 5 -9q102 -110 130 -127q23 -19 90 -36l103 -25q48 -8 48 -48l-2 -16q0 -19 -177 -166zM903 1289q0 -46 -33.5 -79.5t-85.5 -33.5q-51 0 -85 33.5t-34 79.5t34.5 80
t84.5 34t84.5 -34t34.5 -80zM354 810q0 -46 -33.5 -79.5t-85.5 -33.5q-51 0 -85 33.5t-34 79.5t34.5 80t84.5 34t84.5 -34t34.5 -80z" />
    <glyph glyph-name="uniFCC2" unicode="&#xfe9b;&#xfea0;" horiz-adv-x="1240" arabic-form="initial" 
d="M796 515q225 21 248 139q13 124 -186 183l-7 23q42 149 74 155q38 9 113 -54q163 -164 88 -403q-65 -180 -329 -223h-68q-37 8 -57 34q-22 23 -22 57q0 35 27 62q29 27 69 27h50zM811 515q22 0 37 -11q15 -10 24 -22q9 -14 14 -29q4 -16 4 -29q0 -14 -4 -30
q-5 -14 -14 -25q-9 -17 -28 -26q-15 -8 -33 -8h-297q-19 0 -34 8q-20 9 -27 26q-10 10 -15 25q-4 16 -4 30q0 13 4 28q3 15 14 31l21 21q19 11 41 11h297zM764 -85h-40q-94 107 -159 107q-11 0 -20 -1q-46 -12 -90 -23q-47 -9 -185 -13h-261q-37 8 -57 34q-22 23 -22 57
q0 35 27 62q29 27 69 27h473q-125 142 -200 163q-82 19 -120 24q-77 7 -92 26q-9 11 -9 31q17 99 89 170q31 22 60 22q23 0 42 -5q16 -5 38 -21q64 -62 67 -62h156q20 0 37 -9q42 -29 42 -82q0 -49 -42 -80q-20 -9 5 -9q102 -110 130 -127q23 -19 90 -36l103 -25
q48 -8 48 -48l-2 -16q0 -19 -177 -166zM864 1464q0 -46 -33.5 -79.5t-85.5 -33.5q-51 0 -85 33.5t-34 79.5t34.5 80t84.5 34t84.5 -34t34.5 -80zM1060 1267q0 -46 -33.5 -79.5t-85.5 -33.5q-51 0 -85 33.5t-34 79.5t34.5 80t84.5 34t84.5 -34t34.5 -80zM804 1187
q0 -46 -33.5 -79.5t-85.5 -33.5q-51 0 -85 33.5t-34 79.5t34.5 80t84.5 34t84.5 -34t34.5 -80zM677 -182q0 -46 -33.5 -79.5t-85.5 -33.5q-51 0 -85 33.5t-34 79.5t34.5 80t84.5 34t84.5 -34t34.5 -80z" />
    <glyph glyph-name="uniFCC9" unicode="&#xfedf;&#xfea0;" horiz-adv-x="1037" arabic-form="initial" 
d="M560 336q-59 0 -80 41q-20 34 -20 60q0 19 19 49q19 32 70 32q238 51 255 271q-10 208 -186 320l-6 19q27 178 71 178q35 0 89 -60q144 -166 144 -387q0 -220 -86 -346q-88 -131 -195 -164q-42 -13 -75 -13zM764 -85h-40q-94 107 -159 107q-11 0 -20 -1q-46 -12 -90 -23
q-47 -9 -185 -13h-261q-37 8 -57 34q-22 23 -22 57q0 35 27 62q29 27 69 27h473q-125 142 -200 163q-82 19 -120 24q-77 7 -92 26q-9 11 -9 31q17 99 89 170q31 22 60 22q23 0 42 -5q16 -5 38 -21q64 -62 67 -62h156q20 0 37 -9q42 -29 42 -82q0 -49 -42 -80q-20 -9 5 -9
q102 -110 130 -127q23 -19 90 -36l103 -25q48 -8 48 -48l-2 -16q0 -19 -177 -166zM677 -182q0 -46 -33.5 -79.5t-85.5 -33.5q-51 0 -85 33.5t-34 79.5t34.5 80t84.5 34t84.5 -34t34.5 -80z" />
    <glyph glyph-name="uniFCCA" unicode="&#xfedf;&#xfea4;" horiz-adv-x="1037" arabic-form="initial" 
d="M560 336q-59 0 -80 41q-20 34 -20 60q0 19 19 49q19 32 70 32q238 51 255 271q-10 208 -186 320l-6 19q27 178 71 178q35 0 89 -60q144 -166 144 -387q0 -220 -86 -346q-88 -131 -195 -164q-42 -13 -75 -13zM764 -85h-40q-94 107 -159 107q-11 0 -20 -1q-46 -12 -90 -23
q-47 -9 -185 -13h-261q-37 8 -57 34q-22 23 -22 57q0 35 27 62q29 27 69 27h473q-125 142 -200 163q-82 19 -120 24q-77 7 -92 26q-9 11 -9 31q17 99 89 170q31 22 60 22q23 0 42 -5q16 -5 38 -21q64 -62 67 -62h156q20 0 37 -9q42 -29 42 -82q0 -49 -42 -80q-20 -9 5 -9
q102 -110 130 -127q23 -19 90 -36l103 -25q48 -8 48 -48l-2 -16q0 -19 -177 -166z" />
    <glyph glyph-name="uniFCCB" unicode="&#xfedf;&#xfea8;" horiz-adv-x="1037" arabic-form="initial" 
d="M560 336q-59 0 -80 41q-20 34 -20 60q0 19 19 49q19 32 70 32q238 51 255 271q-10 208 -186 320l-6 19q27 178 71 178q35 0 89 -60q144 -166 144 -387q0 -220 -86 -346q-88 -131 -195 -164q-42 -13 -75 -13zM764 -85h-40q-94 107 -159 107q-11 0 -20 -1q-46 -12 -90 -23
q-47 -9 -185 -13h-261q-37 8 -57 34q-22 23 -22 57q0 35 27 62q29 27 69 27h473q-125 142 -200 163q-82 19 -120 24q-77 7 -92 26q-9 11 -9 31q17 99 89 170q31 22 60 22q23 0 42 -5q16 -5 38 -21q64 -62 67 -62h156q20 0 37 -9q42 -29 42 -82q0 -49 -42 -80q-20 -9 5 -9
q102 -110 130 -127q23 -19 90 -36l103 -25q48 -8 48 -48l-2 -16q0 -19 -177 -166zM354 817q0 -46 -33.5 -79.5t-85.5 -33.5q-51 0 -85 33.5t-34 79.5t34.5 80t84.5 34t84.5 -34t34.5 -80z" />
    <glyph glyph-name="uniFCCE" unicode="&#xfee3;&#xfea0;" horiz-adv-x="1205" arabic-form="initial" 
d="M913 647q27 -18 43 -11q39 17 36 61q-6 40 -46 44q-20 -1 -40 -23q-14 -22 7 -71zM435 513q212 -2 320 26q57 17 58 20q-66 39 -71 117q-14 110 66 181q56 49 151 52q113 -8 183 -101q50 -127 -20 -227q-45 -57 -124 -101q-206 -115 -453 -142zM767 -85h-40
q-94 107 -159 107q-11 0 -20 -1q-46 -12 -90 -23q-47 -9 -185 -13h-261q-37 8 -57 34q-22 23 -22 57q0 35 27 62q29 27 69 27h473q-125 142 -200 163q-82 19 -120 24q-77 7 -92 26q-9 11 -9 31q17 99 89 170q31 22 60 22q23 0 42 -5q16 -5 38 -21q64 -62 67 -62h156
q20 0 37 -9q42 -29 42 -82q0 -49 -42 -80q-20 -9 5 -9q102 -110 130 -127q23 -19 90 -36l103 -25q48 -8 48 -48l-2 -16q0 -19 -177 -166zM680 -182q0 -46 -33.5 -79.5t-85.5 -33.5q-51 0 -85 33.5t-34 79.5t34.5 80t84.5 34t84.5 -34t34.5 -80z" />
    <glyph glyph-name="uniFCCF" unicode="&#xfee3;&#xfea4;" horiz-adv-x="1205" arabic-form="initial" 
d="M913 647q27 -18 43 -11q39 17 36 61q-6 40 -46 44q-20 -1 -40 -23q-14 -22 7 -71zM435 513q212 -2 320 26q57 17 58 20q-66 39 -71 117q-14 110 66 181q56 49 151 52q113 -8 183 -101q50 -127 -20 -227q-45 -57 -124 -101q-206 -115 -453 -142zM767 -85h-40
q-94 107 -159 107q-11 0 -20 -1q-46 -12 -90 -23q-47 -9 -185 -13h-261q-37 8 -57 34q-22 23 -22 57q0 35 27 62q29 27 69 27h473q-125 142 -200 163q-82 19 -120 24q-77 7 -92 26q-9 11 -9 31q17 99 89 170q31 22 60 22q23 0 42 -5q16 -5 38 -21q64 -62 67 -62h156
q20 0 37 -9q42 -29 42 -82q0 -49 -42 -80q-20 -9 5 -9q102 -110 130 -127q23 -19 90 -36l103 -25q48 -8 48 -48l-2 -16q0 -19 -177 -166z" />
    <glyph glyph-name="uniFCD0" unicode="&#xfee3;&#xfea8;" horiz-adv-x="1205" arabic-form="initial" 
d="M913 647q27 -18 43 -11q39 17 36 61q-6 40 -46 44q-20 -1 -40 -23q-14 -22 7 -71zM435 513q212 -2 320 26q57 17 58 20q-66 39 -71 117q-14 110 66 181q56 49 151 52q113 -8 183 -101q50 -127 -20 -227q-45 -57 -124 -101q-206 -115 -453 -142zM767 -85h-40
q-94 107 -159 107q-11 0 -20 -1q-46 -12 -90 -23q-47 -9 -185 -13h-261q-37 8 -57 34q-22 23 -22 57q0 35 27 62q29 27 69 27h473q-125 142 -200 163q-82 19 -120 24q-77 7 -92 26q-9 11 -9 31q17 99 89 170q31 22 60 22q23 0 42 -5q16 -5 38 -21q64 -62 67 -62h156
q20 0 37 -9q42 -29 42 -82q0 -49 -42 -80q-20 -9 5 -9q102 -110 130 -127q23 -19 90 -36l103 -25q48 -8 48 -48l-2 -16q0 -19 -177 -166zM345 805q0 -46 -33.5 -79.5t-85.5 -33.5q-51 0 -85 33.5t-34 79.5t34.5 80t84.5 34t84.5 -34t34.5 -80z" />
    <glyph glyph-name="uniFE9B_uniFEA4" unicode="&#xfe9b;&#xfea4;" horiz-adv-x="1048" 
d="M596 333h-68q-37 8 -57 34q-22 23 -22 57q0 35 27 62q29 27 69 27h50q186 20 206 139l2 16q0 112 -185 167l-7 23q45 158 83 158q36 0 103 -57q112 -112 112 -261q0 -67 -24 -142q-64 -179 -289 -223zM767 -85h-40q-94 107 -159 107q-11 0 -20 -1q-46 -12 -90 -23
q-47 -9 -185 -13h-261q-37 8 -57 34q-22 23 -22 57q0 35 27 62q29 27 69 27h473q-125 142 -200 163q-82 19 -120 24q-77 7 -92 26q-9 11 -9 31q17 99 89 170q31 22 60 22q23 0 42 -5q16 -5 38 -21q64 -62 67 -62h156q20 0 37 -9q42 -29 42 -82q0 -49 -42 -80q-20 -9 5 -9
q102 -110 130 -127q23 -19 90 -36l103 -25q48 -8 48 -48l-2 -16q0 -19 -177 -166zM694 1401q0 -46 -33.5 -79.5t-85.5 -33.5q-51 0 -85 33.5t-34 79.5t34.5 80t84.5 34t84.5 -34t34.5 -80zM890 1204q0 -46 -33.5 -79.5t-85.5 -33.5q-51 0 -85 33.5t-34 79.5t34.5 80t84.5 34
t84.5 -34t34.5 -80zM634 1124q0 -46 -33.5 -79.5t-85.5 -33.5q-51 0 -85 33.5t-34 79.5t34.5 80t84.5 34t84.5 -34t34.5 -80z" />
    <glyph glyph-name="uniFE9B_uniFEA8" unicode="&#xfe9b;&#xfea8;" horiz-adv-x="1048" 
d="M596 333h-68q-37 8 -57 34q-22 23 -22 57q0 35 27 62q29 27 69 27h50q186 20 206 139l2 16q0 112 -185 167l-7 23q45 158 83 158q36 0 103 -57q112 -112 112 -261q0 -67 -24 -142q-64 -179 -289 -223zM767 -85h-40q-94 107 -159 107q-11 0 -20 -1q-46 -12 -90 -23
q-47 -9 -185 -13h-261q-37 8 -57 34q-22 23 -22 57q0 35 27 62q29 27 69 27h473q-125 142 -200 163q-82 19 -120 24q-77 7 -92 26q-9 11 -9 31q17 99 89 170q31 22 60 22q23 0 42 -5q16 -5 38 -21q64 -62 67 -62h156q20 0 37 -9q42 -29 42 -82q0 -49 -42 -80q-20 -9 5 -9
q102 -110 130 -127q23 -19 90 -36l103 -25q48 -8 48 -48l-2 -16q0 -19 -177 -166zM694 1401q0 -46 -33.5 -79.5t-85.5 -33.5q-51 0 -85 33.5t-34 79.5t34.5 80t84.5 34t84.5 -34t34.5 -80zM890 1204q0 -46 -33.5 -79.5t-85.5 -33.5q-51 0 -85 33.5t-34 79.5t34.5 80t84.5 34
t84.5 -34t34.5 -80zM634 1124q0 -46 -33.5 -79.5t-85.5 -33.5q-51 0 -85 33.5t-34 79.5t34.5 80t84.5 34t84.5 -34t34.5 -80zM351 813q0 -46 -33.5 -79.5t-85.5 -33.5q-51 0 -85 33.5t-34 79.5t34.5 80t84.5 34t84.5 -34t34.5 -80z" />
    <glyph glyph-name="uniFCD2" unicode="&#xfee7;&#xfea0;" horiz-adv-x="1048" arabic-form="initial" 
d="M596 333h-68q-37 8 -57 34q-22 23 -22 57q0 35 27 62q29 27 69 27h50q186 20 206 139l2 16q0 112 -185 167l-7 23q45 158 83 158q36 0 103 -57q112 -112 112 -261q0 -67 -24 -142q-64 -179 -289 -223zM767 -85h-40q-94 107 -159 107q-11 0 -20 -1q-46 -12 -90 -23
q-47 -9 -185 -13h-261q-37 8 -57 34q-22 23 -22 57q0 35 27 62q29 27 69 27h473q-125 142 -200 163q-82 19 -120 24q-77 7 -92 26q-9 11 -9 31q17 99 89 170q31 22 60 22q23 0 42 -5q16 -5 38 -21q64 -62 67 -62h156q20 0 37 -9q42 -29 42 -82q0 -49 -42 -80q-20 -9 5 -9
q102 -110 130 -127q23 -19 90 -36l103 -25q48 -8 48 -48l-2 -16q0 -19 -177 -166zM767 1210q0 -46 -33.5 -79.5t-85.5 -33.5q-51 0 -85 33.5t-34 79.5t34.5 80t84.5 34t84.5 -34t34.5 -80zM657 -199q0 -46 -33.5 -79.5t-85.5 -33.5q-51 0 -85 33.5t-34 79.5t34.5 80t84.5 34
t84.5 -34t34.5 -80z" />
    <glyph glyph-name="uniFCD3" unicode="&#xfee7;&#xfea4;" horiz-adv-x="1048" arabic-form="initial" 
d="M596 333h-68q-37 8 -57 34q-22 23 -22 57q0 35 27 62q29 27 69 27h50q186 20 206 139l2 16q0 112 -185 167l-7 23q45 158 83 158q36 0 103 -57q112 -112 112 -261q0 -67 -24 -142q-64 -179 -289 -223zM767 -85h-40q-94 107 -159 107q-11 0 -20 -1q-46 -12 -90 -23
q-47 -9 -185 -13h-261q-37 8 -57 34q-22 23 -22 57q0 35 27 62q29 27 69 27h473q-125 142 -200 163q-82 19 -120 24q-77 7 -92 26q-9 11 -9 31q17 99 89 170q31 22 60 22q23 0 42 -5q16 -5 38 -21q64 -62 67 -62h156q20 0 37 -9q42 -29 42 -82q0 -49 -42 -80q-20 -9 5 -9
q102 -110 130 -127q23 -19 90 -36l103 -25q48 -8 48 -48l-2 -16q0 -19 -177 -166zM767 1210q0 -46 -33.5 -79.5t-85.5 -33.5q-51 0 -85 33.5t-34 79.5t34.5 80t84.5 34t84.5 -34t34.5 -80z" />
    <glyph glyph-name="uniFCD4" unicode="&#xfee7;&#xfea8;" horiz-adv-x="1048" arabic-form="initial" 
d="M596 333h-68q-37 8 -57 34q-22 23 -22 57q0 35 27 62q29 27 69 27h50q186 20 206 139l2 16q0 112 -185 167l-7 23q45 158 83 158q36 0 103 -57q112 -112 112 -261q0 -67 -24 -142q-64 -179 -289 -223zM767 -85h-40q-94 107 -159 107q-11 0 -20 -1q-46 -12 -90 -23
q-47 -9 -185 -13h-261q-37 8 -57 34q-22 23 -22 57q0 35 27 62q29 27 69 27h473q-125 142 -200 163q-82 19 -120 24q-77 7 -92 26q-9 11 -9 31q17 99 89 170q31 22 60 22q23 0 42 -5q16 -5 38 -21q64 -62 67 -62h156q20 0 37 -9q42 -29 42 -82q0 -49 -42 -80q-20 -9 5 -9
q102 -110 130 -127q23 -19 90 -36l103 -25q48 -8 48 -48l-2 -16q0 -19 -177 -166zM767 1210q0 -46 -33.5 -79.5t-85.5 -33.5q-51 0 -85 33.5t-34 79.5t34.5 80t84.5 34t84.5 -34t34.5 -80zM369 829q0 -46 -33.5 -79.5t-85.5 -33.5q-51 0 -85 33.5t-34 79.5t34.5 80t84.5 34
t84.5 -34t34.5 -80z" />
    <glyph glyph-name="uniFCD7" unicode="&#xfeeb;&#xfea0;" horiz-adv-x="1297" arabic-form="initial" 
d="M765 -85h-40q-94 107 -159 107q-11 0 -20 -1q-46 -12 -90 -23q-47 -9 -185 -13h-261q-37 8 -57 34q-22 23 -22 57q0 35 27 62q29 27 69 27h473q-125 142 -200 163q-82 19 -120 24q-77 7 -92 26q-9 11 -9 31q17 99 89 170q31 22 60 22q23 0 42 -5q16 -5 38 -21
q64 -62 67 -62h156q20 0 37 -9q42 -29 42 -82q0 -49 -42 -80q-20 -9 5 -9q102 -110 130 -127q23 -19 90 -36l103 -25q48 -8 48 -48l-2 -16q0 -19 -177 -166zM535 334q-50 0 -69 34q-16 27 -16 57q0 13 2 29q7 15 13 25q9 17 26 25q18 10 37 10q142 14 204 33q-13 5 -68 62
q-48 62 -48 125q0 29 11 57q30 91 131 168l8 8q8 5 44 29q-4 20 -4 41q0 93 127 285l67 -31q-14 -28 -19 -50q-9 -25 -19 -54q-11 -27 -11 -54q0 -82 163 -170q96 -53 143 -115q54 -71 54 -171q0 -152 -123 -293q-39 -40 -79 -40q-58 0 -154 81l-65 48l-32 -17l-103 -50
l-27 -13l-69 -28q-78 -31 -124 -31zM912 655q-5 -5 12 16q21 28 35 59q5 12 5 35q0 58 -61 96q-26 12 -56 12q-15 0 -28 -9q-18 -12 -32 -24q-14 -15 -25 -31v1q0 -7 -2 -9q0 1 0 -6q-2 -3 -2 -6q0 -29 29 -59q40 -45 125 -75zM1168 516q4 0 31 18q-20 -15 -20 -10
q12 21 12 42q0 84 -54 158q-39 41 -41 42q-13 -82 -76 -161q104 -89 148 -89zM655 -199q0 -46 -33.5 -79.5t-85.5 -33.5q-51 0 -85 33.5t-34 79.5t34.5 80t84.5 34t84.5 -34t34.5 -80z" />
    <glyph glyph-name="uniFCDA" unicode="&#xfef3;&#xfea0;" horiz-adv-x="1239" arabic-form="initial" 
d="M796 515q225 21 248 139q13 124 -186 183l-7 23q42 149 74 155q38 9 113 -54q163 -164 88 -403q-59 -163 -276 -212q-1 -1 -6 -3q-15 -8 -33 -8h-262q-6 -2 23 -2q102 -110 130 -127q23 -19 90 -36l103 -25q48 -8 48 -48l-2 -16q0 -19 -177 -166h-40q-94 107 -159 107
q-11 0 -20 -1q-46 -12 -90 -23q-47 -9 -185 -13h-261q-37 8 -57 34q-22 23 -22 57q0 35 27 62q29 27 69 27h473q-125 142 -200 163q-82 19 -120 24q-77 7 -92 26q-9 11 -9 31q17 99 89 170q31 22 60 22q23 0 42 -5q16 -5 38 -21q64 -62 67 -62h122q7 2 18 2h282zM654 -199
q0 -46 -33.5 -79.5t-85.5 -33.5q-51 0 -85 33.5t-34 79.5t34.5 80t84.5 34t84.5 -34t34.5 -80zM1122 240q0 -46 -33.5 -79.5t-85.5 -33.5q-51 0 -85 33.5t-34 79.5t34.5 80t84.5 34t84.5 -34t34.5 -80zM1341 321q0 -46 -33.5 -79.5t-85.5 -33.5q-51 0 -85 33.5t-34 79.5
t34.5 80t84.5 34t84.5 -34t34.5 -80z" />
    <glyph glyph-name="uniFCDB" unicode="&#xfef3;&#xfea4;" horiz-adv-x="1239" arabic-form="initial" 
d="M796 515q225 21 248 139q13 124 -186 183l-7 23q42 149 74 155q38 9 113 -54q163 -164 88 -403q-65 -180 -329 -223h-68q-37 8 -57 34q-22 23 -22 57q0 35 27 62q29 27 69 27h50zM811 515q22 0 37 -11q15 -10 24 -22q9 -14 14 -29q4 -16 4 -29q0 -14 -4 -30
q-5 -14 -14 -25q-9 -17 -28 -26q-15 -8 -33 -8h-297q-19 0 -34 8q-20 9 -27 26q-10 10 -15 25q-4 16 -4 30q0 13 4 28q3 15 14 31l21 21q19 11 41 11h297zM764 -85h-40q-94 107 -159 107q-11 0 -20 -1q-46 -12 -90 -23q-47 -9 -185 -13h-261q-37 8 -57 34q-22 23 -22 57
q0 35 27 62q29 27 69 27h473q-125 142 -200 163q-82 19 -120 24q-77 7 -92 26q-9 11 -9 31q17 99 89 170q31 22 60 22q23 0 42 -5q16 -5 38 -21q64 -62 67 -62h156q20 0 37 -9q42 -29 42 -82q0 -49 -42 -80q-20 -9 5 -9q102 -110 130 -127q23 -19 90 -36l103 -25
q48 -8 48 -48l-2 -16q0 -19 -177 -166zM1122 240q0 -46 -33.5 -79.5t-85.5 -33.5q-51 0 -85 33.5t-34 79.5t34.5 80t84.5 34t84.5 -34t34.5 -80zM1341 341q0 -46 -33.5 -79.5t-85.5 -33.5q-51 0 -85 33.5t-34 79.5t34.5 80t84.5 34t84.5 -34t34.5 -80z" />
    <glyph glyph-name="uniFCDC" unicode="&#xfef3;&#xfea8;" horiz-adv-x="1239" arabic-form="initial" 
d="M796 515q225 21 248 139q13 124 -186 183l-7 23q42 149 74 155q38 9 113 -54q163 -164 88 -403q-65 -180 -329 -223h-68q-37 8 -57 34q-22 23 -22 57q0 35 27 62q29 27 69 27h50zM811 515q22 0 37 -11q15 -10 24 -22q9 -14 14 -29q4 -16 4 -29q0 -14 -4 -30
q-5 -14 -14 -25q-9 -17 -28 -26q-15 -8 -33 -8h-297q-19 0 -34 8q-20 9 -27 26q-10 10 -15 25q-4 16 -4 30q0 13 4 28q3 15 14 31l21 21q19 11 41 11h297zM764 -85h-40q-94 107 -159 107q-11 0 -20 -1q-46 -12 -90 -23q-47 -9 -185 -13h-261q-37 8 -57 34q-22 23 -22 57
q0 35 27 62q29 27 69 27h473q-125 142 -200 163q-82 19 -120 24q-77 7 -92 26q-9 11 -9 31q17 99 89 170q31 22 60 22q23 0 42 -5q16 -5 38 -21q64 -62 67 -62h156q20 0 37 -9q42 -29 42 -82q0 -49 -42 -80q-20 -9 5 -9q102 -110 130 -127q23 -19 90 -36l103 -25
q48 -8 48 -48l-2 -16q0 -19 -177 -166zM1122 240q0 -46 -33.5 -79.5t-85.5 -33.5q-51 0 -85 33.5t-34 79.5t34.5 80t84.5 34t84.5 -34t34.5 -80zM1341 341q0 -46 -33.5 -79.5t-85.5 -33.5q-51 0 -85 33.5t-34 79.5t34.5 80t84.5 34t84.5 -34t34.5 -80zM354 806
q0 -46 -33.5 -79.5t-85.5 -33.5q-51 0 -85 33.5t-34 79.5t34.5 80t84.5 34t84.5 -34t34.5 -80z" />
    <glyph glyph-name="uniFCFB" unicode="&#xfef4;&#xfe8a;" horiz-adv-x="1095" arabic-form="isolated" 
d="M325 267q105 -122 243 -109q58 -19 59 -135q46 -42 -153 -38h-8q-109 0 -211 120q-126 -106 -117 -252t95.5 -197.5t606.5 -16.5q269 0 287 -79v-12q-138 -156 -160 -163h-26q-94 72 -194 72h-229q-351 -26 -432.5 106t-83.5 332.5t265 375.5l23 11l25 -3zM1079 -15h-20
q-55 0 -96 20q-27 13 -63 53q-72 78 -95 101q-131 -174 -202 -176q-123 88 -80 31q-12 25 -12 56q0 30 10 56q-2 25 54.5 35.5t141.5 76.5q83 103 117 103q40 0 99 -80q78 -96 146 -96q32 0 46 -36q11 -29 11 -59q0 -31 -11 -55q-15 -30 -46 -30zM475 -234q-8 -17 -26 -24
q-71 -10 -178 -57q-25 -12 -39 9q-18 30 39 63q-58 38 -40 92q14 41 79 94q45 36 75 30q62 -15 44 -78q-6 -21 -29 -47t-45 10q-20 30 -25 25q-15 -15 19 -44q22 -18 57 -19q8 0 26.5 6.5t33.5 5.5q43 -2 21 -42zM1010 -142q0 -41 -33 -71t-82 -30q-48 0 -81.5 30t-33.5 71
t34 71.5t81 30.5t81 -30.5t34 -71.5zM773 -171q0 -41 -33 -71t-82 -30q-48 0 -81.5 30t-33.5 71t34 71.5t81 30.5t81 -30.5t34 -71.5z" />
    <glyph glyph-name="uniFCFC" unicode="&#xfef4;&#xfef0;" horiz-adv-x="1095" arabic-form="isolated" 
d="M325 267q105 -122 243 -109q58 -19 59 -135q46 -42 -153 -38h-8q-109 0 -211 120q-126 -106 -117 -252t95.5 -197.5t606.5 -16.5q269 0 287 -79v-12q-138 -156 -160 -163h-26q-94 72 -194 72h-229q-351 -26 -432.5 106t-83.5 332.5t265 375.5l23 11l25 -3zM1079 -15h-20
q-55 0 -96 20q-27 13 -63 53q-72 78 -95 101q-131 -174 -202 -176q-123 88 -80 31q-12 25 -12 56q0 30 10 56q-2 25 54.5 35.5t141.5 76.5q83 103 117 103q40 0 99 -80q78 -96 146 -96q32 0 46 -36q11 -29 11 -59q0 -31 -11 -55q-15 -30 -46 -30zM362 397q-10 -19 -30 -26
q-81 -10 -203 -61q-28 -13 -45 9q-20 33 45 68q-66 41 -45 98q15 43 89 101q51 38 86 30q71 -14 50 -82q-7 -23 -33 -50.5t-52 10.5q-22 32 -28 27q-17 -16 22 -47q25 -19 65 -20q9 0 30 7t39 6q48 -2 23 -45zM1010 -142q0 -41 -33 -71t-82 -30q-48 0 -81.5 30t-33.5 71
t34 71.5t81 30.5t81 -30.5t34 -71.5zM773 -171q0 -41 -33 -71t-82 -30q-48 0 -81.5 30t-33.5 71t34 71.5t81 30.5t81 -30.5t34 -71.5z" />
    <glyph glyph-name="uniFCFD" unicode="&#xfeb7;&#xfef0;" horiz-adv-x="1636" arabic-form="isolated" 
d="M325 268q47 -96 157 -100q73 -8 84 -97q-20 -86 -92 -86h-8q-108 0 -204 94q-66 -37 -85.5 -64.5t-11 -76.5t100 -95.5t602.5 -43.5h403q268 0 286 -79v-12q-138 -156 -160 -163h-26q-94 72 -185 72l-172 -12q-988 -66 -1014 337q0 154 266 328l13 8l26 3zM1373 -15
q-190 -4 -227 113q-43 -105 -176 -113q-138 -8 -249 142q-141 -142 -208 -142h-29q-42 0 -65 38q-14 25 -14 45q0 37 16 64q28 33 66 33q83 9 242 150l11 8h15l12 -4l6 -6q83 -116 181 -122q92 -8 179 179l13 17l4 4l9 6l18 4h13l11 -4l4 -2l10 -5l4 -7l4 -7l2 -7
q-21 -183 138 -209q71 3 101 89q12 63 -77 117q-10 85 34 190h35q116 -47 129 -237q0 -226 -141 -315q-36 -19 -71 -19zM809 382q-7 -145 158 -222q67 3 97 89q5 17 31 22l45 90q42 10 45 -42q0 -226 -141 -315q-36 -19 -71 -19q-189 -4 -241 144q-100 -138 -182 -141
q-60 0 -99 94l49 47q6 13 14 43q108 33 206 215l14 14l19 3l7 1l19 -1l19 -6zM1211 905q0 -46 -33.5 -79.5t-85.5 -33.5q-51 0 -85 33.5t-34 79.5t34.5 80t84.5 34t84.5 -34t34.5 -80zM1407 708q0 -46 -33.5 -79.5t-85.5 -33.5q-51 0 -85 33.5t-34 79.5t34.5 80t84.5 34
t84.5 -34t34.5 -80zM1151 628q0 -46 -33.5 -79.5t-85.5 -33.5q-51 0 -85 33.5t-34 79.5t34.5 80t84.5 34t84.5 -34t34.5 -80z" />
    <glyph glyph-name="uniFD19" unicode="&#xfeb7;&#xfef2;" horiz-adv-x="1636" arabic-form="final" 
d="M325 268q47 -96 157 -100q73 -8 84 -97q-20 -86 -92 -86h-8q-108 0 -204 94q-66 -37 -85.5 -64.5t-11 -76.5t100 -95.5t602.5 -43.5h403q268 0 286 -79v-12q-138 -156 -160 -163h-26q-94 72 -185 72l-172 -12q-988 -66 -1014 337q0 154 266 328l13 8l26 3zM1373 -15
q-190 -4 -227 113q-43 -105 -176 -113q-138 -8 -249 142q-141 -142 -208 -142h-29q-42 0 -65 38q-14 25 -14 45q0 37 16 64q28 33 66 33q83 9 242 150l11 8h15l12 -4l6 -6q83 -116 181 -122q92 -8 179 179l13 17l4 4l9 6l18 4h13l11 -4l4 -2l10 -5l4 -7l4 -7l2 -7
q-21 -183 138 -209q71 3 101 89q12 63 -77 117q-10 85 34 190h35q116 -47 129 -237q0 -226 -141 -315q-36 -19 -71 -19zM809 382q-7 -145 158 -222q67 3 97 89q5 17 31 22l45 90q42 10 45 -42q0 -226 -141 -315q-36 -19 -71 -19q-189 -4 -241 144q-100 -138 -182 -141
q-60 0 -99 94l49 47q6 13 14 43q108 33 206 215l14 14l19 3l7 1l19 -1l19 -6zM1211 905q0 -46 -33.5 -79.5t-85.5 -33.5q-51 0 -85 33.5t-34 79.5t34.5 80t84.5 34t84.5 -34t34.5 -80zM1407 708q0 -46 -33.5 -79.5t-85.5 -33.5q-51 0 -85 33.5t-34 79.5t34.5 80t84.5 34
t84.5 -34t34.5 -80zM1151 628q0 -46 -33.5 -79.5t-85.5 -33.5q-51 0 -85 33.5t-34 79.5t34.5 80t84.5 34t84.5 -34t34.5 -80z" />
    <glyph glyph-name="uniFD1D" unicode="&#xfed3;&#xfee8;&#xfee8;&#xfea0;&#xfef0;" horiz-adv-x="2865" arabic-form="final" 
d="M2503 790q39 5 73 34q-51 63 -96 63q-39 0 -58 -30l1 -8q8 -59 80 -59zM2284 514q297 0 375 115q2 12 2 25q0 28 -7 49q-53 -95 -194 -97q-114 5 -133 119v23q0 141 59 257q44 77 108 84h13q112 0 206 -140q58 -95 58 -228q-45 -387 -475 -387h-47q-7 0 -13 1h-1078
q2 -2 14 -2q102 -110 130 -127q23 -19 90 -36l103 -25q48 -8 48 -48l-2 -16q0 -19 -177 -166h-40q-94 107 -159 107q-11 0 -20 -1q-46 -12 -90 -23q-47 -9 -185 -13h-259q-41 -1 -72 0q-27 -1 -65 0h-8q-109 0 -211 120q-126 -106 -117 -252t95.5 -197.5t606.5 -16.5
q269 0 287 -79v-12q-138 -156 -160 -163h-26q-94 72 -194 72h-229q-351 -26 -432.5 106t-83.5 332.5t265 375.5l23 11l25 -3l10 -12q91 -106 202 -110q38 3 83 8h489q-125 142 -200 163q-82 19 -120 24q-77 7 -92 26q-9 11 -9 31q17 99 89 170q31 22 60 22q23 0 42 -5
q16 -5 38 -21q64 -62 67 -62h112q9 2 18 2h277v199q0 16 5 28q6 14 13 22q8 11 22 18q11 6 24 6q14 0 27 -7q11 -6 19 -16q8 -9 14 -24q3 -14 3 -27v-199h443v199q0 16 5 28q6 14 13 22q8 11 22 18q11 6 24 6q14 0 27 -7q11 -6 19 -16q8 -9 14 -24q3 -14 3 -27v-199h193
q7 0 13 -1zM2486 1187q-41 0 -68.5 27.5t-27.5 64.5t27.5 64.5t68.5 27.5t68.5 -27.5t27.5 -64.5t-27.5 -64.5t-68.5 -27.5zM1984 843q-39 0 -64 25.5t-25 58.5q0 34 25 59.5t64 25.5t64 -25.5t25 -59.5q0 -33 -25 -58.5t-64 -25.5zM1389 837q-39 0 -64 25.5t-25 58.5
q0 34 25 59.5t64 25.5t64 -25.5t25 -59.5q0 -33 -25 -58.5t-64 -25.5zM1059 -186q0 -46 -33.5 -79.5t-85.5 -33.5q-51 0 -85 33.5t-34 79.5t34.5 80t84.5 34t84.5 -34t34.5 -80z" />
    <glyph glyph-name="uniFD1E" unicode="&#xfee7;&#xfee8;&#xfea0;&#xfef0;" horiz-adv-x="2174" arabic-form="final" 
d="M1746 515q186 20 206 139l2 16q0 112 -185 167l-7 23q45 158 83 158q36 0 103 -57q112 -112 112 -261q0 -67 -24 -142q-64 -179 -289 -223h-589q2 -2 14 -2q102 -110 130 -127q23 -19 90 -36l103 -25q48 -8 48 -48l-2 -16q0 -19 -177 -166h-40q-94 107 -159 107
q-11 0 -20 -1q-46 -12 -90 -23q-47 -9 -185 -13h-259q-41 -1 -72 0q-27 -1 -65 0h-8q-109 0 -211 120q-126 -106 -117 -252t95.5 -197.5t606.5 -16.5q269 0 287 -79v-12q-138 -156 -160 -163h-26q-94 72 -194 72h-229q-351 -26 -432.5 106t-83.5 332.5t265 375.5l23 11
l25 -3l10 -12q91 -106 202 -110q38 3 83 8h489q-125 142 -200 163q-82 19 -120 24q-77 7 -92 26q-9 11 -9 31q17 99 89 170q31 22 60 22q23 0 42 -5q16 -5 38 -21q64 -62 67 -62h112q9 2 18 2h277v199q0 16 5 28q6 14 13 22q8 11 22 18q11 6 24 6q14 0 27 -7q11 -6 19 -16
q8 -9 14 -24q3 -14 3 -27v-199h238zM927 -290q-46 0 -76.5 30.5t-30.5 71.5t30.5 71.5t76.5 30.5t76.5 -30.5t30.5 -71.5t-30.5 -71.5t-76.5 -30.5zM1851 1164q-41 0 -68.5 27.5t-27.5 64.5t27.5 64.5t68.5 27.5t68.5 -27.5t27.5 -64.5t-27.5 -64.5t-68.5 -27.5zM1389 837
q-39 0 -64 25.5t-25 58.5q0 34 25 59.5t64 25.5t64 -25.5t25 -59.5q0 -33 -25 -58.5t-64 -25.5z" />
    <glyph glyph-name="uniFD3A_uniFD3A" unicode="&#xfd3a;&#xfd3a;" horiz-adv-x="1437" 
d="M1088 180q133 0 164 99l1 10q0 125 -67 173q-56 -102 -178 -221q16 -54 80 -61zM1140 669q66 126 91 269q3 19 3 36q0 99 -81 121q-32 9 -92 9l-19 10l-63 161q0 44 86 44q56 0 99 -26q40 -25 71 -64q29 -37 50 -82q19 -44 36 -83q17 -58 17 -124q0 -144 -92 -369
q129 -116 134 -284q2 -25 2 -47q0 -61 -16 -111q-27 -78 -98 -124q-53 -20 -86 -20q-178 0 -248 182q-180 -184 -380 -184q-363 5 -497 425l57 28l30 -61q129 -220 344 -220q202 0 349 141q141 136 239 266q-89 91 -178 149q-168 104 -296 104q-234 0 -235 -128q3 -21 7 -47
l-52 -28q-59 86 -59 186q29 212 266 212q316 0 611 -341zM1089 975q-7 -14 -22 -22q-58 -7 -144 -43q-25 -14 -37 8q-16 25 30 50q-46 30 -31 74q11 31 64 74q38 29 65 23q53 -11 38 -63q-5 -18 -26 -40.5t-41 10.5l-13 19q-11 -10 15 -31q16 -14 43 -14q5 0 20 5t29 4
q38 -2 19 -36z" />
    <glyph glyph-name="uniFD4F" unicode="&#xfed3;&#xfeb4;&#xfea4;" horiz-adv-x="2419" 
d="M764 -85h-40q-94 107 -159 107q-11 0 -20 -1q-46 -12 -90 -23q-47 -9 -185 -13h-261q-37 8 -57 34q-22 23 -22 57q0 35 27 62q29 27 69 27h473q-125 142 -200 163q-82 19 -120 24q-77 7 -92 26q-9 11 -9 31q17 99 89 170q31 22 60 22q23 0 42 -5q16 -5 38 -21
q64 -62 67 -62h156q20 0 37 -9q42 -29 42 -82q0 -49 -42 -80q-20 -9 5 -9q102 -110 130 -127q23 -19 90 -36l103 -25q48 -8 48 -48l-2 -16q0 -19 -177 -166zM750 522l8 -3q-185 -157 -215 -157h-27q-9 0 -16 4q-9 6 -14 15l-11 26q-2 15 -2 26v2q0 8 14 28q14 19 35 19
q80 11 243 155h-7q3 -4 7 -12zM749 704q136 -173 229.5 -173.5t194.5 183.5l13 17l4 4l9 6l18 4h13l11 -4l4 -2l10 -5l4 -7l4 -7l2 -7q-21 -183 138 -209q71 3 101 89q12 63 -77 117q-10 85 34 190h35q116 -47 129 -237q0 -226 -141 -315q-36 -19 -70 -19q-169 -8 -222 121
q-49 -113 -182 -121q-138 -8 -249 142l-22 -23zM841 729q-7 -145 158 -222q67 3 97 89q5 17 31 22l45 90q42 10 45 -42q0 -226 -141 -315q-36 -19 -71 -19q-189 -4 -241 144q-100 -138 -182 -141q-60 0 -99 94l49 47q6 13 14 43q108 33 206 215l14 14l19 3l7 1l19 -1l19 -6z
M2058 778q39 5 73 34q-51 63 -96 63q-39 0 -58 -30l1 -8q8 -59 80 -59zM1851 322h-47q-39 0 -61 31q-18 25 -18 60q0 27 19 57q21 32 60 32h35q297 0 375 115q2 12 2 25q0 46 -19 73h23q-47 -119 -205 -121q-114 5 -133 119v23q0 141 59 257q44 77 108 84h13q112 0 206 -140
q58 -95 58 -228q-45 -387 -475 -387zM2138 1275q0 -46 -33.5 -79.5t-85.5 -33.5q-51 0 -85 33.5t-34 79.5t34.5 80t84.5 34t84.5 -34t34.5 -80zM1546 653q23 21 38 21q20 0 31 -19q65 -146 176 -150q41 0 70 -27q25 -26 25 -63q0 -36 -28 -64q-26 -26 -67 -26q-48 0 -60 4
q-96 18 -187 125q10 21 -34 -1z" />
    <glyph glyph-name="uniFD5D" unicode="&#xfef3;&#xfea0;&#xfea4;" horiz-adv-x="1833" arabic-form="initial" 
d="M764 -85h-40q-94 107 -159 107q-11 0 -20 -1q-46 -12 -90 -23q-47 -9 -185 -13h-261q-37 8 -57 34q-22 23 -22 57q0 35 27 62q29 27 69 27h473q-125 142 -200 163q-82 19 -120 24q-77 7 -92 26q-9 11 -9 31q17 99 89 170q31 22 60 22q23 0 42 -5q16 -5 38 -21
q64 -62 67 -62h156q20 0 37 -9q42 -29 42 -82q0 -49 -42 -80q-20 -9 5 -9q102 -110 130 -127q23 -19 90 -36l103 -25q48 -8 48 -48l-2 -16q0 -19 -177 -166zM1307 863q225 21 248 139q13 124 -186 183l-7 23q42 149 74 155q38 9 113 -54q163 -164 88 -403
q-59 -163 -276 -212q-1 -1 -6 -3q-15 -8 -33 -8h-262q-6 -2 23 -2q102 -110 130 -127q23 -19 90 -36l103 -25q48 -8 48 -48l-2 -16q0 -19 -177 -166h-40q-94 107 -159 107q-11 0 -20 -1q-46 -12 -90 -23q-47 -9 -185 -13h-261q-37 8 -57 34q-22 23 -22 57q0 35 27 62
q29 27 69 27h473q-125 142 -200 163q-82 19 -120 24q-77 7 -92 26q-9 11 -9 31q17 99 89 170q31 22 60 22q23 0 42 -5q16 -5 38 -21q64 -62 67 -62h122q7 2 18 2h282zM1135 223q0 -46 -33.5 -79.5t-85.5 -33.5q-51 0 -85 33.5t-34 79.5t34.5 80t84.5 34t84.5 -34t34.5 -80z
M1603 592q0 -46 -33.5 -79.5t-85.5 -33.5q-51 0 -85 33.5t-34 79.5t34.5 80t84.5 34t84.5 -34t34.5 -80zM1823 719q0 -46 -33.5 -79.5t-85.5 -33.5q-51 0 -85 33.5t-34 79.5t34.5 80t84.5 34t84.5 -34t34.5 -80z" />
    <glyph glyph-name="uniFD83" unicode="&#xfedf;&#xfea0;&#xfea4;" horiz-adv-x="1540" arabic-form="initial" 
d="M764 -85h-40q-94 107 -159 107q-11 0 -20 -1q-46 -12 -90 -23q-47 -9 -185 -13h-261q-37 8 -57 34q-22 23 -22 57q0 35 27 62q29 27 69 27h473q-125 142 -200 163q-82 19 -120 24q-77 7 -92 26q-9 11 -9 31q17 99 89 170q31 22 60 22q23 0 42 -5q16 -5 38 -21
q64 -62 67 -62h156q20 0 37 -9q42 -29 42 -82q0 -49 -42 -80q-20 -9 5 -9q102 -110 130 -127q23 -19 90 -36l103 -25q48 -8 48 -48l-2 -16q0 -19 -177 -166zM1078 684q-59 0 -80 41q-20 34 -20 60q0 19 19 49q19 32 70 32q238 51 255 271q-10 208 -186 320l-6 19
q27 178 71 178q35 0 89 -60q144 -166 144 -387q0 -220 -86 -346q-88 -131 -195 -164q-42 -13 -75 -13zM1282 263h-40q-94 107 -159 107q-11 0 -20 -1q-46 -12 -90 -23q-47 -9 -185 -13h-261q-37 8 -57 34q-22 23 -22 57q0 35 27 62q29 27 69 27h473q-125 142 -200 163
q-82 19 -120 24q-77 7 -92 26q-9 11 -9 31q17 99 89 170q31 22 60 22q23 0 42 -5q16 -5 38 -21q64 -62 67 -62h156q20 0 37 -9q42 -29 42 -82q0 -49 -42 -80q-20 -9 5 -9q102 -110 130 -127q23 -19 90 -36l103 -25q48 -8 48 -48l-2 -16q0 -19 -177 -166zM1135 223
q0 -46 -33.5 -79.5t-85.5 -33.5q-51 0 -85 33.5t-34 79.5t34.5 80t84.5 34t84.5 -34t34.5 -80z" />
    <glyph glyph-name="uniFD84" unicode="&#xfedf;&#xfea4;&#xfe9e;" horiz-adv-x="1540" arabic-form="final" 
d="M1078 684q-59 0 -80 41q-20 34 -20 60q0 19 19 49q19 32 70 32q238 51 255 271q-10 208 -186 320l-6 19q27 178 71 178q35 0 89 -60q144 -166 144 -387q0 -220 -86 -346q-88 -131 -195 -164q-42 -13 -75 -13zM1282 263h-40q-94 107 -159 107q-11 0 -20 -1
q-46 -12 -90 -23q-47 -9 -185 -13h-261q-37 8 -57 34q-22 23 -22 57q0 35 27 62q29 27 69 27h473q-125 142 -200 163q-82 19 -120 24q-77 7 -92 26q-9 11 -9 31q17 99 89 170q31 22 60 22q23 0 42 -5q16 -5 38 -21q64 -62 67 -62h156q20 0 37 -9q42 -29 42 -82
q0 -49 -42 -80q-20 -9 5 -9q102 -110 130 -127q23 -19 90 -36l103 -25q48 -8 48 -48l-2 -16q0 -19 -177 -166zM757 -908q-388 0 -598 180q-157 156 -157 384q0 272 227 456q113 92 247 115q-114 84 -177 101q-81 19 -118 24q-76 7 -94 25q-9 12 -9 32q19 99 89 170
q34 22 60 22q23 0 42 -5q18 -5 38 -21q64 -62 69 -62h154q20 0 37 -9q42 -29 42 -82q0 -49 -43 -81l8 3q170 -98 269 -125q25 -5 55 -10q4 -1 7 -1q46 -14 46 -50q0 -22 -177 -183h-28q-104 60 -142 69q-13 2 -27 2q-34 0 -86 -13q-336 -91 -336 -377q0 -218 197 -345
q174 -123 530 -123q69 0 168 5v-62q-163 -39 -293 -39zM638 -406q0 -46 -33.5 -79.5t-85.5 -33.5q-51 0 -85 33.5t-34 79.5t34.5 80t84.5 34t84.5 -34t34.5 -80z" />
    <glyph glyph-name="uniFD85" unicode="&#xfedf;&#xfea4;&#xfea0;" horiz-adv-x="1540" arabic-form="final" 
d="M764 -85h-40q-94 107 -159 107q-11 0 -20 -1q-46 -12 -90 -23q-47 -9 -185 -13h-261q-37 8 -57 34q-22 23 -22 57q0 35 27 62q29 27 69 27h473q-125 142 -200 163q-82 19 -120 24q-77 7 -92 26q-9 11 -9 31q17 99 89 170q31 22 60 22q23 0 42 -5q16 -5 38 -21
q64 -62 67 -62h156q20 0 37 -9q42 -29 42 -82q0 -49 -42 -80q-20 -9 5 -9q102 -110 130 -127q23 -19 90 -36l103 -25q48 -8 48 -48l-2 -16q0 -19 -177 -166zM1078 684q-59 0 -80 41q-20 34 -20 60q0 19 19 49q19 32 70 32q238 51 255 271q-10 208 -186 320l-6 19
q27 178 71 178q35 0 89 -60q144 -166 144 -387q0 -220 -86 -346q-88 -131 -195 -164q-42 -13 -75 -13zM1282 263h-40q-94 107 -159 107q-11 0 -20 -1q-46 -12 -90 -23q-47 -9 -185 -13h-261q-37 8 -57 34q-22 23 -22 57q0 35 27 62q29 27 69 27h473q-125 142 -200 163
q-82 19 -120 24q-77 7 -92 26q-9 11 -9 31q17 99 89 170q31 22 60 22q23 0 42 -5q16 -5 38 -21q64 -62 67 -62h156q20 0 37 -9q42 -29 42 -82q0 -49 -42 -80q-20 -9 5 -9q102 -110 130 -127q23 -19 90 -36l103 -25q48 -8 48 -48l-2 -16q0 -19 -177 -166zM662 -187
q0 -46 -33.5 -79.5t-85.5 -33.5q-51 0 -85 33.5t-34 79.5t34.5 80t84.5 34t84.5 -34t34.5 -80z" />
    <glyph glyph-name="uniFD89" unicode="&#xfedf;&#xfee4;&#xfea4;&#xfea0;" horiz-adv-x="2225" arabic-form="initial" 
d="M764 -85h-40q-94 107 -159 107q-11 0 -20 -1q-46 -12 -90 -23q-47 -9 -185 -13h-261q-37 8 -57 34q-22 23 -22 57q0 35 27 62q29 27 69 27h473q-125 142 -200 163q-82 19 -120 24q-77 7 -92 26q-9 11 -9 31q17 99 89 170q31 22 60 22q23 0 42 -5q16 -5 38 -21
q64 -62 67 -62h156q20 0 37 -9q42 -29 42 -82q0 -49 -42 -80q-20 -9 5 -9q102 -110 130 -127q23 -19 90 -36l103 -25q48 -8 48 -48l-2 -16q0 -19 -177 -166zM1800 680q-59 0 -80 41q-20 34 -20 60q0 19 19 49q19 32 70 32q238 51 255 271q-10 208 -186 320l-6 19
q27 178 71 178q35 0 89 -60q144 -166 144 -387q0 -220 -86 -346q-88 -131 -195 -164q-42 -13 -75 -13zM1282 263h-40q-94 107 -159 107q-11 0 -20 -1q-46 -12 -90 -23q-47 -9 -185 -13h-261q-37 8 -57 34q-22 23 -22 57q0 35 27 62q29 27 69 27h473q-125 142 -200 163
q-82 19 -120 24q-77 7 -92 26q-9 11 -9 31q17 99 89 170q31 22 60 22q23 0 42 -5q16 -5 38 -21q64 -62 67 -62h156q20 0 37 -9q42 -29 42 -82q0 -49 -42 -80q-20 -9 5 -9q102 -110 130 -127q23 -19 90 -36l103 -25q48 -8 48 -48l-2 -16q0 -19 -177 -166zM1528 874
q-50 79 -85 79h-2q-30 0 -83 -50q58 -92 89 -92q35 0 81 63zM1763 681q-33 0 -58 12q-24 12 -42 31q-20 17 -35 39l-9 14q-102 -141 -172 -141h-6q-113 0 -181 177q-120 -132 -194 -132h-12q-32 0 -55 31q-16 24 -16 60q0 33 16 60q24 29 55 29h12q70 0 193 138
q131 136 203 138q65 -2 123 -84q8 -9 17 -20q19 -27 36 -51q26 -33 46 -67q40 -54 79 -54h12q35 0 55 -29q18 -27 18 -60q0 -37 -18 -60q-19 -31 -55 -31h-12zM1739 1710l-14 28l45 67h324l21 -18l-39 -77h-337zM548 -283q-49 0 -82 33t-33 77q0 45 33 77.5t82 32.5
q50 0 83 -32.5t33 -77.5q0 -44 -33 -77t-83 -33z" />
    <glyph glyph-name="uniFDB5" unicode="&#xfedf;&#xfe8c;&#xfee6;" horiz-adv-x="1797" arabic-form="initial" 
d="M938 -15q-10 -2 -25 -2q-69 0 -119 45q-59 -399 -445 -399h-5q-181 0 -285 183q-50 122 -50 250q0 281 256 610l70 -49q-191 -267 -191 -482q0 -102 41 -194q78 -123 209 -123h4q181 3 265 119q11 24 11 50q0 94 -142 207v24l123 148h32q96 -115 157 -170q40 -37 67 -37
h16q79 0 149 72q84 104 118 104q40 0 99 -80q78 -96 146 -96h3q78 0 136 116l-10 706q0 23 -103 109v13q48 163 69 185q11 17 26 20q13 8 33 8q87 -9 107 -211q2 -37 4 -69v-14q2 -29 2 -53v-660q-4 -72 -34 -125q-27 -56 -61 -94q-81 -111 -163 -111h-29q-55 0 -96 20
q-27 13 -63 53q-72 78 -95 101q-126 -166 -227 -174zM1357 -279q-10 -19 -30 -26q-81 -10 -203 -61q-28 -13 -45 9q-20 33 45 68q-66 41 -45 98q15 43 89 101q51 38 86 30q71 -14 50 -82q-7 -23 -33 -50.5t-52 10.5q-22 32 -28 27q-17 -16 22 -47q25 -19 65 -20q9 0 30 7
t39 6q48 -2 23 -45zM1464 -278q-44 0 -72.5 28.5t-28.5 67.5q0 38 28.5 67t72.5 29q43 0 72 -29t29 -67q0 -39 -29 -67.5t-72 -28.5zM979 -284q-44 0 -72.5 28.5t-28.5 67.5q0 38 28.5 67t72.5 29q43 0 72 -29t29 -67q0 -39 -29 -67.5t-72 -28.5z" />
    <glyph glyph-name="uniFDF2" unicode="&#xfedf;&#xfee0;&#xfeea;" horiz-adv-x="1542" arabic-form="isolated" 
d="M1303 1340h36q82 0 92 -339v-691q0 -127 -153 -292q-13 -11 -38 -33h-118q-44 32 -88 72l-57 91q-14 -48 -194 -148v-15h-151q-47 36 -103 102q-97 173 -78 170q-87 -157 -178 -157h-7q-90 0 -266 258q43 154 162 154q264 59 264 208q0 72 -87 161v14q51 151 97 158
q131 -74 131 -225q0 -139 -115 -297q127 -365 253 -365h22q95 0 174 125q0 146 -7 446l-95 102q52 220 108 220h28q100 0 100 -490v-252q0 -95 136 -151h9q64 0 117 124v689q0 52 -102 147q62 214 108 214zM214 378q95 -111 138 -111h8q26 15 43 57q-42 129 -42 143h19
q-166 -92 -166 -89z" />
    <glyph glyph-name="uniFDFB" unicode="&#xfe91;&#xfeb4;&#xfee2;" horiz-adv-x="2420" arabic-form="isolated" 
d="M-173 -1017l-11 42q302 81 302 250v14q-6 71 -56 324q-53 280 -53 403q0 82 19 145q19 62 98 149q81 76 111 103q127 110 181 110q35 0 65 -23q67 -45 116 -143q20 -34 37 -61q13 -28 28 -45q53 -84 90 -84q20 0 39 -13q36 -27 36 -76q0 -30 -15 -56q-19 -37 -60 -37
q-46 0 -97 45q-52 45 -68 79q4 24 -67 -46q-73 -74 -139 -74q-39 0 -80 36q-27 22 -44 53q-31 44 -31 93l-1 -12q-16 -14 -63 -70q-35 -53 -35 -132q0 -126 55 -375q31 -148 35 -276q-17 -197 -104 -262q-113 -54 -288 -61zM438 173q20 0 69 47v-1q-20 43 -68 80
q-11 5 -23 5q-25 0 -74 -47v2q28 -55 77 -81zM2318 325q-4 -83 -32 -136q-29 -55 -63 -92q-79 -112 -162 -112h-11q-61 0 -67 85q1 69 68 94q83 0 140 116v370q0 22 -106 107v14q47 163 68 185q9 14 25 21q15 6 33 6q89 -8 107 -208q1 -10 1 -20zM1001 175l8 -3
q-185 -157 -215 -157h-27q-9 0 -16 4q-9 6 -14 15l-11 26q-2 15 -2 26v2q0 8 14 28q14 19 35 19q80 11 243 155h-7q3 -4 7 -12zM1815 313q23 21 38 21q20 0 31 -19q65 -146 176 -150q41 0 70 -27q25 -26 25 -63q0 -36 -28 -64q-26 -26 -67 -26q-48 0 -60 4q-96 18 -187 125
q10 21 -34 -1zM1000 357q136 -173 229.5 -173.5t194.5 183.5l13 17l4 4l9 6l18 4h13l11 -4l4 -2l10 -5l4 -7l4 -7l2 -7q-21 -183 138 -209q71 3 101 89q12 63 -77 117q-10 85 34 190h35q116 -47 129 -237q0 -226 -141 -315q-36 -19 -70 -19q-169 -8 -222 121
q-49 -113 -182 -121q-138 -8 -249 142l-22 -23zM1092 382q-7 -145 158 -222q67 3 97 89q5 17 31 22l45 90q42 10 45 -42q0 -226 -141 -315q-36 -19 -71 -19q-189 -4 -241 144q-100 -138 -182 -141q-60 0 -99 94l49 47q6 13 14 43q108 33 206 215l14 14l19 3l7 1l19 -1l19 -6
zM2224 -199q0 -46 -33.5 -79.5t-85.5 -33.5q-51 0 -85 33.5t-34 79.5t34.5 80t84.5 34t84.5 -34t34.5 -80z" />
    <glyph glyph-name="uniFE76" unicode="&#xfe83;&#xfe8b;" horiz-adv-x="1031" arabic-form="isolated" 
d="M759 260h-1v724q-2 23 -96 108v13q47 162 67 185q11 16 27 21q13 6 32 6q78 -8 97 -210q0 -22 1 -42l-16 -679v-93q0 -68 61 -127v-23l-85 -159h-39l-128 111l80 145v20zM319 -15q-33 0 -60 33q-19 28 -19 58q0 47 41 78q16 11 36 11q169 32 216 126q2 3 2 6
q0 35 -99 117q0 17 34 191h36q119 -47 140 -227l2 -30q0 -156 -108 -257q-102 -106 -221 -106zM302 165q22 0 37 -11q15 -10 24 -22q9 -14 14 -29q4 -16 4 -29q0 -14 -4 -30q-5 -14 -14 -25q-9 -17 -28 -26q-15 -8 -33 -8h-297q-19 0 -34 8q-20 9 -27 26q-10 10 -15 25
q-4 16 -4 30q0 13 4 28q3 15 14 31l21 21q19 11 41 11h297zM889 1403q-10 -19 -30 -26q-81 -10 -203 -61q-28 -13 -45 9q-20 33 45 68q-66 41 -45 98q15 43 89 101q51 38 86 30q71 -14 50 -82q-7 -23 -33 -50.5t-52 10.5q-22 32 -28 27q-17 -16 22 -47q25 -19 65 -20
q9 0 30 7t39 6q48 -2 23 -45zM591 -290q-41 0 -68 27t-27 63q0 37 27 64t68 27t68 -27t27 -64q0 -36 -27 -63t-68 -27zM31 -302q-41 0 -68 27t-27 63q0 37 27 64t68 27t68 -27t27 -64q0 -36 -27 -63t-68 -27zM431 -123q41 -40 38.5 -107.5t-40.5 -106.5q-59 -48 -121 -47
q-73 2 -112.5 46t-39.5 101q0 82 44 121q41 36 99 45q84 7 132 -52z" />
    <glyph glyph-name="uniFE78" unicode="&#xfe8d;&#xfe8b;" horiz-adv-x="1031" arabic-form="isolated" 
d="M759 260h-1v724q-2 23 -96 108v13q47 162 67 185q11 16 27 21q13 6 32 6q78 -8 97 -210q0 -22 1 -42l-16 -679v-93q0 -68 61 -127v-23l-85 -159h-39l-128 111l80 145v20zM319 -15q-33 0 -60 33q-19 28 -19 58q0 47 41 78q16 11 36 11q169 32 216 126q2 3 2 6
q0 35 -99 117q0 17 34 191h36q119 -47 140 -227l2 -30q0 -156 -108 -257q-102 -106 -221 -106zM302 165q22 0 37 -11q15 -10 24 -22q9 -14 14 -29q4 -16 4 -29q0 -14 -4 -30q-5 -14 -14 -25q-9 -17 -28 -26q-15 -8 -33 -8h-297q-19 0 -34 8q-20 9 -27 26q-10 10 -15 25
q-4 16 -4 30q0 13 4 28q3 15 14 31l21 21q19 11 41 11h297zM432 -123q41 -40 38.5 -107.5t-40.5 -106.5q-59 -48 -121 -47q-73 2 -112.5 46t-39.5 101q0 82 44 121q41 36 99 45q84 7 132 -52zM592 -290q-41 0 -68 27t-27 63q0 37 27 64t68 27t68 -27t27 -64q0 -36 -27 -63
t-68 -27zM32 -302q-41 0 -68 27t-27 63q0 37 27 64t68 27t68 -27t27 -64q0 -36 -27 -63t-68 -27z" />
    <glyph glyph-name="uniFEF5" unicode="&#xfedf;&#xfe82;" horiz-adv-x="1429" arabic-form="isolated" 
d="M798 1394q-99 0 -102 62q0 9 4 24q2 15 11 29q7 12 18 21q12 17 36 17q16 0 33 -10q11 -7 22 -16q12 -8 22 -18q10 -13 9 -10h455l17 -18l-19 -70l-19 -11h-375q15 -27 15 -104l-55 -16q-34 107 -72 120zM1089 181q132 0 163 97v11q0 128 -48 203q-74 -132 -195 -250
q14 -55 80 -61zM115 437l29 -61q130 -222 344 -222q203 0 348 142q151 144 259 292q107 182 137 349q2 20 2 38q0 98 -80 121q-32 7 -93 7l-19 10l-62 163q0 44 85 44q58 0 99 -29q39 -24 70 -60q30 -39 51 -84q19 -43 37 -82q15 -58 15 -125q0 -143 -74 -332
q111 -153 117 -320q2 -26 2 -48q0 -62 -17 -112q-26 -77 -96 -123q-53 -20 -87 -20q-179 0 -247 183q-181 -185 -382 -185q-362 4 -496 424zM320 694q-57 83 -57 184q29 212 266 212q322 0 646 -381q46 -69 46 -103q0 -8 -4 -16q-20 -25 -45 -25q-21 0 -39 16
q-124 136 -234 211q-168 102 -296 102q-234 0 -236 -127q4 -23 7 -48z" />
    <glyph glyph-name="uniFEF6" unicode="&#xfee0;&#xfe82;" horiz-adv-x="1521" arabic-form="final" 
d="M1067 181q133 0 164 97l2 12q0 127 -50 202q-75 -132 -196 -249q17 -56 80 -62zM534 -17q-364 4 -497 424l56 31q138 -284 373 -284q203 0 349 142q153 144 258 292q109 182 137 349q2 20 2 38q0 98 -80 121q-32 7 -92 7l-19 10l-63 163q0 44 86 44q56 0 99 -29
q41 -24 70 -61q29 -38 51 -83q18 -43 37 -82q17 -58 17 -125q0 -143 -77 -332q118 -162 118 -325q14 -47 66 -93q37 -25 63 -25q40 0 59 -35q15 -25 15 -56q0 -32 -15 -55q-19 -34 -59 -34h-16q-52 0 -140 102q-17 26 -2 -4q-12 -32 -83 -78q-53 -20 -86 -20
q-177 0 -248 183q-181 -185 -379 -185zM1171 554q-22 0 -39 17q-124 138 -234 211q-168 102 -296 102q-234 0 -236 -127l7 -47l-54 -26q-57 83 -57 183q29 213 266 213q322 0 646 -381q46 -69 46 -101q0 -8 -3 -17q-21 -27 -46 -27zM797 1394q-99 0 -102 62q0 9 4 24
q2 15 11 29q7 12 18 21q12 17 36 17q16 0 33 -10q11 -7 22 -16q12 -8 22 -18q10 -13 9 -10h455l17 -18l-19 -70l-19 -11h-375q15 -27 15 -104l-55 -16q-34 107 -72 120z" />
    <glyph glyph-name="uniFEF7" unicode="&#xfedf;&#xfe84;" horiz-adv-x="1438" arabic-form="isolated" 
d="M1089 181q132 0 163 97v11q0 128 -48 203q-74 -132 -195 -250q14 -55 80 -61zM115 437l29 -61q130 -222 344 -222q203 0 348 142q151 144 259 292q107 182 137 349q2 20 2 38q0 98 -80 121q-32 7 -93 7l-19 10l-62 163q0 44 85 44q58 0 99 -29q39 -24 70 -60
q30 -39 51 -84q19 -43 37 -82q15 -58 15 -125q0 -143 -74 -332q111 -153 117 -320q2 -26 2 -48q0 -62 -17 -112q-26 -77 -96 -123q-53 -20 -87 -20q-179 0 -247 183q-181 -185 -382 -185q-362 4 -496 424zM320 694q-57 83 -57 184q29 212 266 212q322 0 646 -381
q46 -69 46 -103q0 -8 -4 -16q-20 -25 -45 -25q-21 0 -39 16q-124 136 -234 211q-168 102 -296 102q-234 0 -236 -127q4 -23 7 -48zM1189 1454q-10 -19 -30 -26q-81 -10 -203 -61q-28 -13 -45 9q-20 33 45 68q-66 41 -45 98q15 43 89 101q51 38 86 30q71 -14 50 -82
q-7 -23 -33 -50.5t-52 10.5q-22 32 -28 27q-17 -16 22 -47q25 -19 65 -20q9 0 30 7t39 6q48 -2 23 -45z" />
    <glyph glyph-name="uniFEF8" unicode="&#xfee0;&#xfe84;" horiz-adv-x="1521" arabic-form="final" 
d="M1067 181q133 0 164 97l2 12q0 127 -50 202q-75 -132 -196 -249q17 -56 80 -62zM534 -17q-364 4 -497 424l56 31q138 -284 373 -284q203 0 349 142q153 144 258 292q109 182 137 349q2 20 2 38q0 98 -80 121q-32 7 -92 7l-19 10l-63 163q0 44 86 44q56 0 99 -29
q41 -24 70 -61q29 -38 51 -83q18 -43 37 -82q17 -58 17 -125q0 -143 -77 -332q118 -162 118 -325q14 -47 66 -93q37 -25 63 -25q40 0 59 -35q15 -25 15 -56q0 -32 -15 -55q-19 -34 -59 -34h-16q-52 0 -140 102q-17 26 -2 -4q-12 -32 -83 -78q-53 -20 -86 -20
q-177 0 -248 183q-181 -185 -379 -185zM1171 554q-22 0 -39 17q-124 138 -234 211q-168 102 -296 102q-234 0 -236 -127l7 -47l-54 -26q-57 83 -57 183q29 213 266 213q322 0 646 -381q46 -69 46 -101q0 -8 -3 -17q-21 -27 -46 -27zM1188 1454q-10 -19 -30 -26
q-81 -10 -203 -61q-28 -13 -45 9q-20 33 45 68q-66 41 -45 98q15 43 89 101q51 38 86 30q71 -14 50 -82q-7 -23 -33 -50.5t-52 10.5q-22 32 -28 27q-17 -16 22 -47q25 -19 65 -20q9 0 30 7t39 6q48 -2 23 -45z" />
    <glyph glyph-name="uniFEF9" unicode="&#xfedf;&#xfe88;" horiz-adv-x="1412" arabic-form="isolated" 
d="M1072 181q132 0 165 97v11q0 128 -49 203q-74 -132 -197 -250q16 -55 81 -61zM98 438l29 -62q129 -222 346 -222q201 0 348 142q151 144 258 292q107 182 135 350q5 19 5 37q0 98 -81 121q-34 7 -95 7l-17 11l-63 162q0 44 85 44q56 0 101 -29q39 -24 70 -61
q29 -38 51 -83q18 -43 35 -82q17 -58 17 -125q0 -143 -75 -332q112 -153 118 -321v-47q0 -61 -15 -112q-28 -77 -98 -123q-55 -20 -85 -20q-179 0 -250 183q-178 -185 -379 -185q-362 4 -495 424zM306 693q-58 84 -58 185q28 212 266 212q322 0 643 -381q46 -69 46 -103
q0 -8 -4 -15q-15 -26 -44 -26q-24 0 -38 17q-123 135 -236 210q-168 102 -296 102q-234 0 -234 -128q2 -21 8 -46zM805 -233q-10 -19 -30 -26q-81 -10 -203 -61q-28 -13 -45 9q-20 33 45 68q-66 41 -45 98q15 43 89 101q51 38 86 30q71 -14 50 -82q-7 -23 -33 -50.5
t-52 10.5q-22 32 -28 27q-17 -16 22 -47q25 -19 65 -20q9 0 30 7t39 6q48 -2 23 -45z" />
    <glyph glyph-name="uniFEFA" unicode="&#xfee0;&#xfe88;" horiz-adv-x="1521" arabic-form="final" 
d="M1067 181q133 0 164 97l2 12q0 127 -50 202q-75 -132 -196 -249q17 -56 80 -62zM534 -17q-364 4 -497 424l56 31q138 -284 373 -284q203 0 349 142q153 144 258 292q109 182 137 349q2 20 2 38q0 98 -80 121q-32 7 -92 7l-19 10l-63 163q0 44 86 44q56 0 99 -29
q41 -24 70 -61q29 -38 51 -83q18 -43 37 -82q17 -58 17 -125q0 -143 -77 -332q118 -162 118 -325q14 -47 66 -93q37 -25 63 -25q40 0 59 -35q15 -25 15 -56q0 -32 -15 -55q-19 -34 -59 -34h-16q-52 0 -140 102q-17 26 -2 -4q-12 -32 -83 -78q-53 -20 -86 -20
q-177 0 -248 183q-181 -185 -379 -185zM1171 554q-22 0 -39 17q-124 138 -234 211q-168 102 -296 102q-234 0 -236 -127l7 -47l-54 -26q-57 83 -57 183q29 213 266 213q322 0 646 -381q46 -69 46 -101q0 -8 -3 -17q-21 -27 -46 -27zM805 -233q-10 -19 -30 -26
q-81 -10 -203 -61q-28 -13 -45 9q-20 33 45 68q-66 41 -45 98q15 43 89 101q51 38 86 30q71 -14 50 -82q-7 -23 -33 -50.5t-52 10.5q-22 32 -28 27q-17 -16 22 -47q25 -19 65 -20q9 0 30 7t39 6q48 -2 23 -45z" />
    <glyph glyph-name="uniFEFB" unicode="&#xfedf;&#xfe8e;" horiz-adv-x="1429" arabic-form="isolated" 
d="M1089 181q132 0 163 97v11q0 128 -48 203q-74 -132 -195 -250q14 -55 80 -61zM1168 729q42 88 64 208q2 20 2 38q0 98 -80 121q-32 7 -93 7l-19 10l-62 163q0 44 85 44q58 0 99 -29q39 -24 70 -60q30 -39 51 -84q19 -43 37 -82q15 -58 15 -125q0 -143 -74 -332
q111 -153 117 -320q2 -26 2 -48q0 -62 -17 -112q-26 -77 -96 -123q-53 -20 -87 -20q-179 0 -247 183q-181 -185 -382 -185q-362 4 -496 424l58 30l29 -61q130 -222 344 -222q203 0 348 142q151 144 259 292l12 21q-107 114 -208 183q-168 102 -296 102q-234 0 -236 -127
q4 -23 7 -48l-54 -25q-57 83 -57 184q29 212 266 212q322 0 646 -381q7 -9 -7 20z" />
    <glyph glyph-name="uniFEFC" unicode="&#xfee0;&#xfe8e;" horiz-adv-x="1521" arabic-form="final" 
d="M1067 181q133 0 164 97l2 12q0 127 -50 202q-75 -132 -196 -249q17 -56 80 -62zM534 -17q-364 4 -497 424l56 31q138 -284 373 -284q203 0 349 142q153 144 258 292q109 182 137 349q2 20 2 38q0 98 -80 121q-32 7 -92 7l-19 10l-63 163q0 44 86 44q56 0 99 -29
q41 -24 70 -61q29 -38 51 -83q18 -43 37 -82q17 -58 17 -125q0 -143 -77 -332q118 -162 118 -325q14 -47 66 -93q37 -25 63 -25q40 0 59 -35q15 -25 15 -56q0 -32 -15 -55q-19 -34 -59 -34h-16q-52 0 -140 102q-17 26 -2 -4q-12 -32 -83 -78q-53 -20 -86 -20
q-177 0 -248 183q-181 -185 -379 -185zM1171 554q-22 0 -39 17q-124 138 -234 211q-168 102 -296 102q-234 0 -236 -127l7 -47l-54 -26q-57 83 -57 183q29 213 266 213q322 0 646 -381q46 -69 46 -101q0 -8 -3 -17q-21 -27 -46 -27z" />
    <glyph glyph-name="uni0661_uni0660" unicode="&#x661;&#x660;" 
d="M480 -300q-81 22 -150.5 74t-122.5 122q-79 104 -120.5 262.5t-44.5 262.5q-5 136 29 293.5t107 266.5q62 95 162 169t206 83q3 12 21.5 37t49.5 38q12 7 35.5 11.5t24.5 3.5q-2 35 35.5 66.5t83.5 31.5q45 0 82.5 -31.5t35.5 -66.5q1 1 24 -3.5t37 -11.5
q32 -13 50 -38.5t21 -36.5q105 -9 205 -83t163 -169q72 -109 106 -266.5t31 -293.5q-4 -105 -46 -263t-120 -262q-52 -70 -122.5 -122t-151.5 -74q-52 -56 -140 -94q-90 -40 -175 -39q-85 -1 -175 39q-88 37 -141 94zM751 1308q0 -24 13 -49t13 -74q-87 85 -126 68
q-25 -11 -28 -20q30 -2 83.5 -23t83.5 -70q25 -38 25 -88q-1 -56 -38 -104.5t-109 -48.5q-46 0 -80.5 26.5t-35.5 74.5q-2 53 22 70q-31 9 -73 -16q-5 0 27 -23q55 -40 43 -125q-84 -9 -154.5 -35t-128.5 -69q-66 -49 -107.5 -129.5t-50.5 -175.5q-8 -95 18.5 -181.5
t84.5 -147.5q65 -65 147 -103q84 -39 192 -50q5 -67 -23 -106q-35 -44 -43 -44q38 -24 65 -16l-12 32q-15 34 0 69q28 71 110 71q84 0 126 -72q22 -40 18 -87t-26 -83q-32 -58 -106 -80q-62 -17 -78 -16q11 -9 73 -30q64 -22 120 -22q55 0 120 22q63 22 72 30q-16 -1 -76 16
q-75 22 -108 80q-22 36 -26 83t18 87q42 72 126 72q82 0 110 -71q15 -36 0 -69q-10 -32 -11 -32q27 -8 65 16q-9 0 -43 44q-28 39 -23 106q108 11 191 50q84 37 148 103q57 61 84 147.5t18 181.5q-8 95 -49.5 175.5t-107.5 129.5q-58 43 -129 69t-154 35q-12 85 43 125
q31 23 27 23q-43 25 -74 16q24 -18 23 -70q-2 -48 -36.5 -74.5t-79.5 -26.5q-72 0 -109.5 48.5t-37.5 104.5q0 50 25 88q30 49 83 70t83 23q-3 9 -27 20q-39 17 -126 -68q0 48 12.5 73t12.5 50q0 26 -15 38.5t-29 12.5q-15 0 -30 -12.5t-15 -38.5zM871 -192q41 -63 141 -61
q78 2 144.5 37t119.5 91q78 79 126 193t37 45q44 111 -1.5 48.5t-102.5 -102.5q-55 -37 -122 -64t-120 -34q2 -28 42 -36q35 -7 76 15t59 1q-14 -33 -40 -56.5t-44 -35.5q-60 -39 -126.5 -51t-118.5 12q-46 19 -46 88q48 -21 63 -5q16 16 5 38q-9 17 -20.5 21.5t-20.5 4.5
q-39 0 -61 -38q-31 -52 10 -111zM1012 1172q-96 2 -141 -61q-21 -29 -21.5 -58.5t11.5 -50.5q21 -37 62 -37q22 0 38 21t-3 43q-8 9 -19 8.5t-44 -12.5q0 63 46 86q53 23 119 11.5t126 -51.5q18 -12 44 -36t72 -127q-87 74 -122 83t-59 -2t-27 -31q54 -7 124 -36t126 -69
q56 -39 98.5 -101.5t-2.5 57.5q13 -88 -28.5 20.5t-108.5 187.5q-57 66 -131 109.5t-160 45.5zM721 -191q40 58 9 110q-21 38 -61 38q-8 0 -20 -4.5t-21 -21.5q-10 -21 6 -37q16 -17 64 5q-2 -70 -47 -89q-53 -24 -119.5 -12t-126.5 51q-18 12 -43.5 35.5t-21.5 77.5
q10 -2 45.5 -23t70.5 -14q40 8 43 36q-54 7 -120.5 34t-122.5 64q-57 40 -102 102.5t-4 -41.5q-9 62 39.5 -52t126.5 -193q53 -56 119.5 -91t143.5 -37q99 -2 142 62zM579 1172q-86 -2 -160 -45.5t-130 -109.5q-67 -79 -109 -187.5t-29 -20.5q-45 -120 -2.5 -57.5
t99.5 101.5q55 40 125 69t125 36q-3 20 -28 31q-23 11 -58.5 2t-123.5 -87q48 107 73.5 131t43.5 36q60 40 126.5 51.5t119.5 -11.5q45 -23 47 -94q-37 22 -47 21t-17 -9q-19 -22 -3.5 -43t38.5 -21q41 0 61 37q13 21 12 50.5t-21 58.5q-45 63 -142 61zM544 160
q-28 0 -41 15.5t-13 29.5q0 9 5 18.5t15 16t27 10.5t19 4q0 16 1 46.5t1 63.5q0 41 -1.5 85t-2.5 55l-11 -9q-16 -11 -36 -11t-36 12.5t-16 33.5q0 15 11.5 32t37.5 24q6 4 13 10.5t12 15.5t9.5 20.5t8.5 27.5q4 11 9 24t13.5 23.5t21 18t30.5 7.5q28 0 41 -18t13 -41
q0 -19 -5 -40t-14 -30q-2 -21 -2 -47.5v-54.5q0 -63 1.5 -129t3.5 -117q-9 0 2.5 -1t25 -5.5t22.5 -15t9 -27.5q0 -15 -12 -29.5t-37 -17.5l-125 30v-30zM962 144q-50 0 -83.5 28.5t-51 67t-25.5 83t-8 82.5q0 47 11 97.5t34 92.5t64.5 70t101.5 28q48 0 81 -26.5
t51.5 -63.5t26.5 -79t8 -80q0 -51 -13 -104t-39 -96t-65.5 -71.5t-92.5 -28.5zM893 386q0 -18 4.5 -43.5t15 -47.5t24.5 -35t33 -13t36 16t31 45t21 67.5t7 74.5q0 17 -3.5 42t-12 48t-21 36t-27.5 13q-29 0 -48.5 -19t-33.5 -49.5t-20 -67.5t-6 -67z" />
    <glyph glyph-name="uni0661_uni0661.1" unicode="&#x661;&#x661;" 
d="M480 -300q-81 22 -150.5 74t-122.5 122q-79 104 -120.5 262.5t-44.5 262.5q-5 136 29 293.5t107 266.5q62 95 162 169t206 83q3 12 21.5 37t49.5 38q12 7 35.5 11.5t24.5 3.5q-2 35 35.5 66.5t83.5 31.5q45 0 82.5 -31.5t35.5 -66.5q1 1 24 -3.5t37 -11.5
q32 -13 50 -38.5t21 -36.5q105 -9 205 -83t163 -169q72 -109 106 -266.5t31 -293.5q-4 -105 -46 -263t-120 -262q-52 -70 -122.5 -122t-151.5 -74q-52 -56 -140 -94q-90 -40 -175 -39q-85 -1 -175 39q-88 37 -141 94zM751 1308q0 -24 13 -49t13 -74q-87 85 -126 68
q-25 -11 -28 -20q30 -2 83.5 -23t83.5 -70q25 -38 25 -88q-1 -56 -38 -104.5t-109 -48.5q-46 0 -80.5 26.5t-35.5 74.5q-2 53 22 70q-31 9 -73 -16q-5 0 27 -23q55 -40 43 -125q-84 -9 -154.5 -35t-128.5 -69q-66 -49 -107.5 -129.5t-50.5 -175.5q-8 -95 18.5 -181.5
t84.5 -147.5q65 -65 147 -103q84 -39 192 -50q5 -67 -23 -106q-35 -44 -43 -44q38 -24 65 -16l-12 32q-15 34 0 69q28 71 110 71q84 0 126 -72q22 -40 18 -87t-26 -83q-32 -58 -106 -80q-62 -17 -78 -16q11 -9 73 -30q64 -22 120 -22q55 0 120 22q63 22 72 30q-16 -1 -76 16
q-75 22 -108 80q-22 36 -26 83t18 87q42 72 126 72q82 0 110 -71q15 -36 0 -69q-10 -32 -11 -32q27 -8 65 16q-9 0 -43 44q-28 39 -23 106q108 11 191 50q84 37 148 103q57 61 84 147.5t18 181.5q-8 95 -49.5 175.5t-107.5 129.5q-58 43 -129 69t-154 35q-12 85 43 125
q31 23 27 23q-43 25 -74 16q24 -18 23 -70q-2 -48 -36.5 -74.5t-79.5 -26.5q-72 0 -109.5 48.5t-37.5 104.5q0 50 25 88q30 49 83 70t83 23q-3 9 -27 20q-39 17 -126 -68q0 48 12.5 73t12.5 50q0 26 -15 38.5t-29 12.5q-15 0 -30 -12.5t-15 -38.5zM871 -192q41 -63 141 -61
q78 2 144.5 37t119.5 91q78 79 126 193t37 45q44 111 -1.5 48.5t-102.5 -102.5q-55 -37 -122 -64t-120 -34q2 -28 42 -36q35 -7 76 15t59 1q-14 -33 -40 -56.5t-44 -35.5q-60 -39 -126.5 -51t-118.5 12q-46 19 -46 88q48 -21 63 -5q16 16 5 38q-9 17 -20.5 21.5t-20.5 4.5
q-39 0 -61 -38q-31 -52 10 -111zM1012 1172q-96 2 -141 -61q-21 -29 -21.5 -58.5t11.5 -50.5q21 -37 62 -37q22 0 38 21t-3 43q-8 9 -19 8.5t-44 -12.5q0 63 46 86q53 23 119 11.5t126 -51.5q18 -12 44 -36t72 -127q-87 74 -122 83t-59 -2t-27 -31q54 -7 124 -36t126 -69
q56 -39 98.5 -101.5t-2.5 57.5q13 -88 -28.5 20.5t-108.5 187.5q-57 66 -131 109.5t-160 45.5zM721 -191q40 58 9 110q-21 38 -61 38q-8 0 -20 -4.5t-21 -21.5q-10 -21 6 -37q16 -17 64 5q-2 -70 -47 -89q-53 -24 -119.5 -12t-126.5 51q-18 12 -43.5 35.5t-21.5 77.5
q10 -2 45.5 -23t70.5 -14q40 8 43 36q-54 7 -120.5 34t-122.5 64q-57 40 -102 102.5t-4 -41.5q-9 62 39.5 -52t126.5 -193q53 -56 119.5 -91t143.5 -37q99 -2 142 62zM579 1172q-86 -2 -160 -45.5t-130 -109.5q-67 -79 -109 -187.5t-29 -20.5q-45 -120 -2.5 -57.5
t99.5 101.5q55 40 125 69t125 36q-3 20 -28 31q-23 11 -58.5 2t-123.5 -87q48 107 73.5 131t43.5 36q60 40 126.5 51.5t119.5 -11.5q45 -23 47 -94q-37 22 -47 21t-17 -9q-19 -22 -3.5 -43t38.5 -21q41 0 61 37q13 21 12 50.5t-21 58.5q-45 63 -142 61zM600 155
q-28 0 -41 15.5t-13 29.5q0 9 5 18.5t15 16t27 10.5t19 4q0 16 1 46.5t1 63.5q0 41 -1.5 85t-2.5 55l-11 -9q-16 -11 -36 -11t-36 12.5t-16 33.5q0 15 11.5 32t37.5 24q6 4 13 10.5t12 15.5t9.5 20.5t8.5 27.5q4 11 9 24t13.5 23.5t21 18t30.5 7.5q28 0 41 -18t13 -41
q0 -19 -5 -40t-14 -30q-2 -21 -2 -47.5v-54.5q0 -63 1.5 -129t3.5 -117q-9 0 2.5 -1t25 -5.5t22.5 -15t9 -27.5q0 -15 -12 -29.5t-37 -17.5l-125 30v-30zM897 154q-28 0 -41 15.5t-13 29.5q0 9 5 18.5t15 16t27 10.5t19 4q0 16 1 46.5t1 63.5q0 41 -1.5 85t-2.5 55l-11 -9
q-16 -11 -36 -11t-36 12.5t-16 33.5q0 15 11.5 32t37.5 24q6 4 13 10.5t12 15.5t9.5 20.5t8.5 27.5q4 11 9 24t13.5 23.5t21 18t30.5 7.5q28 0 41 -18t13 -41q0 -19 -5 -40t-14 -30q-2 -21 -2 -47.5v-54.5q0 -63 1.5 -129t3.5 -117q-9 0 2.5 -1t25 -5.5t22.5 -15t9 -27.5
q0 -15 -12 -29.5t-37 -17.5l-125 30v-30z" />
    <glyph glyph-name="uni0661_uni0662" unicode="&#x661;&#x662;" 
d="M480 -300q-81 22 -150.5 74t-122.5 122q-79 104 -120.5 262.5t-44.5 262.5q-5 136 29 293.5t107 266.5q62 95 162 169t206 83q3 12 21.5 37t49.5 38q12 7 35.5 11.5t24.5 3.5q-2 35 35.5 66.5t83.5 31.5q45 0 82.5 -31.5t35.5 -66.5q1 1 24 -3.5t37 -11.5
q32 -13 50 -38.5t21 -36.5q105 -9 205 -83t163 -169q72 -109 106 -266.5t31 -293.5q-4 -105 -46 -263t-120 -262q-52 -70 -122.5 -122t-151.5 -74q-52 -56 -140 -94q-90 -40 -175 -39q-85 -1 -175 39q-88 37 -141 94zM751 1308q0 -24 13 -49t13 -74q-87 85 -126 68
q-25 -11 -28 -20q30 -2 83.5 -23t83.5 -70q25 -38 25 -88q-1 -56 -38 -104.5t-109 -48.5q-46 0 -80.5 26.5t-35.5 74.5q-2 53 22 70q-31 9 -73 -16q-5 0 27 -23q55 -40 43 -125q-84 -9 -154.5 -35t-128.5 -69q-66 -49 -107.5 -129.5t-50.5 -175.5q-8 -95 18.5 -181.5
t84.5 -147.5q65 -65 147 -103q84 -39 192 -50q5 -67 -23 -106q-35 -44 -43 -44q38 -24 65 -16l-12 32q-15 34 0 69q28 71 110 71q84 0 126 -72q22 -40 18 -87t-26 -83q-32 -58 -106 -80q-62 -17 -78 -16q11 -9 73 -30q64 -22 120 -22q55 0 120 22q63 22 72 30q-16 -1 -76 16
q-75 22 -108 80q-22 36 -26 83t18 87q42 72 126 72q82 0 110 -71q15 -36 0 -69q-10 -32 -11 -32q27 -8 65 16q-9 0 -43 44q-28 39 -23 106q108 11 191 50q84 37 148 103q57 61 84 147.5t18 181.5q-8 95 -49.5 175.5t-107.5 129.5q-58 43 -129 69t-154 35q-12 85 43 125
q31 23 27 23q-43 25 -74 16q24 -18 23 -70q-2 -48 -36.5 -74.5t-79.5 -26.5q-72 0 -109.5 48.5t-37.5 104.5q0 50 25 88q30 49 83 70t83 23q-3 9 -27 20q-39 17 -126 -68q0 48 12.5 73t12.5 50q0 26 -15 38.5t-29 12.5q-15 0 -30 -12.5t-15 -38.5zM871 -192q41 -63 141 -61
q78 2 144.5 37t119.5 91q78 79 126 193t37 45q44 111 -1.5 48.5t-102.5 -102.5q-55 -37 -122 -64t-120 -34q2 -28 42 -36q35 -7 76 15t59 1q-14 -33 -40 -56.5t-44 -35.5q-60 -39 -126.5 -51t-118.5 12q-46 19 -46 88q48 -21 63 -5q16 16 5 38q-9 17 -20.5 21.5t-20.5 4.5
q-39 0 -61 -38q-31 -52 10 -111zM1012 1172q-96 2 -141 -61q-21 -29 -21.5 -58.5t11.5 -50.5q21 -37 62 -37q22 0 38 21t-3 43q-8 9 -19 8.5t-44 -12.5q0 63 46 86q53 23 119 11.5t126 -51.5q18 -12 44 -36t72 -127q-87 74 -122 83t-59 -2t-27 -31q54 -7 124 -36t126 -69
q56 -39 98.5 -101.5t-2.5 57.5q13 -88 -28.5 20.5t-108.5 187.5q-57 66 -131 109.5t-160 45.5zM721 -191q40 58 9 110q-21 38 -61 38q-8 0 -20 -4.5t-21 -21.5q-10 -21 6 -37q16 -17 64 5q-2 -70 -47 -89q-53 -24 -119.5 -12t-126.5 51q-18 12 -43.5 35.5t-21.5 77.5
q10 -2 45.5 -23t70.5 -14q40 8 43 36q-54 7 -120.5 34t-122.5 64q-57 40 -102 102.5t-4 -41.5q-9 62 39.5 -52t126.5 -193q53 -56 119.5 -91t143.5 -37q99 -2 142 62zM579 1172q-86 -2 -160 -45.5t-130 -109.5q-67 -79 -109 -187.5t-29 -20.5q-45 -120 -2.5 -57.5
t99.5 101.5q55 40 125 69t125 36q-3 20 -28 31q-23 11 -58.5 2t-123.5 -87q48 107 73.5 131t43.5 36q60 40 126.5 51.5t119.5 -11.5q45 -23 47 -94q-37 22 -47 21t-17 -9q-19 -22 -3.5 -43t38.5 -21q41 0 61 37q13 21 12 50.5t-21 58.5q-45 63 -142 61zM551 161
q-28 0 -41 15.5t-13 29.5q0 9 5 18.5t15 16t27 10.5t19 4q0 16 1 46.5t1 63.5q0 41 -1.5 85t-2.5 55l-11 -9q-16 -11 -36 -11t-36 12.5t-16 33.5q0 15 11.5 32t37.5 24q6 4 13 10.5t12 15.5t9.5 20.5t8.5 27.5q4 11 9 24t13.5 23.5t21 18t30.5 7.5q28 0 41 -18t13 -41
q0 -19 -5 -40t-14 -30q-2 -21 -2 -47.5v-54.5q0 -63 1.5 -129t3.5 -117q-9 0 2.5 -1t25 -5.5t22.5 -15t9 -27.5q0 -15 -12 -29.5t-37 -17.5l-125 30v-30zM1032 707h8q72 0 120 -53q27 -36 27 -83q0 -106 -161 -263q-29 -30 -29 -11q25 0 112 -44q23 -11 27 -11q-1 0 5 33
q18 23 56 23h3q45 0 55 -31v-4q-5 -37 -37 -71q-35 -26 -79 -26q-55 0 -140 46q-21 10 -32 10q-21 0 -36 -51q-14 -32 -59 -32h-4q-45 0 -56 41v7q0 58 143 185q38 38 56 66q59 73 59 130q0 44 -28 63q-6 3 -11 3h-3q-25 0 -49 -32q-22 -30 -22 -77v-9q0 -31 -57 -37h-10
q-50 5 -50 34v7q0 98 86 155q52 32 106 32z" />
    <glyph glyph-name="uni0661_uni0663" unicode="&#x661;&#x663;" 
d="M480 -300q-81 22 -150.5 74t-122.5 122q-79 104 -120.5 262.5t-44.5 262.5q-5 136 29 293.5t107 266.5q62 95 162 169t206 83q3 12 21.5 37t49.5 38q12 7 35.5 11.5t24.5 3.5q-2 35 35.5 66.5t83.5 31.5q45 0 82.5 -31.5t35.5 -66.5q1 1 24 -3.5t37 -11.5
q32 -13 50 -38.5t21 -36.5q105 -9 205 -83t163 -169q72 -109 106 -266.5t31 -293.5q-4 -105 -46 -263t-120 -262q-52 -70 -122.5 -122t-151.5 -74q-52 -56 -140 -94q-90 -40 -175 -39q-85 -1 -175 39q-88 37 -141 94zM751 1308q0 -24 13 -49t13 -74q-87 85 -126 68
q-25 -11 -28 -20q30 -2 83.5 -23t83.5 -70q25 -38 25 -88q-1 -56 -38 -104.5t-109 -48.5q-46 0 -80.5 26.5t-35.5 74.5q-2 53 22 70q-31 9 -73 -16q-5 0 27 -23q55 -40 43 -125q-84 -9 -154.5 -35t-128.5 -69q-66 -49 -107.5 -129.5t-50.5 -175.5q-8 -95 18.5 -181.5
t84.5 -147.5q65 -65 147 -103q84 -39 192 -50q5 -67 -23 -106q-35 -44 -43 -44q38 -24 65 -16l-12 32q-15 34 0 69q28 71 110 71q84 0 126 -72q22 -40 18 -87t-26 -83q-32 -58 -106 -80q-62 -17 -78 -16q11 -9 73 -30q64 -22 120 -22q55 0 120 22q63 22 72 30q-16 -1 -76 16
q-75 22 -108 80q-22 36 -26 83t18 87q42 72 126 72q82 0 110 -71q15 -36 0 -69q-10 -32 -11 -32q27 -8 65 16q-9 0 -43 44q-28 39 -23 106q108 11 191 50q84 37 148 103q57 61 84 147.5t18 181.5q-8 95 -49.5 175.5t-107.5 129.5q-58 43 -129 69t-154 35q-12 85 43 125
q31 23 27 23q-43 25 -74 16q24 -18 23 -70q-2 -48 -36.5 -74.5t-79.5 -26.5q-72 0 -109.5 48.5t-37.5 104.5q0 50 25 88q30 49 83 70t83 23q-3 9 -27 20q-39 17 -126 -68q0 48 12.5 73t12.5 50q0 26 -15 38.5t-29 12.5q-15 0 -30 -12.5t-15 -38.5zM871 -192q41 -63 141 -61
q78 2 144.5 37t119.5 91q78 79 126 193t37 45q44 111 -1.5 48.5t-102.5 -102.5q-55 -37 -122 -64t-120 -34q2 -28 42 -36q35 -7 76 15t59 1q-14 -33 -40 -56.5t-44 -35.5q-60 -39 -126.5 -51t-118.5 12q-46 19 -46 88q48 -21 63 -5q16 16 5 38q-9 17 -20.5 21.5t-20.5 4.5
q-39 0 -61 -38q-31 -52 10 -111zM1012 1172q-96 2 -141 -61q-21 -29 -21.5 -58.5t11.5 -50.5q21 -37 62 -37q22 0 38 21t-3 43q-8 9 -19 8.5t-44 -12.5q0 63 46 86q53 23 119 11.5t126 -51.5q18 -12 44 -36t72 -127q-87 74 -122 83t-59 -2t-27 -31q54 -7 124 -36t126 -69
q56 -39 98.5 -101.5t-2.5 57.5q13 -88 -28.5 20.5t-108.5 187.5q-57 66 -131 109.5t-160 45.5zM721 -191q40 58 9 110q-21 38 -61 38q-8 0 -20 -4.5t-21 -21.5q-10 -21 6 -37q16 -17 64 5q-2 -70 -47 -89q-53 -24 -119.5 -12t-126.5 51q-18 12 -43.5 35.5t-21.5 77.5
q10 -2 45.5 -23t70.5 -14q40 8 43 36q-54 7 -120.5 34t-122.5 64q-57 40 -102 102.5t-4 -41.5q-9 62 39.5 -52t126.5 -193q53 -56 119.5 -91t143.5 -37q99 -2 142 62zM579 1172q-86 -2 -160 -45.5t-130 -109.5q-67 -79 -109 -187.5t-29 -20.5q-45 -120 -2.5 -57.5
t99.5 101.5q55 40 125 69t125 36q-3 20 -28 31q-23 11 -58.5 2t-123.5 -87q48 107 73.5 131t43.5 36q60 40 126.5 51.5t119.5 -11.5q45 -23 47 -94q-37 22 -47 21t-17 -9q-19 -22 -3.5 -43t38.5 -21q41 0 61 37q13 21 12 50.5t-21 58.5q-45 63 -142 61zM549 143
q-28 0 -41 15.5t-13 29.5q0 9 5 18.5t15 16t27 10.5t19 4q0 16 1 46.5t1 63.5q0 41 -1.5 85t-2.5 55l-11 -9q-16 -11 -36 -11t-36 12.5t-16 33.5q0 15 11.5 32t37.5 24q6 4 13 10.5t12 15.5t9.5 20.5t8.5 27.5q4 11 9 24t13.5 23.5t21 18t30.5 7.5q28 0 41 -18t13 -41
q0 -19 -5 -40t-14 -30q-2 -21 -2 -47.5v-54.5q0 -63 1.5 -129t3.5 -117q-9 0 2.5 -1t25 -5.5t22.5 -15t9 -27.5q0 -15 -12 -29.5t-37 -17.5l-125 30v-30zM961 151q-30 0 -60.5 8.5t-53.5 25.5t-39.5 42.5t-23.5 59.5q0 21 17.5 31t35.5 10q11 0 25.5 -5.5t19.5 -19.5
q5 -16 11.5 -27t17 -19t21.5 -13.5t23 -5.5q21 0 36 5.5t24.5 14.5t13.5 21t4 28q0 19 -7.5 40t-20.5 37.5t-30.5 28t-52.5 17.5v72q31 0 44 7.5t24 19.5t16.5 26.5t5.5 28.5q0 21 -12.5 30.5t-29.5 9.5q-11 0 -21.5 -3.5t-19 -10.5t-16 -24t-7.5 -42q0 -22 -11.5 -31.5
t-28.5 -9.5q-21 0 -36.5 20t-15.5 44q0 33 12.5 60t35 46.5t51 30t59.5 10.5q36 0 62.5 -12t44 -30.5t26 -40.5t8.5 -45q0 -37 -19 -73t-36 -44q23 -11 48.5 -59.5t25.5 -97.5q0 -31 -10.5 -59.5t-31 -50.5t-53 -36.5t-76.5 -14.5z" />
    <glyph glyph-name="uni0661_uni0664" unicode="&#x661;&#x664;" 
d="M480 -300q-81 22 -150.5 74t-122.5 122q-79 104 -120.5 262.5t-44.5 262.5q-5 136 29 293.5t107 266.5q62 95 162 169t206 83q3 12 21.5 37t49.5 38q12 7 35.5 11.5t24.5 3.5q-2 35 35.5 66.5t83.5 31.5q45 0 82.5 -31.5t35.5 -66.5q1 1 24 -3.5t37 -11.5
q32 -13 50 -38.5t21 -36.5q105 -9 205 -83t163 -169q72 -109 106 -266.5t31 -293.5q-4 -105 -46 -263t-120 -262q-52 -70 -122.5 -122t-151.5 -74q-52 -56 -140 -94q-90 -40 -175 -39q-85 -1 -175 39q-88 37 -141 94zM751 1308q0 -24 13 -49t13 -74q-87 85 -126 68
q-25 -11 -28 -20q30 -2 83.5 -23t83.5 -70q25 -38 25 -88q-1 -56 -38 -104.5t-109 -48.5q-46 0 -80.5 26.5t-35.5 74.5q-2 53 22 70q-31 9 -73 -16q-5 0 27 -23q55 -40 43 -125q-84 -9 -154.5 -35t-128.5 -69q-66 -49 -107.5 -129.5t-50.5 -175.5q-8 -95 18.5 -181.5
t84.5 -147.5q65 -65 147 -103q84 -39 192 -50q5 -67 -23 -106q-35 -44 -43 -44q38 -24 65 -16l-12 32q-15 34 0 69q28 71 110 71q84 0 126 -72q22 -40 18 -87t-26 -83q-32 -58 -106 -80q-62 -17 -78 -16q11 -9 73 -30q64 -22 120 -22q55 0 120 22q63 22 72 30q-16 -1 -76 16
q-75 22 -108 80q-22 36 -26 83t18 87q42 72 126 72q82 0 110 -71q15 -36 0 -69q-10 -32 -11 -32q27 -8 65 16q-9 0 -43 44q-28 39 -23 106q108 11 191 50q84 37 148 103q57 61 84 147.5t18 181.5q-8 95 -49.5 175.5t-107.5 129.5q-58 43 -129 69t-154 35q-12 85 43 125
q31 23 27 23q-43 25 -74 16q24 -18 23 -70q-2 -48 -36.5 -74.5t-79.5 -26.5q-72 0 -109.5 48.5t-37.5 104.5q0 50 25 88q30 49 83 70t83 23q-3 9 -27 20q-39 17 -126 -68q0 48 12.5 73t12.5 50q0 26 -15 38.5t-29 12.5q-15 0 -30 -12.5t-15 -38.5zM871 -192q41 -63 141 -61
q78 2 144.5 37t119.5 91q78 79 126 193t37 45q44 111 -1.5 48.5t-102.5 -102.5q-55 -37 -122 -64t-120 -34q2 -28 42 -36q35 -7 76 15t59 1q-14 -33 -40 -56.5t-44 -35.5q-60 -39 -126.5 -51t-118.5 12q-46 19 -46 88q48 -21 63 -5q16 16 5 38q-9 17 -20.5 21.5t-20.5 4.5
q-39 0 -61 -38q-31 -52 10 -111zM1012 1172q-96 2 -141 -61q-21 -29 -21.5 -58.5t11.5 -50.5q21 -37 62 -37q22 0 38 21t-3 43q-8 9 -19 8.5t-44 -12.5q0 63 46 86q53 23 119 11.5t126 -51.5q18 -12 44 -36t72 -127q-87 74 -122 83t-59 -2t-27 -31q54 -7 124 -36t126 -69
q56 -39 98.5 -101.5t-2.5 57.5q13 -88 -28.5 20.5t-108.5 187.5q-57 66 -131 109.5t-160 45.5zM721 -191q40 58 9 110q-21 38 -61 38q-8 0 -20 -4.5t-21 -21.5q-10 -21 6 -37q16 -17 64 5q-2 -70 -47 -89q-53 -24 -119.5 -12t-126.5 51q-18 12 -43.5 35.5t-21.5 77.5
q10 -2 45.5 -23t70.5 -14q40 8 43 36q-54 7 -120.5 34t-122.5 64q-57 40 -102 102.5t-4 -41.5q-9 62 39.5 -52t126.5 -193q53 -56 119.5 -91t143.5 -37q99 -2 142 62zM579 1172q-86 -2 -160 -45.5t-130 -109.5q-67 -79 -109 -187.5t-29 -20.5q-45 -120 -2.5 -57.5
t99.5 101.5q55 40 125 69t125 36q-3 20 -28 31q-23 11 -58.5 2t-123.5 -87q48 107 73.5 131t43.5 36q60 40 126.5 51.5t119.5 -11.5q45 -23 47 -94q-37 22 -47 21t-17 -9q-19 -22 -3.5 -43t38.5 -21q41 0 61 37q13 21 12 50.5t-21 58.5q-45 63 -142 61zM553 149
q-28 0 -41 15.5t-13 29.5q0 9 5 18.5t15 16t27 10.5t19 4q0 16 1 46.5t1 63.5q0 41 -1.5 85t-2.5 55l-11 -9q-16 -11 -36 -11t-36 12.5t-16 33.5q0 15 11.5 32t37.5 24q6 4 13 10.5t12 15.5t9.5 20.5t8.5 27.5q4 11 9 24t13.5 23.5t21 18t30.5 7.5q28 0 41 -18t13 -41
q0 -19 -5 -40t-14 -30q-2 -21 -2 -47.5v-54.5q0 -63 1.5 -129t3.5 -117q-9 0 2.5 -1t25 -5.5t22.5 -15t9 -27.5q0 -15 -12 -29.5t-37 -17.5l-125 30v-30zM987 720h3q41 0 57 -36q6 -16 6 -49v-5q0 -111 -81 -200v20q-8 -1 0 -1h2q62 0 82 -5v-19q10 143 20 143q6 9 26 9h1
q34 0 59 -41q1 -8 3 -16l-8 -107q33 -13 43 -27t10 -29q-7 -43 -51 -13v-30q-13 0 -12 -1q-8 -122 -9 -137q-13 -22 -38 -22q-32 0 -58 41q-3 12 -3 16l10 138q-20 4 -62 4q-69 0 -151 -21l-6 -4q-45 0 -68 39q-4 9 -4 17v1q0 23 40 42q30 14 69 49q73 75 73 158v10
q0 6 -2 35q0 26 29 37q7 4 20 4z" />
    <glyph glyph-name="uni0661_uni0665" unicode="&#x661;&#x665;" 
d="M480 -300q-81 22 -150.5 74t-122.5 122q-79 104 -120.5 262.5t-44.5 262.5q-5 136 29 293.5t107 266.5q62 95 162 169t206 83q3 12 21.5 37t49.5 38q12 7 35.5 11.5t24.5 3.5q-2 35 35.5 66.5t83.5 31.5q45 0 82.5 -31.5t35.5 -66.5q1 1 24 -3.5t37 -11.5
q32 -13 50 -38.5t21 -36.5q105 -9 205 -83t163 -169q72 -109 106 -266.5t31 -293.5q-4 -105 -46 -263t-120 -262q-52 -70 -122.5 -122t-151.5 -74q-52 -56 -140 -94q-90 -40 -175 -39q-85 -1 -175 39q-88 37 -141 94zM751 1308q0 -24 13 -49t13 -74q-87 85 -126 68
q-25 -11 -28 -20q30 -2 83.5 -23t83.5 -70q25 -38 25 -88q-1 -56 -38 -104.5t-109 -48.5q-46 0 -80.5 26.5t-35.5 74.5q-2 53 22 70q-31 9 -73 -16q-5 0 27 -23q55 -40 43 -125q-84 -9 -154.5 -35t-128.5 -69q-66 -49 -107.5 -129.5t-50.5 -175.5q-8 -95 18.5 -181.5
t84.5 -147.5q65 -65 147 -103q84 -39 192 -50q5 -67 -23 -106q-35 -44 -43 -44q38 -24 65 -16l-12 32q-15 34 0 69q28 71 110 71q84 0 126 -72q22 -40 18 -87t-26 -83q-32 -58 -106 -80q-62 -17 -78 -16q11 -9 73 -30q64 -22 120 -22q55 0 120 22q63 22 72 30q-16 -1 -76 16
q-75 22 -108 80q-22 36 -26 83t18 87q42 72 126 72q82 0 110 -71q15 -36 0 -69q-10 -32 -11 -32q27 -8 65 16q-9 0 -43 44q-28 39 -23 106q108 11 191 50q84 37 148 103q57 61 84 147.5t18 181.5q-8 95 -49.5 175.5t-107.5 129.5q-58 43 -129 69t-154 35q-12 85 43 125
q31 23 27 23q-43 25 -74 16q24 -18 23 -70q-2 -48 -36.5 -74.5t-79.5 -26.5q-72 0 -109.5 48.5t-37.5 104.5q0 50 25 88q30 49 83 70t83 23q-3 9 -27 20q-39 17 -126 -68q0 48 12.5 73t12.5 50q0 26 -15 38.5t-29 12.5q-15 0 -30 -12.5t-15 -38.5zM871 -192q41 -63 141 -61
q78 2 144.5 37t119.5 91q78 79 126 193t37 45q44 111 -1.5 48.5t-102.5 -102.5q-55 -37 -122 -64t-120 -34q2 -28 42 -36q35 -7 76 15t59 1q-14 -33 -40 -56.5t-44 -35.5q-60 -39 -126.5 -51t-118.5 12q-46 19 -46 88q48 -21 63 -5q16 16 5 38q-9 17 -20.5 21.5t-20.5 4.5
q-39 0 -61 -38q-31 -52 10 -111zM1012 1172q-96 2 -141 -61q-21 -29 -21.5 -58.5t11.5 -50.5q21 -37 62 -37q22 0 38 21t-3 43q-8 9 -19 8.5t-44 -12.5q0 63 46 86q53 23 119 11.5t126 -51.5q18 -12 44 -36t72 -127q-87 74 -122 83t-59 -2t-27 -31q54 -7 124 -36t126 -69
q56 -39 98.5 -101.5t-2.5 57.5q13 -88 -28.5 20.5t-108.5 187.5q-57 66 -131 109.5t-160 45.5zM721 -191q40 58 9 110q-21 38 -61 38q-8 0 -20 -4.5t-21 -21.5q-10 -21 6 -37q16 -17 64 5q-2 -70 -47 -89q-53 -24 -119.5 -12t-126.5 51q-18 12 -43.5 35.5t-21.5 77.5
q10 -2 45.5 -23t70.5 -14q40 8 43 36q-54 7 -120.5 34t-122.5 64q-57 40 -102 102.5t-4 -41.5q-9 62 39.5 -52t126.5 -193q53 -56 119.5 -91t143.5 -37q99 -2 142 62zM579 1172q-86 -2 -160 -45.5t-130 -109.5q-67 -79 -109 -187.5t-29 -20.5q-45 -120 -2.5 -57.5
t99.5 101.5q55 40 125 69t125 36q-3 20 -28 31q-23 11 -58.5 2t-123.5 -87q48 107 73.5 131t43.5 36q60 40 126.5 51.5t119.5 -11.5q45 -23 47 -94q-37 22 -47 21t-17 -9q-19 -22 -3.5 -43t38.5 -21q41 0 61 37q13 21 12 50.5t-21 58.5q-45 63 -142 61zM572 149
q-28 0 -41 15.5t-13 29.5q0 9 5 18.5t15 16t27 10.5t19 4q0 16 1 46.5t1 63.5q0 41 -1.5 85t-2.5 55l-11 -9q-16 -11 -36 -11t-36 12.5t-16 33.5q0 15 11.5 32t37.5 24q6 4 13 10.5t12 15.5t9.5 20.5t8.5 27.5q4 11 9 24t13.5 23.5t21 18t30.5 7.5q28 0 41 -18t13 -41
q0 -19 -5 -40t-14 -30q-2 -21 -2 -47.5v-54.5q0 -63 1.5 -129t3.5 -117q-9 0 2.5 -1t25 -5.5t22.5 -15t9 -27.5q0 -15 -12 -29.5t-37 -17.5l-125 30v-30zM1119 752h4q38 0 59 -32v-7v-1q0 -26 -74 -59q-40 -14 -78 -14q-30 0 -42 3q0 6 -27 -76q-4 -10 -4 6q-12 -1 -7 -1h3
q95 0 164 -76q36 -49 36 -106q0 -75 -54 -142q-56 -60 -143 -60q-96 0 -133 80q-5 11 -5 21q0 34 51 45h15q32 0 44 -30q13 -34 29 -34q25 0 62 57q19 36 19 60q0 40 -39 80q-26 20 -49 20q-24 0 -45 -30q-18 -20 -51 -20q-45 0 -56 35v5q0 10 26 47q15 29 31 74
q13 41 25 111q0 17 21 32q15 11 38 11v0q24 0 53 -18q26 -9 43 -9q27 0 52 20q17 8 32 8z" />
    <glyph glyph-name="uni0661_uni0666" unicode="&#x661;&#x666;" 
d="M480 -300q-81 22 -150.5 74t-122.5 122q-79 104 -120.5 262.5t-44.5 262.5q-5 136 29 293.5t107 266.5q62 95 162 169t206 83q3 12 21.5 37t49.5 38q12 7 35.5 11.5t24.5 3.5q-2 35 35.5 66.5t83.5 31.5q45 0 82.5 -31.5t35.5 -66.5q1 1 24 -3.5t37 -11.5
q32 -13 50 -38.5t21 -36.5q105 -9 205 -83t163 -169q72 -109 106 -266.5t31 -293.5q-4 -105 -46 -263t-120 -262q-52 -70 -122.5 -122t-151.5 -74q-52 -56 -140 -94q-90 -40 -175 -39q-85 -1 -175 39q-88 37 -141 94zM751 1308q0 -24 13 -49t13 -74q-87 85 -126 68
q-25 -11 -28 -20q30 -2 83.5 -23t83.5 -70q25 -38 25 -88q-1 -56 -38 -104.5t-109 -48.5q-46 0 -80.5 26.5t-35.5 74.5q-2 53 22 70q-31 9 -73 -16q-5 0 27 -23q55 -40 43 -125q-84 -9 -154.5 -35t-128.5 -69q-66 -49 -107.5 -129.5t-50.5 -175.5q-8 -95 18.5 -181.5
t84.5 -147.5q65 -65 147 -103q84 -39 192 -50q5 -67 -23 -106q-35 -44 -43 -44q38 -24 65 -16l-12 32q-15 34 0 69q28 71 110 71q84 0 126 -72q22 -40 18 -87t-26 -83q-32 -58 -106 -80q-62 -17 -78 -16q11 -9 73 -30q64 -22 120 -22q55 0 120 22q63 22 72 30q-16 -1 -76 16
q-75 22 -108 80q-22 36 -26 83t18 87q42 72 126 72q82 0 110 -71q15 -36 0 -69q-10 -32 -11 -32q27 -8 65 16q-9 0 -43 44q-28 39 -23 106q108 11 191 50q84 37 148 103q57 61 84 147.5t18 181.5q-8 95 -49.5 175.5t-107.5 129.5q-58 43 -129 69t-154 35q-12 85 43 125
q31 23 27 23q-43 25 -74 16q24 -18 23 -70q-2 -48 -36.5 -74.5t-79.5 -26.5q-72 0 -109.5 48.5t-37.5 104.5q0 50 25 88q30 49 83 70t83 23q-3 9 -27 20q-39 17 -126 -68q0 48 12.5 73t12.5 50q0 26 -15 38.5t-29 12.5q-15 0 -30 -12.5t-15 -38.5zM871 -192q41 -63 141 -61
q78 2 144.5 37t119.5 91q78 79 126 193t37 45q44 111 -1.5 48.5t-102.5 -102.5q-55 -37 -122 -64t-120 -34q2 -28 42 -36q35 -7 76 15t59 1q-14 -33 -40 -56.5t-44 -35.5q-60 -39 -126.5 -51t-118.5 12q-46 19 -46 88q48 -21 63 -5q16 16 5 38q-9 17 -20.5 21.5t-20.5 4.5
q-39 0 -61 -38q-31 -52 10 -111zM1012 1172q-96 2 -141 -61q-21 -29 -21.5 -58.5t11.5 -50.5q21 -37 62 -37q22 0 38 21t-3 43q-8 9 -19 8.5t-44 -12.5q0 63 46 86q53 23 119 11.5t126 -51.5q18 -12 44 -36t72 -127q-87 74 -122 83t-59 -2t-27 -31q54 -7 124 -36t126 -69
q56 -39 98.5 -101.5t-2.5 57.5q13 -88 -28.5 20.5t-108.5 187.5q-57 66 -131 109.5t-160 45.5zM721 -191q40 58 9 110q-21 38 -61 38q-8 0 -20 -4.5t-21 -21.5q-10 -21 6 -37q16 -17 64 5q-2 -70 -47 -89q-53 -24 -119.5 -12t-126.5 51q-18 12 -43.5 35.5t-21.5 77.5
q10 -2 45.5 -23t70.5 -14q40 8 43 36q-54 7 -120.5 34t-122.5 64q-57 40 -102 102.5t-4 -41.5q-9 62 39.5 -52t126.5 -193q53 -56 119.5 -91t143.5 -37q99 -2 142 62zM579 1172q-86 -2 -160 -45.5t-130 -109.5q-67 -79 -109 -187.5t-29 -20.5q-45 -120 -2.5 -57.5
t99.5 101.5q55 40 125 69t125 36q-3 20 -28 31q-23 11 -58.5 2t-123.5 -87q48 107 73.5 131t43.5 36q60 40 126.5 51.5t119.5 -11.5q45 -23 47 -94q-37 22 -47 21t-17 -9q-19 -22 -3.5 -43t38.5 -21q41 0 61 37q13 21 12 50.5t-21 58.5q-45 63 -142 61zM554 149
q-28 0 -41 15.5t-13 29.5q0 9 5 18.5t15 16t27 10.5t19 4q0 16 1 46.5t1 63.5q0 41 -1.5 85t-2.5 55l-11 -9q-16 -11 -36 -11t-36 12.5t-16 33.5q0 15 11.5 32t37.5 24q6 4 13 10.5t12 15.5t9.5 20.5t8.5 27.5q4 11 9 24t13.5 23.5t21 18t30.5 7.5q28 0 41 -18t13 -41
q0 -19 -5 -40t-14 -30q-2 -21 -2 -47.5v-54.5q0 -63 1.5 -129t3.5 -117q-9 0 2.5 -1t25 -5.5t22.5 -15t9 -27.5q0 -15 -12 -29.5t-37 -17.5l-125 30v-30zM1012 729q37 0 58 -13q31 -27 31 -58t-38 -31q-20 3 -32 3h-2q-69 0 -124 -110q-10 -19 -11 -24h-30q43 27 90 27h4
q66 0 115 -61q42 -56 42 -120v-7q0 -63 -43 -119q-53 -57 -116 -57h-10q-65 0 -121 59q-55 68 -55 165v17q0 108 63 216q76 113 179 113zM869 362q0 -74 32 -92q16 -12 33 -12q42 0 70 43q16 32 16 59v10q0 39 -29 52q-6 2 -14 2h-3q-38 0 -96 -52z" />
    <glyph glyph-name="uni0661_uni0667.1" unicode="&#x661;&#x667;" 
d="M480 -300q-81 22 -150.5 74t-122.5 122q-79 104 -120.5 262.5t-44.5 262.5q-5 136 29 293.5t107 266.5q62 95 162 169t206 83q3 12 21.5 37t49.5 38q12 7 35.5 11.5t24.5 3.5q-2 35 35.5 66.5t83.5 31.5q45 0 82.5 -31.5t35.5 -66.5q1 1 24 -3.5t37 -11.5
q32 -13 50 -38.5t21 -36.5q105 -9 205 -83t163 -169q72 -109 106 -266.5t31 -293.5q-4 -105 -46 -263t-120 -262q-52 -70 -122.5 -122t-151.5 -74q-52 -56 -140 -94q-90 -40 -175 -39q-85 -1 -175 39q-88 37 -141 94zM751 1308q0 -24 13 -49t13 -74q-87 85 -126 68
q-25 -11 -28 -20q30 -2 83.5 -23t83.5 -70q25 -38 25 -88q-1 -56 -38 -104.5t-109 -48.5q-46 0 -80.5 26.5t-35.5 74.5q-2 53 22 70q-31 9 -73 -16q-5 0 27 -23q55 -40 43 -125q-84 -9 -154.5 -35t-128.5 -69q-66 -49 -107.5 -129.5t-50.5 -175.5q-8 -95 18.5 -181.5
t84.5 -147.5q65 -65 147 -103q84 -39 192 -50q5 -67 -23 -106q-35 -44 -43 -44q38 -24 65 -16l-12 32q-15 34 0 69q28 71 110 71q84 0 126 -72q22 -40 18 -87t-26 -83q-32 -58 -106 -80q-62 -17 -78 -16q11 -9 73 -30q64 -22 120 -22q55 0 120 22q63 22 72 30q-16 -1 -76 16
q-75 22 -108 80q-22 36 -26 83t18 87q42 72 126 72q82 0 110 -71q15 -36 0 -69q-10 -32 -11 -32q27 -8 65 16q-9 0 -43 44q-28 39 -23 106q108 11 191 50q84 37 148 103q57 61 84 147.5t18 181.5q-8 95 -49.5 175.5t-107.5 129.5q-58 43 -129 69t-154 35q-12 85 43 125
q31 23 27 23q-43 25 -74 16q24 -18 23 -70q-2 -48 -36.5 -74.5t-79.5 -26.5q-72 0 -109.5 48.5t-37.5 104.5q0 50 25 88q30 49 83 70t83 23q-3 9 -27 20q-39 17 -126 -68q0 48 12.5 73t12.5 50q0 26 -15 38.5t-29 12.5q-15 0 -30 -12.5t-15 -38.5zM871 -192q41 -63 141 -61
q78 2 144.5 37t119.5 91q78 79 126 193t37 45q44 111 -1.5 48.5t-102.5 -102.5q-55 -37 -122 -64t-120 -34q2 -28 42 -36q35 -7 76 15t59 1q-14 -33 -40 -56.5t-44 -35.5q-60 -39 -126.5 -51t-118.5 12q-46 19 -46 88q48 -21 63 -5q16 16 5 38q-9 17 -20.5 21.5t-20.5 4.5
q-39 0 -61 -38q-31 -52 10 -111zM1012 1172q-96 2 -141 -61q-21 -29 -21.5 -58.5t11.5 -50.5q21 -37 62 -37q22 0 38 21t-3 43q-8 9 -19 8.5t-44 -12.5q0 63 46 86q53 23 119 11.5t126 -51.5q18 -12 44 -36t72 -127q-87 74 -122 83t-59 -2t-27 -31q54 -7 124 -36t126 -69
q56 -39 98.5 -101.5t-2.5 57.5q13 -88 -28.5 20.5t-108.5 187.5q-57 66 -131 109.5t-160 45.5zM721 -191q40 58 9 110q-21 38 -61 38q-8 0 -20 -4.5t-21 -21.5q-10 -21 6 -37q16 -17 64 5q-2 -70 -47 -89q-53 -24 -119.5 -12t-126.5 51q-18 12 -43.5 35.5t-21.5 77.5
q10 -2 45.5 -23t70.5 -14q40 8 43 36q-54 7 -120.5 34t-122.5 64q-57 40 -102 102.5t-4 -41.5q-9 62 39.5 -52t126.5 -193q53 -56 119.5 -91t143.5 -37q99 -2 142 62zM579 1172q-86 -2 -160 -45.5t-130 -109.5q-67 -79 -109 -187.5t-29 -20.5q-45 -120 -2.5 -57.5
t99.5 101.5q55 40 125 69t125 36q-3 20 -28 31q-23 11 -58.5 2t-123.5 -87q48 107 73.5 131t43.5 36q60 40 126.5 51.5t119.5 -11.5q45 -23 47 -94q-37 22 -47 21t-17 -9q-19 -22 -3.5 -43t38.5 -21q41 0 61 37q13 21 12 50.5t-21 58.5q-45 63 -142 61zM543 149
q-28 0 -41 15.5t-13 29.5q0 9 5 18.5t15 16t27 10.5t19 4q0 16 1 46.5t1 63.5q0 41 -1.5 85t-2.5 55l-11 -9q-16 -11 -36 -11t-36 12.5t-16 33.5q0 15 11.5 32t37.5 24q6 4 13 10.5t12 15.5t9.5 20.5t8.5 27.5q4 11 9 24t13.5 23.5t21 18t30.5 7.5q28 0 41 -18t13 -41
q0 -19 -5 -40t-14 -30q-2 -21 -2 -47.5v-54.5q0 -63 1.5 -129t3.5 -117q-9 0 2.5 -1t25 -5.5t22.5 -15t9 -27.5q0 -15 -12 -29.5t-37 -17.5l-125 30v-30zM797 716q42 0 61 -28q35 -28 82 -28h1q47 0 75 34q18 14 39 14h6q40 0 58 -36q7 -15 7 -30q0 -48 -55 -146
q-75 -143 -75 -243q0 -19 5 -53q0 -28 -43 -35h-13q-44 0 -60 32q-4 32 -4 58q0 84 47 192q56 100 71 139q8 21 8 9h23q-39 -14 -83 -14h-9q-29 0 -42 3v21q2 -3 2 -9v-16q-5 -84 -20 -84q-10 -14 -45 -14h-3q-42 0 -52 26q-4 4 -4 11q8 45 8 68q0 40 -37 74q-5 14 -5 18v3
q0 28 53 34h4z" />
    <glyph glyph-name="uni0661.1" unicode="&#x661;&#x668;" 
d="M480 -300q-81 22 -150.5 74t-122.5 122q-79 104 -120.5 262.5t-44.5 262.5q-5 136 29 293.5t107 266.5q62 95 162 169t206 83q3 12 21.5 37t49.5 38q12 7 35.5 11.5t24.5 3.5q-2 35 35.5 66.5t83.5 31.5q45 0 82.5 -31.5t35.5 -66.5q1 1 24 -3.5t37 -11.5
q32 -13 50 -38.5t21 -36.5q105 -9 205 -83t163 -169q72 -109 106 -266.5t31 -293.5q-4 -105 -46 -263t-120 -262q-52 -70 -122.5 -122t-151.5 -74q-52 -56 -140 -94q-90 -40 -175 -39q-85 -1 -175 39q-88 37 -141 94zM751 1308q0 -24 13 -49t13 -74q-87 85 -126 68
q-25 -11 -28 -20q30 -2 83.5 -23t83.5 -70q25 -38 25 -88q-1 -56 -38 -104.5t-109 -48.5q-46 0 -80.5 26.5t-35.5 74.5q-2 53 22 70q-31 9 -73 -16q-5 0 27 -23q55 -40 43 -125q-84 -9 -154.5 -35t-128.5 -69q-66 -49 -107.5 -129.5t-50.5 -175.5q-8 -95 18.5 -181.5
t84.5 -147.5q65 -65 147 -103q84 -39 192 -50q5 -67 -23 -106q-35 -44 -43 -44q38 -24 65 -16l-12 32q-15 34 0 69q28 71 110 71q84 0 126 -72q22 -40 18 -87t-26 -83q-32 -58 -106 -80q-62 -17 -78 -16q11 -9 73 -30q64 -22 120 -22q55 0 120 22q63 22 72 30q-16 -1 -76 16
q-75 22 -108 80q-22 36 -26 83t18 87q42 72 126 72q82 0 110 -71q15 -36 0 -69q-10 -32 -11 -32q27 -8 65 16q-9 0 -43 44q-28 39 -23 106q108 11 191 50q84 37 148 103q57 61 84 147.5t18 181.5q-8 95 -49.5 175.5t-107.5 129.5q-58 43 -129 69t-154 35q-12 85 43 125
q31 23 27 23q-43 25 -74 16q24 -18 23 -70q-2 -48 -36.5 -74.5t-79.5 -26.5q-72 0 -109.5 48.5t-37.5 104.5q0 50 25 88q30 49 83 70t83 23q-3 9 -27 20q-39 17 -126 -68q0 48 12.5 73t12.5 50q0 26 -15 38.5t-29 12.5q-15 0 -30 -12.5t-15 -38.5zM871 -192q41 -63 141 -61
q78 2 144.5 37t119.5 91q78 79 126 193t37 45q44 111 -1.5 48.5t-102.5 -102.5q-55 -37 -122 -64t-120 -34q2 -28 42 -36q35 -7 76 15t59 1q-14 -33 -40 -56.5t-44 -35.5q-60 -39 -126.5 -51t-118.5 12q-46 19 -46 88q48 -21 63 -5q16 16 5 38q-9 17 -20.5 21.5t-20.5 4.5
q-39 0 -61 -38q-31 -52 10 -111zM1012 1172q-96 2 -141 -61q-21 -29 -21.5 -58.5t11.5 -50.5q21 -37 62 -37q22 0 38 21t-3 43q-8 9 -19 8.5t-44 -12.5q0 63 46 86q53 23 119 11.5t126 -51.5q18 -12 44 -36t72 -127q-87 74 -122 83t-59 -2t-27 -31q54 -7 124 -36t126 -69
q56 -39 98.5 -101.5t-2.5 57.5q13 -88 -28.5 20.5t-108.5 187.5q-57 66 -131 109.5t-160 45.5zM721 -191q40 58 9 110q-21 38 -61 38q-8 0 -20 -4.5t-21 -21.5q-10 -21 6 -37q16 -17 64 5q-2 -70 -47 -89q-53 -24 -119.5 -12t-126.5 51q-18 12 -43.5 35.5t-21.5 77.5
q10 -2 45.5 -23t70.5 -14q40 8 43 36q-54 7 -120.5 34t-122.5 64q-57 40 -102 102.5t-4 -41.5q-9 62 39.5 -52t126.5 -193q53 -56 119.5 -91t143.5 -37q99 -2 142 62zM579 1172q-86 -2 -160 -45.5t-130 -109.5q-67 -79 -109 -187.5t-29 -20.5q-45 -120 -2.5 -57.5
t99.5 101.5q55 40 125 69t125 36q-3 20 -28 31q-23 11 -58.5 2t-123.5 -87q48 107 73.5 131t43.5 36q60 40 126.5 51.5t119.5 -11.5q45 -23 47 -94q-37 22 -47 21t-17 -9q-19 -22 -3.5 -43t38.5 -21q41 0 61 37q13 21 12 50.5t-21 58.5q-45 63 -142 61zM516 149
q-28 0 -41 15.5t-13 29.5q0 9 5 18.5t15 16t27 10.5t19 4q0 16 1 46.5t1 63.5q0 41 -1.5 85t-2.5 55l-11 -9q-16 -11 -36 -11t-36 12.5t-16 33.5q0 15 11.5 32t37.5 24q6 4 13 10.5t12 15.5t9.5 20.5t8.5 27.5q4 11 9 24t13.5 23.5t21 18t30.5 7.5q28 0 41 -18t13 -41
q0 -19 -5 -40t-14 -30q-2 -21 -2 -47.5v-54.5q0 -63 1.5 -129t3.5 -117q-9 0 2.5 -1t25 -5.5t22.5 -15t9 -27.5q0 -15 -12 -29.5t-37 -17.5l-125 30v-30zM1068 462q15 -13 28.5 -49.5t13.5 -74.5q0 -39 -12 -71t-34 -52.5t-51 -31.5t-59 -11q-32 0 -61 11t-51 31.5t-35 52
t-13 71.5q0 42 18 80t39 53q-15 13 -27.5 43t-12.5 63q0 30 10 58t27.5 50t46 38t62.5 16t62.5 -13t47.5 -34t29.5 -48.5t10.5 -60.5q0 -19 -3.5 -38.5t-10 -36.5t-17 -32t-8.5 -14zM954 509q15 0 26 5.5t18.5 16t11.5 24.5t4 32q0 13 -5 26.5t-12.5 23.5t-17 15.5
t-19.5 5.5q-9 0 -18.5 -4.5t-18 -13t-14 -22t-5.5 -32.5q0 -17 4 -32t10.5 -24.5t15.5 -15t20 -5.5zM957 415q-18 0 -29 -6t-19.5 -17t-13 -26t-4.5 -32t4 -30.5t12 -22.5t18 -14.5t23 -5.5q11 0 22.5 5t20.5 14t16 25t7 38q0 14 -5 28.5t-12.5 23.5t-17.5 14.5t-22 5.5z
" />
    </font>
</defs>
</svg>
