<?xml version="1.0" standalone="no"?>
<!DOCTYPE svg PUBLIC "-//W3C//DTD SVG 1.1//EN" "http://www.w3.org/Graphics/SVG/1.1/DTD/svg11.dtd" >
<svg xmlns="http://www.w3.org/2000/svg" xmlns:xlink="http://www.w3.org/1999/xlink" version="1.1">
<metadata>
Created by FontForge 20170731 at Tue May  1 17:46:40 2018
 By Aleksey,,,
Dedicated to the memory of Erik Milo. DecoType Naskh Family of Fonts 2.0 (c) Copyright 1992-1998 DecoType. MS Office Edition Arabic Persian Urdu. Created by Thomas Milo.
</metadata>
<defs>
<font id="DecoTypeNaskhVariants" horiz-adv-x="800" >
  <font-face 
    font-family="DecoType Naskh Variants"
    font-weight="400"
    font-stretch="normal"
    units-per-em="2048"
    panose-1="0 0 0 0 0 0 0 0 0 0"
    ascent="1638"
    descent="-410"
    bbox="-390 -1554 2442 2652.07"
    underline-thickness="100"
    underline-position="-900"
    unicode-range="U+0020-FEFC"
  />
<missing-glyph horiz-adv-x="1024" 
d="M128 0v1394h768v-1394h-768zM256 128h512v1138h-512v-1138z" />
    <glyph glyph-name="e004" unicode="&#xfedf;&#xfee4;&#xfea0;" horiz-adv-x="1020" 
d="M1096 408q0 -14 -9 -30q-17 -26 -22 -38q-9 -34 -27 -72q-12 -7 -26 -7q-8 0 -50 8.5t-83 8.5q-119 0 -297 -65q-143 -58 -286 -117q-209 -84 -296 -96v166q128 11 291 69q110 44 221 87q-73 4 -221 33q-139 26 -186 26q-44 0 -64 -14q-7 -7 -12 -7q-8 0 -8 19
q0 31 12 59q18 66 47 94q187 178 395 246q-16 122 -48 332q-11 31 -35 151q0 19 23 75q25 61 39 61q7 0 10 -13q18 -74 72 -129q0 -70 -30 -136q13 -119 43 -270q34 -45 115 -85q68 -33 77 -66q8 -97 -16 -131q-2 -11 -17 -11q-21 0 -108 40t-115 39q-61 -2 -155 -41
q-89 -36 -103 -59q23 -32 371 -68q164 -18 465 -43q33 -2 33 -16zM696 -152q-19 -61 -25 -75q-9 -23 -24 -31q-3 -2 -9 -2q-32 0 -81 20q-56 23 -56 48q0 7 6 15.5t33 71.5q18 43 39 43q7 0 15 -4l72 -34q32 -18 32 -40q0 -6 -2 -12z" />
    <glyph glyph-name="e007" unicode="&#xfedf;&#xfee0;&#xfeea;" horiz-adv-x="1159" 
d="M541 1556q13 -91 13 -112q0 -66 -41 -85q-8 -5 -12 -5q-5 0 -8 88q-4 136 -74 241q10 22 33 114q21 -41 38 -80q41 -94 51 -161zM694 1115q-12 -84 -48 -120q-25 -25 -48 -25q-17 0 -44 22l-32 -38q-23 -23 -53 -23q-61 0 -61 112q0 19 17.5 66.5t29.5 47.5q5 0 9 -9
q5 -14 -1 -36q-6 -27 -6 -36q0 -41 44 -33q35 7 55 72t25 65q17 0 17 -29q0 -7 -5.5 -23.5t-2.5 -28.5q20 -20 40 -20q16 0 26 40q7 34 15 69q2 10 7 10q7 0 13 -28t3 -55zM1102 250q3 -26 3 -52q0 -89 -33 -148q-36 -64 -97 -64q-81 0 -142 83q-41 69 -81 138
q-11 -79 -70 -163q-73 -105 -164 -105q-88 0 -153 84q-54 70 -54 129q-99 -101 -180 -101q-46 0 -90 30q-49 33 -49 79q0 30 36 84q32 49 58 71q86 71 165 103q51 20 73 61q7 10 24 144q2 18 9 18q9 0 21.5 -24t13.5 -173q-1 -80 -1 -161q12 -164 146 -164q89 0 135 65
q20 28 51 121q-5 45 -28 203q-21 142 -21 151q0 4 33 117q6 21 12 21q11 0 32 -128q33 -195 56 -292q41 -174 145 -201q31 -8 48 -8q42 0 42 38q0 14 -6 33t-84 246q-71 207 -71 265q0 13 9 44q13 40 17 62q3 17 10 17q38 0 185 -623zM309 254v104q-5 -15 -67 -45t-123 -59
q-8 -4 -8 -9q0 -27 81 -27q66 0 117 36z" />
    <glyph glyph-name="e00b" unicode="&#x651;&#x64b;" 
d="M294 1952q-12 -84 -48 -120q-25 -25 -47 -25q-18 0 -45 22l-32 -38q-22 -23 -53 -23q-61 0 -61 112q0 19 17.5 66.5t30.5 47.5q5 0 8 -9q5 -14 0 -35q-7 -28 -7 -37q0 -41 44 -33q36 7 55.5 72t24.5 65q17 0 17 -29q0 -6 -5 -23t-3 -29q20 -20 40 -20q16 0 26 40
q8 34 15 69q3 10 7 10q8 0 14 -28t2 -55zM357 2536q6 3 9 3q27 0 -50 -93q-12 -14 -149 -94q-168 -98 -302 -201q-26 -20 -36 -20q-6 0 -6 7q0 45 85 122q64 58 127 97q70 43 322 179zM319 2386q21 13 35 13q9 0 9 -9q0 -21 -56 -86q4 -7 -147 -94q-199 -114 -334 -220
q-12 -10 -18 -10q-5 0 -5 7q0 16 19 51.5t35 51.5q38 38 462 296z" />
    <glyph glyph-name="e017" unicode="&#xfe9f;&#xfb7d;" horiz-adv-x="1251" 
d="M1055 192q0 -19 -21 -80q-24 -71 -43 -71q-4 0 -6 2l-88 54q-8 6 -8 40q7 33 16 59q19 60 37 68q17 8 113 -72zM1267 633q8 -2 8 -13q0 -28 -37.5 -79.5t-58.5 -47.5q-170 33 -317 23q-70 -5 -200 -36.5t-157 -51.5q15 -38 30 -77t12 -78q-3 -49 -31 -104
q-26 -49 -46 -60q-8 -4 -22 -4q-45 0 -116 32q-74 34 -106 73q-33 -96 -64 -135q-58 -75 -162 -75v166q106 0 202 108q5 81 52 116q4 24 25 70q32 40 217 104q179 62 268 68q-50 15 -144 61q-74 36 -106 37q-204 -34 -249 -34q-10 0 -10 15q0 29 26.5 87t45 74.5t83 38
t95.5 21.5q52 0 143 -55q140 -84 224 -121q189 -83 270 -98q33 -6 125 -25zM850 137l-16 -41q-20 -49 -33 -91q-121 51 -121 104q0 14 20 67q23 62 43 62q14 0 59 -38q48 -41 48 -63zM985 -48q-12 -55 -43 -113q0 -17 -17 -17t-48 17q-62 34 -62 66q0 49 55 138q2 2 5 3
q4 0 58 -42t52 -52zM430 264q-13 33 -25 66q-13 26 -41 42q-36 20 -68 -20q-3 -4 -3 -8q0 -33 137 -80z" />
    <glyph glyph-name="e018" unicode="&#xfe97;&#xfb59;" horiz-adv-x="890" 
d="M891 -40q0 -19 -21 -80q-24 -71 -43 -71q-4 0 -6 2l-88 54q-8 6 -8 40q7 33 16 59q19 60 37 68q17 8 113 -72zM686 -95l-16 -41q-20 -49 -33 -91q-121 51 -121 104q0 14 20 67q23 62 43 62q14 0 59 -38q48 -41 48 -63zM821 -280q-12 -55 -43 -113q0 -17 -17 -17t-48 17
q-62 34 -62 66q0 49 55 138q2 2 5 3q4 0 58 -42t52 -52zM641 171q-18 20 -53 15q-212 -30 -212 -259q0 -165 110 -312q-1 -41 -3 -71q-5 -71 -15 -73t-21 -2q-106 0 -183 152q-71 140 -71 305q0 77 19 135q-40 -58 -212 -61v167q136 0 187.5 34.5t78.5 141.5q10 39 35 39
q13 0 13 -35q0 -11 -1 -25q-6 -58 -14 -83q-15 -47 -24 -86q-11 -49 -11 -105q0 -133 58 -267q-6 44 -6 90q0 186 77 327q82 151 206 157q110 6 110 -125q0 -98 -36 -98q-7 0 -17 16zM0 0z" />
    <glyph glyph-name="fc08" unicode="&#xfe91;&#xfee2;" horiz-adv-x="777" arabic-form="isolated" 
d="M761 180q-14 -65 -40 -94q-28 -32 -90 -46q-41 -9 -156 61q-70 -116 -87 -137q-60 -71 -180 -136q-112 -35 -184 -70q-81 -39 -90 -42q-39 -14 -39 7q0 12 17 18q109 51 257 163q165 127 263 247q7 105 38 203q6 20 61 46.5t84 24.5q77 57 73 91q-7 63 -63 142
q-47 60 -94 121q0 -7 -6 56q-4 45 3 81q3 18 16 18q37 0 111.5 -122t77.5 -196q4 -128 5 -124q-4 -74 -43 -111q71 -93 71 -156q0 -21 -5 -45zM773 -284q-19 -62 -25 -76q-10 -23 -23 -33q-3 -1 -8 -1q-31 0 -82 20q-58 23 -58 48q0 7 5 14q8 11 35 75q18 44 39 44
q6 0 14 -4q36 -17 73 -34q32 -19 32 -41q0 -6 -2 -12zM678 179q-13 52 -57 98q-22 23 -97 16q-2 -32 34.5 -72t80.5 -46q40 0 39 4z" />
    <glyph glyph-name="fc0e" unicode="&#xfe97;&#xfee2;" horiz-adv-x="777" arabic-form="isolated" 
d="M614 1390q0 -16 -18 -62q-22 -59 -48 -63q-24 3 -63 38q-35 31 -47 54q9 28 31 72q25 49 36 53q10 0 55 -33q50 -36 54 -59zM417 1316q5 -16 -13 -65q-19 -52 -36 -53q-17 2 -67 32q-53 33 -56 50q-5 12 59 125q51 -20 113 -89zM761 180q-14 -65 -40 -94q-28 -32 -90 -46
q-41 -9 -156 61q-70 -116 -87 -137q-60 -71 -180 -136q-112 -35 -184 -70q-81 -39 -90 -42q-39 -14 -39 7q0 12 17 18q109 51 257 163q165 127 263 247q7 105 38 203q6 20 61 46.5t84 24.5q77 57 73 91q-7 63 -63 142q-47 60 -94 121q0 -7 -6 56q-4 45 3 81q3 18 16 18
q37 0 111.5 -122t77.5 -196q4 -128 5 -124q-4 -74 -43 -111q71 -93 71 -156q0 -21 -5 -45zM678 179q-13 52 -57 98q-22 23 -97 16q-2 -32 34.5 -72t80.5 -46q40 0 39 4z" />
    <glyph glyph-name="fc32" unicode="&#xfed3;&#xfef2;" horiz-adv-x="1840" arabic-form="isolated" 
d="M245 1698q-22 -65 -27 -75q-9 -22 -22 -33q-3 -1 -8 -1q-32 0 -82 19q-59 24 -59 50q0 7 5.5 14.5t32.5 72.5q19 43 40 43q7 0 16 -4q36 -17 73 -35q32 -18 32 -41q0 -5 -1 -10zM1777 271q31 -2 31 -39q0 -36 -26 -75q-26 -42 -60 -51q-250 -4 -668 -41
q-298 -27 -766 -62q-88 -4 -168 19q-104 30 -95 91q12 85 55 153q46 60 91 120q49 38 235 131q108 54 114 137q2 28 -30 101t-74 129q-15 -71 -27 -93q-31 -55 -97 -55q-53 0 -86 53q-30 47 -30 108q0 80 50 169q46 81 75 81q52 0 148 -116q120 -144 119 -323
q-1 -180 -94 -281q-55 -60 -190 -122q-122 -56 -151 -103q70 -42 231 -30zM1080 -162q0 -16 -18 -62q-22 -59 -48 -63q-24 3 -63 38q-35 31 -48 55q8 26 31 71q26 49 37 53q10 0 55 -33q49 -36 54 -59zM862 -207q4 -17 -14 -66q-19 -52 -35 -53q-17 2 -67 32q-53 33 -56 50
q-4 9 25 65q27 53 34 60q55 -24 113 -88zM341 940q-31 32 -52 23q-11 -5 -19 -18q-8 -14 0 -21q17 -16 29 -16q19 0 42 32z" />
    <glyph glyph-name="fc3f" unicode="&#xfedf;&#xfe9e;" horiz-adv-x="842" arabic-form="isolated" 
d="M1227 -835q45 7 68 7q49 0 -10 -32q-48 -26 -112 -49q-42 -15 -142 -63q-78 -37 -161 -57q-103 -25 -252 -25q-319 0 -477 145q-140 128 -140 350q0 570 415 792q-11 0 -169 7q-93 4 -224 -7q-27 -2 -27 34q0 38 25 102q19 21 121.5 84.5t161.5 127.5q90 98 128 237
q157 577 277 577q45 0 77 -99q23 -73 25 -132q2 -47 -14 -161q-5 -32 -26 -32q-16 0 -21 43q-22 199 -91 199q-28 0 -66 -111q-21 -63 -83 -284q-52 -185 -104 -264q-25 -37 -150 -160q128 -10 249 -10q116 0 238 12t127 12q26 0 23 -11q-18 -79 -56 -143
q-44 -27 -201 -72.5t-258 -103.5q-171 -99 -245 -239q-66 -126 -66 -309q0 -162 146 -272q180 -136 530 -134q238 2 484 41zM715 -323q-18 -60 -25 -76q-9 -23 -22 -33q-3 -2 -9 -2q-32 0 -81 21q-58 23 -58 48q0 6 6.5 14.5t32.5 72.5q18 45 39 45q7 0 15 -4l72 -34
q32 -18 32 -40q0 -6 -2 -12z" />
    <glyph glyph-name="fc40" unicode="&#xfedf;&#xfea2;" horiz-adv-x="842" arabic-form="isolated" 
d="M1227 -835q45 7 68 7q49 0 -10 -32q-48 -26 -112 -49q-42 -15 -142 -63q-78 -37 -161 -57q-103 -25 -252 -25q-319 0 -477 145q-140 128 -140 350q0 570 415 792q-11 0 -169 7q-93 4 -224 -7q-27 -2 -27 34q0 38 25 102q19 21 121.5 84.5t161.5 127.5q90 98 128 237
q157 577 277 577q45 0 77 -99q23 -73 25 -132q2 -47 -14 -161q-5 -32 -26 -32q-16 0 -21 43q-22 199 -91 199q-28 0 -66 -111q-21 -63 -83 -284q-52 -185 -104 -264q-25 -37 -150 -160q128 -10 249 -10q116 0 238 12t127 12q26 0 23 -11q-18 -79 -56 -143
q-44 -27 -201 -72.5t-258 -103.5q-171 -99 -245 -239q-66 -126 -66 -309q0 -162 146 -272q180 -136 530 -134q238 2 484 41z" />
    <glyph glyph-name="fc41" unicode="&#xfedf;&#xfea6;" horiz-adv-x="842" arabic-form="isolated" 
d="M185 786q-18 -60 -25 -76q-9 -23 -22 -33q-3 -2 -9 -2q-32 0 -81 21q-58 23 -58 48q0 6 6.5 14.5t32.5 72.5q18 45 39 45q7 0 15 -4l72 -34q32 -18 32 -40q0 -6 -2 -12zM1227 -835q45 7 68 7q49 0 -10 -32q-48 -26 -112 -49q-42 -15 -142 -63q-78 -37 -161 -57
q-103 -25 -252 -25q-319 0 -477 145q-140 128 -140 350q0 570 415 792q-11 0 -169 7q-93 4 -224 -7q-27 -2 -27 34q0 38 25 102q19 21 121.5 84.5t161.5 127.5q90 98 128 237q157 577 277 577q45 0 77 -99q23 -73 25 -132q2 -47 -14 -161q-5 -32 -26 -32q-16 0 -21 43
q-22 199 -91 199q-28 0 -66 -111q-21 -63 -83 -284q-52 -185 -104 -264q-25 -37 -150 -160q128 -10 249 -10q116 0 238 12t127 12q26 0 23 -11q-18 -79 -56 -143q-44 -27 -201 -72.5t-258 -103.5q-171 -99 -245 -239q-66 -126 -66 -309q0 -162 146 -272q180 -136 530 -134
q238 2 484 41z" />
    <glyph glyph-name="fc42" unicode="&#xfedf;&#xfee2;" horiz-adv-x="504" arabic-form="isolated" 
d="M502 195q3 -15 3 -31q0 -55 -34 -111q-9 -15 -15 -15q-2 0 -26 19q-90 72 -178 72q-81 0 -136 -38q-66 -45 -63 -130l82 -551q0 -286 -32 -286q-8 0 -17 20q8 91 8 96q-2 116 -48.5 382t-47.5 325q-1 132 51 222q38 65 101 104q31 16 63 32q-43 88 -74 340
q-17 134 -33 268q-45 31 -45 121q0 10 11 52q14 51 30 77q5 8 9 8q7 0 24 -51q18 -56 39 -69q43 -26 43 -37q0 -12 -9 -31q-6 -6 -26 -80q0 -47 19 -194q22 -167 41 -215q40 -100 104 -177q17 -11 87 -47q32 -17 52 -41q5 -6 17 -34z" />
    <glyph glyph-name="fc43" unicode="&#xfedf;&#xfef0;" horiz-adv-x="1016" arabic-form="isolated" 
d="M993 174q19 -33 19 -70q0 -18 -23 -116q-66 -123 -291 -249q-217 -121 -352 -124q-163 -4 -260 118q-88 112 -78 267q17 259 107 385q8 12 13 12q8 0 1 -43l-26 -70q-22 -76 -29 -194q-9 -150 89 -237q87 -79 210 -72q96 5 306 101q223 102 267 179q-16 24 -132 35
q-129 12 -163 31q-39 41 -12 84q11 11 86 33.5t117 60.5q-7 59 -65 310q-63 264 -75 348q-11 32 -24 43.5t-16 21.5q-4 42 13 104t34 62q8 0 14 -15q18 -49 44 -64t32 -30q4 -11 4 -24q0 -27 -15.5 -67.5t-15.5 -39.5q0 -4 57 -228q59 -232 66 -400q1 -18 -16 -55
q-19 -41 -21 -54q60 -5 135 -43z" />
    <glyph glyph-name="fc44" unicode="&#xfedf;&#xfef2;" horiz-adv-x="1016" arabic-form="isolated" 
d="M993 174q19 -33 19 -70q0 -18 -23 -116q-66 -123 -291 -249q-217 -121 -352 -124q-163 -4 -260 118q-88 112 -78 267q17 259 107 385q8 12 13 12q8 0 1 -43l-26 -70q-22 -76 -29 -194q-9 -150 89 -237q87 -79 210 -72q96 5 306 101q223 102 267 179q-16 24 -132 35
q-129 12 -163 31q-39 41 -12 84q11 11 86 33.5t117 60.5q-7 59 -65 310q-63 264 -75 348q-11 32 -24 43.5t-16 21.5q-6 61 36 167q8 6 11 6q2 0 17 -28q23 -40 73 -88q4 -11 4 -25q0 -26 -15.5 -66.5t-15.5 -39.5q0 -4 57 -228q59 -232 66 -400q1 -18 -16 -55
q-19 -41 -21 -54q60 -5 135 -43zM901 -467q0 -16 -16 -62q-21 -58 -47 -61q-24 3 -64 37q-35 31 -49 55q9 27 32 70q27 49 38 53q11 0 55 -32q48 -36 51 -60zM707 -539q4 -17 -14 -66q-19 -52 -36 -52q-16 0 -66 30q-53 32 -56 49q-6 11 24 68q27 51 35 59q56 -28 113 -88z
" />
    <glyph glyph-name="fc4e" unicode="&#xfee7;&#xfee2;" horiz-adv-x="777" arabic-form="isolated" 
d="M545 1386q-19 -62 -25 -76q-10 -23 -23 -33q-3 -1 -8 -1q-31 0 -82 20q-58 23 -58 48q0 7 5 14q8 11 35 75q18 44 39 44q6 0 14 -4q36 -17 73 -34q32 -19 32 -41q0 -6 -2 -12zM761 180q-14 -65 -40 -94q-28 -32 -90 -46q-41 -9 -156 61q-70 -116 -87 -137
q-60 -71 -180 -136q-112 -35 -184 -70q-81 -39 -90 -42q-39 -14 -39 7q0 12 17 18q109 51 257 163q165 127 263 247q7 105 38 203q6 20 61 46.5t84 24.5q77 57 73 91q-7 63 -63 142q-47 60 -94 121q0 -7 -6 56q-4 45 3 81q3 18 16 18q37 0 111.5 -122t77.5 -196
q4 -128 5 -124q-4 -74 -43 -111q71 -93 71 -156q0 -21 -5 -45zM678 179q-13 52 -57 98q-22 23 -97 16q-2 -32 34.5 -72t80.5 -46q40 0 39 4z" />
    <glyph glyph-name="fc5e" unicode="&#x651;&#x64c;" arabic-form="isolated" 
d="M294 1952q-12 -84 -48 -120q-25 -25 -47 -25q-18 0 -45 22l-32 -38q-22 -23 -53 -23q-61 0 -61 112q0 19 17.5 66.5t30.5 47.5q5 0 8 -9q5 -14 0 -35q-7 -28 -7 -37q0 -41 44 -33q36 7 55.5 72t24.5 65q17 0 17 -29q0 -6 -5 -23t-3 -29q20 -20 40 -20q16 0 26 40
q8 34 15 69q3 10 7 10q8 0 14 -28t2 -55zM374 2475q-5 -33 -6 -36q-6 -13 -31 -13q-10 0 -24 2q-62 -155 -80 -186q-71 -125 -160 -125q-95 0 -108 59q-19 89 -4 229q-5 3 -11 3q-24 0 -85 -66q-10 -5 -16 -5q-9 0 -9 10q0 23 38.5 74t64.5 57q39 9 45 -1q9 -15 4 -52
q-8 -57 -8 -72q0 -143 106 -137q47 3 113 74q71 76 77 145q-60 8 -73 16q-25 15 -25 70q0 35 18 77q24 56 65 54q73 -4 73 -107q0 -27 -7 -53l34 -5q11 -1 9 -12zM287 2513v34q-25 40 -35 40q-7 0 -37 -24q8 -17 17 -35q16 -7 32 -15h23z" />
    <glyph glyph-name="fc5f" unicode="&#x651;&#x64d;" arabic-form="isolated" 
d="M294 1952q-12 -84 -48 -120q-25 -25 -47 -25q-18 0 -45 22l-32 -38q-22 -23 -53 -23q-61 0 -61 112q0 19 17.5 66.5t30.5 47.5q5 0 8 -9q5 -14 0 -35q-7 -28 -7 -37q0 -41 44 -33q36 7 55.5 72t24.5 65q17 0 17 -29q0 -6 -5 -23t-3 -29q20 -20 40 -20q16 0 26 40
q8 34 15 69q3 10 7 10q8 0 14 -28t2 -55zM422 -925q6 3 9 3q27 0 -50 -93q-12 -14 -149 -94q-168 -98 -302 -201q-26 -20 -36 -20q-6 0 -6 7q0 45 85 122q64 58 127 97q70 43 322 179zM384 -1075q21 13 35 13q9 0 9 -9q0 -21 -56 -86q4 -7 -147 -94q-199 -114 -334 -220
q-12 -10 -18 -10q-5 0 -5 7q0 16 19 51.5t35 51.5q38 38 462 296z" />
    <glyph glyph-name="fc60" unicode="&#x651;&#x64e;" arabic-form="isolated" 
d="M294 1952q-12 -84 -48 -120q-25 -25 -47 -25q-18 0 -45 22l-32 -38q-22 -23 -53 -23q-61 0 -61 112q0 19 17.5 66.5t30.5 47.5q5 0 8 -9q5 -14 0 -35q-7 -28 -7 -37q0 -41 44 -33q36 7 55.5 72t24.5 65q17 0 17 -29q0 -6 -5 -23t-3 -29q20 -20 40 -20q16 0 26 40
q8 34 15 69q3 10 7 10q8 0 14 -28t2 -55zM369 2420q21 13 35 13q9 0 9 -9q0 -21 -56 -86q4 -7 -147 -94q-199 -114 -334 -220q-12 -10 -18 -10q-5 0 -5 7q0 16 19 51.5t35 51.5q38 38 462 296z" />
    <glyph glyph-name="fc61" unicode="&#x651;&#x64f;" arabic-form="isolated" 
d="M294 1952q-12 -84 -48 -120q-25 -25 -47 -25q-18 0 -45 22l-32 -38q-22 -23 -53 -23q-61 0 -61 112q0 19 17.5 66.5t30.5 47.5q5 0 8 -9q5 -14 0 -35q-7 -28 -7 -37q0 -41 44 -33q36 7 55.5 72t24.5 65q17 0 17 -29q0 -6 -5 -23t-3 -29q20 -20 40 -20q16 0 26 40
q8 34 15 69q3 10 7 10q8 0 14 -28t2 -55zM300 2393q-3 -45 -23 -60q-20 12 -53 29q-63 -89 -94 -122q-39 -41 -128 -105q-84 -60 -130 -60q-11 0 -11 5q0 9 27 26q227 141 294 273q-35 14 -69 27.5t-30 54.5q3 37 43 94q43 65 80 65q52 0 52 -85q0 -55 -14 -95
q57 -32 56 -47zM215 2451q0 36 -6 47q-11 21 -54 30q-11 2 -15 -20q-4 -23 7 -28q7 -3 68 -29z" />
    <glyph glyph-name="fc62" unicode="&#x651;&#x650;" arabic-form="isolated" 
d="M294 1952q-12 -84 -48 -120q-25 -25 -47 -25q-18 0 -45 22l-32 -38q-22 -23 -53 -23q-61 0 -61 112q0 19 17.5 66.5t30.5 47.5q5 0 8 -9q5 -14 0 -35q-7 -28 -7 -37q0 -41 44 -33q36 7 55.5 72t24.5 65q17 0 17 -29q0 -6 -5 -23t-3 -29q20 -20 40 -20q16 0 26 40
q8 34 15 69q3 10 7 10q8 0 14 -28t2 -55zM489 -964q21 13 35 13q9 0 9 -9q0 -21 -56 -86q4 -7 -147 -94q-199 -114 -334 -220q-12 -10 -18 -10q-5 0 -5 7q0 16 19 51.5t35 51.5q38 38 462 296z" />
    <glyph glyph-name="fc6a" unicode="&#xfe92;&#xfeae;" horiz-adv-x="1061" arabic-form="final" 
d="M995 -485q-18 -60 -25 -76q-9 -23 -22 -33q-3 -2 -9 -2q-32 0 -81 21q-58 23 -58 48q0 6 6.5 14.5t32.5 72.5q18 45 39 45q7 0 15 -4l72 -34q32 -18 32 -40q0 -6 -2 -12zM1061 0q-68 0 -115.5 25.5t-81.5 25.5q-147 -1 -290 -151q-113 -139 -225 -277
q-126 -148 -230 -146q-120 3 -120 217q0 77 46 196q41 109 95 190q9 13 18 13q21 0 21 -31q0 -6 -2 -10q-39 -71 -56 -111q-45 -102 -50 -175q-3 -48 21 -84q26 -39 68 -35q88 9 152 80q63 84 125 169q95 128 216 223t239 95q37 0 91.5 -24.5t77.5 -24.5v-165z" />
    <glyph glyph-name="fc6d" unicode="&#xfe92;&#xfee6;" horiz-adv-x="1065" arabic-form="final" 
d="M439 692q-19 -61 -25 -75q-9 -23 -20 -33q-3 -2 -9 -2q-32 0 -82 20q-57 23 -57 48q0 7 5 14q7 11 34 75q18 43 38 43q7 0 14 -3q36 -17 73 -34q31 -18 31 -40q0 -6 -2 -13zM1066 0q-172 0 -225 347q-35 -76 -72 -103q-28 -16 -57 -32q9 -38 18 -77q14 -64 14 -128
q0 -110 -39 -236q-28 -89 -150 -170q-128 -85 -255 -85q-106 0 -192 80q-108 100 -108 279q0 191 77 316q8 13 20 13q30 0 30 -37q0 -13 -25 -87.5t-25 -124.5q0 -80 53 -153q68 -96 191 -96q103 0 235 83q122 76 122 115q-1 137 -45 230q-9 19 -83 130q-26 38 -19 64
q14 54 31 110q-1 12 5 12q22 0 83 -92q99 16 135 77q23 39 33 140q17 32 25 2q31 -64 70 -190q36 -117 59 -156q37 -65 94 -65v-166zM922 -334q-19 -61 -25 -75q-9 -23 -20 -33q-3 -2 -9 -2q-32 0 -82 20q-57 23 -57 48q0 7 5 14q7 11 34 75q18 43 38 43q7 0 14 -3
q36 -17 73 -34q31 -18 31 -40q0 -6 -2 -13z" />
    <glyph glyph-name="fc6f" unicode="&#xfe92;&#xfef2;" horiz-adv-x="1151" arabic-form="final" 
d="M1124 -594q-27 -89 -49 -108q-3 -2 -9 -2q-32 0 -81 20q-56 22 -56 47q0 7 5 14q9 13 35 75q17 44 38 44q7 0 15 -4l72 -34q32 -18 32 -40q0 -6 -2 -12zM1151 0q-92 0 -159 36q-38 21 -94 75q-51 49 -85 63q-24 10 -123 -73q-104 -87 -104 -147q0 -13 6 -24
q25 -48 217 -59q81 -5 95 -6q56 -5 67 -15q43 -29 43 -83q0 -93 -62 -158q-139 -146 -328 -230q-162 -71 -290 -71q-163 0 -250 108q-82 101 -82 277q0 87 50 218q46 120 81 152q12 11 24 11q9 0 9 -9q0 -7 -4 -16q-88 -186 -88 -282q0 -79 34 -144q73 -137 265 -137
q122 0 292 68q181 74 281 174q-29 17 -90 14q-34 -2 -63 -2q-271 0 -273 139q-2 127 95 276q110 168 247 171q20 0 108.5 -80t180.5 -80v-166zM752 -846q0 -17 -18 -63q-22 -59 -48 -62q-24 3 -63 38q-35 31 -48 54q43 112 68 125q10 0 55 -33q49 -36 54 -59zM555 -920
q5 -16 -13.5 -67t-35.5 -51q-16 0 -68 32.5t-55 49.5q-5 12 59 125q53 -25 113 -89z" />
    <glyph glyph-name="fc70" unicode="&#xfe98;&#xfeae;" horiz-adv-x="1061" arabic-form="final" 
d="M928 776q0 -16 -18 -62q-22 -59 -48 -63q-24 3 -63 38q-35 31 -47 54q9 28 31 72q25 49 36 53q10 0 55 -33q50 -36 54 -59zM731 702q5 -16 -13 -65q-19 -52 -36 -53q-17 2 -67 32q-53 33 -56 50q-5 12 59 125q51 -20 113 -89zM1061 -1q-68 0 -115.5 26t-81.5 26
q-147 -1 -290 -151q-113 -139 -225 -277q-126 -148 -230 -146q-120 3 -120 217q0 77 46 196q41 109 95 190q9 13 18 13q21 0 21 -31q0 -6 -2 -10q-39 -71 -56 -111q-45 -102 -50 -175q-3 -48 21 -84q26 -39 68 -35q88 9 152 80q63 84 125 169q95 128 216 223t239 95
q37 0 91.5 -24.5t77.5 -24.5v-166z" />
    <glyph glyph-name="fc73" unicode="&#xfe98;&#xfee6;" horiz-adv-x="1065" arabic-form="final" 
d="M847 1072q0 -15 -18 -61q-22 -59 -48 -62q-24 3 -63 37q-35 31 -48 55q43 112 68 123q11 0 55 -32q49 -36 54 -60zM650 1000q4 -17 -13 -66q-18 -52 -34 -52q-18 0 -70 31t-53 48q-11 24 57 127q51 -22 113 -88zM289 755q-19 -61 -25 -75q-9 -23 -20 -33q-3 -2 -9 -2
q-32 0 -82 20q-57 23 -57 48q0 7 5 14q7 11 34 75q18 43 38 43q7 0 14 -3q36 -17 73 -34q31 -18 31 -40q0 -6 -2 -13zM1066 0q-172 0 -225 347q-35 -76 -72 -103q-28 -16 -57 -32q9 -38 18 -77q14 -64 14 -128q0 -110 -39 -236q-28 -89 -150 -170q-128 -85 -255 -85
q-106 0 -192 80q-108 100 -108 279q0 191 77 316q8 13 20 13q30 0 30 -37q0 -13 -25 -87.5t-25 -124.5q0 -80 53 -153q68 -96 191 -96q103 0 235 83q122 76 122 115q-1 137 -45 230q-9 19 -83 130q-26 38 -19 64q14 54 31 110q-1 12 5 12q22 0 83 -92q99 16 135 77
q23 39 33 140q17 32 25 2q31 -64 70 -190q36 -117 59 -156q37 -65 94 -65v-166z" />
    <glyph glyph-name="fc75" unicode="&#xfe98;&#xfef2;" horiz-adv-x="1151" arabic-form="final" 
d="M858 706q0 -16 -18 -62q-22 -59 -48 -63q-24 3 -63 38q-35 31 -47 54q9 28 31 72q25 49 36 53q10 0 55 -33q50 -36 54 -59zM661 632q5 -16 -13 -65q-19 -52 -36 -53q-17 2 -67 32q-53 33 -56 50q-5 12 59 125q51 -20 113 -89zM1151 0q-92 0 -159 36q-38 21 -94 75
q-51 49 -85 63q-24 10 -123 -73q-104 -87 -104 -147q0 -13 6 -24q25 -48 217 -59q81 -5 95 -6q56 -5 67 -15q43 -29 43 -83q0 -93 -62 -158q-139 -146 -328 -230q-162 -71 -290 -71q-163 0 -250 108q-82 101 -82 277q0 87 50 218q46 120 81 152q12 11 24 11q9 0 9 -9
q0 -7 -4 -16q-88 -186 -88 -282q0 -79 34 -144q73 -137 265 -137q122 0 292 68q181 74 281 174q-29 17 -90 14q-34 -2 -63 -2q-271 0 -273 139q-2 127 95 276q110 168 247 171q20 0 109 -80.5t180 -79.5v-166zM752 -846q0 -17 -18 -63q-22 -59 -48 -62q-24 3 -63 38
q-35 31 -48 54q43 112 68 125q10 0 55 -33q49 -36 54 -59zM555 -920q5 -16 -13.5 -67t-35.5 -51q-16 0 -68 32.5t-55 49.5q-5 12 59 125q53 -25 113 -89z" />
    <glyph glyph-name="fc8f" unicode="&#xfee8;&#xfef2;" horiz-adv-x="1151" arabic-form="final" 
d="M845 637q-18 -60 -25 -76q-9 -23 -22 -33q-3 -2 -9 -2q-32 0 -81 21q-58 23 -58 48q0 6 6.5 14.5t32.5 72.5q18 45 39 45q7 0 15 -4l72 -34q32 -18 32 -40q0 -6 -2 -12zM1151 0q-92 0 -159 36q-38 21 -94 75q-51 49 -85 63q-24 10 -123 -73q-104 -87 -104 -147
q0 -13 6 -24q25 -48 217 -59q81 -5 95 -6q56 -5 67 -15q43 -29 43 -83q0 -93 -62 -158q-139 -146 -328 -230q-162 -71 -290 -71q-163 0 -250 108q-82 101 -82 277q0 87 50 218q46 120 81 152q12 11 24 11q9 0 9 -9q0 -7 -4 -16q-88 -186 -88 -282q0 -79 34 -144
q73 -137 265 -137q122 0 292 68q181 74 281 174q-29 17 -90 14q-34 -2 -63 -2q-271 0 -273 139q-2 127 95 276q110 168 247 171q20 0 108.5 -80t180.5 -80v-166zM752 -846q0 -17 -18 -63q-22 -59 -48 -62q-24 3 -63 38q-35 31 -48 54q43 112 68 125q10 0 55 -33
q49 -36 54 -59zM555 -920q5 -16 -13.5 -67t-35.5 -51q-16 0 -68 32.5t-55 49.5q-5 12 59 125q53 -25 113 -89z" />
    <glyph glyph-name="fc91" unicode="&#xfef4;&#xfeae;" horiz-adv-x="1061" arabic-form="final" 
d="M1118 -564q0 -16 -18 -63q-22 -58 -48 -62q-24 3 -63 38q-35 31 -47 54q9 28 31 72q25 49 36 53q10 0 55 -33q50 -36 54 -59zM1061 0q-68 0 -115.5 25.5t-81.5 25.5q-147 -1 -290 -151q-113 -139 -225 -277q-126 -148 -230 -146q-120 3 -120 217q0 77 46 196
q41 109 95 190q9 13 18 13q21 0 21 -31q0 -6 -2 -10q-39 -71 -56 -111q-45 -102 -50 -175q-3 -48 21 -84q26 -39 68 -35q88 9 152 80q63 84 125 169q95 128 216 223t239 95q37 0 91.5 -24.5t77.5 -24.5v-165zM921 -638q5 -16 -13 -65q-19 -52 -36 -53q-17 2 -67 32
q-53 33 -56 50q-5 12 59 125q51 -20 113 -89z" />
    <glyph glyph-name="fc94" unicode="&#xfef4;&#xfee6;" horiz-adv-x="1065" arabic-form="final" 
d="M436 692q-19 -61 -25 -75q-9 -23 -20 -33q-3 -2 -9 -2q-32 0 -82 20q-57 23 -57 48q0 7 5 14q7 11 34 75q18 43 38 43q7 0 14 -3q36 -17 73 -34q31 -18 31 -40q0 -6 -2 -13zM1066 0q-172 0 -225 347q-35 -76 -72 -103q-28 -16 -57 -32q9 -38 18 -77q14 -64 14 -128
q0 -110 -39 -236q-28 -89 -150 -170q-128 -85 -255 -85q-106 0 -192 80q-108 100 -108 279q0 191 77 316q8 13 20 13q30 0 30 -37q0 -13 -25 -87.5t-25 -124.5q0 -80 53 -153q68 -96 191 -96q103 0 235 83q122 76 122 115q-1 137 -45 230q-9 19 -83 130q-26 38 -19 64
q14 54 31 110q-1 12 5 12q22 0 83 -92q99 16 135 77q23 39 33 140q17 32 25 2q31 -64 70 -190q36 -117 59 -156q37 -65 94 -65v-166zM1040 -365q0 -15 -18 -62q-22 -58 -48 -61q-24 3 -63 37q-35 31 -48 55q43 112 68 123q11 0 55 -32q49 -36 54 -60zM843 -437
q4 -17 -13 -66q-18 -52 -34 -52q-18 0 -70 31t-53 48q-11 24 57 127q51 -22 113 -88z" />
    <glyph glyph-name="fc9c" unicode="&#xfe91;&#xfea0;" horiz-adv-x="995" arabic-form="initial" 
d="M1028 377q-2 -37 -45 -98q-16 -23 -29 -24q18 2 -39 3q-8 0 -37 2q-25 2 -44 2q-116 0 -265 -65q-190 -83 -381 -167q-75 -29 -188 -30v166q128 0 288 60q185 70 191 71q-124 10 -250 40q-113 28 -135 28q-18 0 -31 -5q-23 -8 -38 -5q-19 4 -15 28q10 57 53 111
q30 37 140 90q74 34 149 69q122 69 241 224q103 135 126 137q39 3 65 -50t27 -139q1 -61 -17 -116q-16 -51 -30 -51q-8 0 -12 40l-4 50q-15 96 -68 102q-27 -14 -76 -83q-68 -94 -111 -139q-83 -90 -192 -151l278 -36q184 -23 445 -29q6 0 4 -35zM977 -88q-28 -93 -47 -109
q-3 -2 -9 -2q-33 0 -82 20q-58 23 -58 48q0 7 6 15.5t33 73.5q19 44 40 44q6 0 14 -4q36 -17 73 -34q32 -18 32 -40q0 -6 -2 -12zM678 -300q-29 -92 -47 -109q-3 -2 -9 -2q-33 0 -83 20q-57 22 -57 48q0 7 5 14q9 12 34 74q18 45 38 45q7 0 14 -4q37 -17 75 -35
q32 -18 32 -39q0 -6 -2 -12z" />
    <glyph glyph-name="fc9d" unicode="&#xfe91;&#xfea4;" horiz-adv-x="995" arabic-form="initial" 
d="M1028 377q-2 -37 -45 -98q-16 -23 -29 -24q18 2 -39 3q-8 0 -37 2q-25 2 -44 2q-116 0 -265 -65q-190 -83 -381 -167q-75 -29 -188 -30v166q128 0 288 60q185 70 191 71q-124 10 -250 40q-113 28 -135 28q-18 0 -31 -5q-23 -8 -38 -5q-19 4 -15 28q10 57 53 111
q30 37 140 90q74 34 149 69q122 69 241 224q103 135 126 137q39 3 65 -50t27 -139q1 -61 -17 -116q-16 -51 -30 -51q-8 0 -12 40l-4 50q-15 96 -68 102q-27 -14 -76 -83q-68 -94 -111 -139q-83 -90 -192 -151l278 -36q184 -23 445 -29q6 0 4 -35zM678 -300q-29 -92 -47 -109
q-3 -2 -9 -2q-33 0 -83 20q-57 22 -57 48q0 7 5 14q9 12 34 74q18 45 38 45q7 0 14 -4q37 -17 75 -35q32 -18 32 -39q0 -6 -2 -12z" />
    <glyph glyph-name="fc9e" unicode="&#xfe91;&#xfea8;" horiz-adv-x="995" arabic-form="initial" 
d="M1028 377q-2 -37 -45 -98q-16 -23 -29 -24q18 2 -39 3q-8 0 -37 2q-25 2 -44 2q-116 0 -265 -65q-190 -83 -381 -167q-75 -29 -188 -30v166q128 0 288 60q185 70 191 71q-124 10 -250 40q-113 28 -135 28q-18 0 -31 -5q-23 -8 -38 -5q-19 4 -15 28q10 57 53 111
q30 37 140 90q74 34 149 69q122 69 241 224q103 135 126 137q39 3 65 -50t27 -139q1 -61 -17 -116q-16 -51 -30 -51q-8 0 -12 40l-4 50q-15 96 -68 102q-27 -14 -76 -83q-68 -94 -111 -139q-83 -90 -192 -151l278 -36q184 -23 445 -29q6 0 4 -35zM104 940q-29 -92 -49 -106
q-2 -2 -11 -2q-33 0 -81 19q-54 23 -54 48q0 7 5 14q9 12 34 73q18 44 37 44q7 0 15 -4q36 -17 73 -34q33 -19 33 -40q0 -6 -2 -12zM678 -300q-29 -92 -47 -109q-3 -2 -9 -2q-33 0 -83 20q-57 22 -57 48q0 7 5 14q9 12 34 74q18 45 38 45q7 0 14 -4q37 -17 75 -35
q32 -18 32 -39q0 -6 -2 -12z" />
    <glyph glyph-name="fc9f" unicode="&#xfe91;&#xfee4;" horiz-adv-x="586" arabic-form="initial" 
d="M593 113q1 -21 -23 -66q-26 -49 -49 -49q7 0 -58 42.5t-116 41.5q-40 -1 -164 -41.5t-183 -40.5q1 45 0 166q154 0 264 59q-1 31 -11 77q-10 43 -8 63q9 112 64 221q69 134 162 134q44 0 76 -40q28 -33 28 -61q0 -34 -31 -55q-20 -2 -45 13t-51 15q-45 0 -84 -26
q-47 -31 -52 -83q-7 -79 66 -164q55 -65 115 -95q96 -47 100 -111zM678 -300q-29 -92 -47 -109q-3 -2 -9 -2q-33 0 -83 20q-57 22 -57 48q0 7 5 14q9 12 34 74q18 45 38 45q7 0 14 -4q37 -17 75 -35q32 -18 32 -39q0 -6 -2 -12z" />
    <glyph glyph-name="fca0" unicode="&#xfe91;&#xfeec;" horiz-adv-x="708" arabic-form="initial" 
d="M761 -234q-7 -23 -29 -67q-26 -48 -38 -53q-13 -5 -65 29q-46 31 -52 39.5t-2 20.5q21 64 57 114q7 10 14 7q56 -22 113 -70q6 -6 2 -20zM641 171q-18 20 -53 15q-212 -30 -212 -259q0 -165 110 -312q-1 -41 -3 -71q-5 -71 -15 -73t-21 -2q-106 0 -183 152
q-71 140 -71 305q0 77 19 135q-40 -58 -212 -61v167q136 0 187.5 34.5t78.5 141.5q10 39 35 39q13 0 13 -35q0 -11 -1 -25q-6 -58 -14 -83q-15 -47 -24 -86q-11 -49 -11 -105q0 -133 58 -267q-6 44 -6 90q0 186 77 327q82 151 206 157q110 6 110 -125q0 -98 -36 -98
q-7 0 -17 16z" />
    <glyph glyph-name="fca1" unicode="&#xfe97;&#xfea0;" horiz-adv-x="995" arabic-form="initial" 
d="M680 1504q0 -18 -18 -64q-22 -58 -48 -61q-24 1 -61 35t-49 58q38 108 67 124q10 0 57.5 -35t51.5 -57zM483 1431q5 -17 -12 -67q-19 -53 -37 -54q-17 2 -67 33q-53 33 -56 51q-5 11 60 125q57 -31 112 -88zM1028 377q-2 -37 -45 -98q-16 -23 -29 -24q18 2 -39 3
q-8 0 -37 2q-25 2 -44 2q-116 0 -265 -65q-190 -83 -381 -167q-75 -29 -188 -30v166q128 0 288 60q185 70 191 71q-124 10 -250 40q-113 28 -135 28q-18 0 -31 -5q-23 -8 -38 -5q-19 4 -15 28q10 57 53 111q30 37 140 90q74 34 149 69q122 69 241 224q103 135 126 137
q39 3 65 -50t27 -139q1 -61 -17 -116q-16 -51 -30 -51q-8 0 -12 40l-4 50q-15 96 -68 102q-27 -14 -76 -83q-68 -94 -111 -139q-83 -90 -192 -151l278 -36q184 -23 445 -29q6 0 4 -35zM678 -300q-29 -92 -47 -109q-3 -2 -9 -2q-33 0 -83 20q-57 22 -57 48q0 7 5 14
q9 12 34 74q18 45 38 45q7 0 14 -4q37 -17 75 -35q32 -18 32 -39q0 -6 -2 -12z" />
    <glyph glyph-name="fca2" unicode="&#xfe97;&#xfea4;" horiz-adv-x="995" arabic-form="initial" 
d="M680 1504q0 -18 -18 -64q-22 -58 -48 -61q-24 1 -61 35t-49 58q38 108 67 124q10 0 57.5 -35t51.5 -57zM483 1431q5 -17 -12 -67q-19 -53 -37 -54q-17 2 -67 33q-53 33 -56 51q-5 11 60 125q57 -31 112 -88zM1028 377q-2 -37 -45 -98q-16 -23 -29 -24q18 2 -39 3
q-8 0 -37 2q-25 2 -44 2q-116 0 -265 -65q-190 -83 -381 -167q-75 -29 -188 -30v166q128 0 288 60q185 70 191 71q-124 10 -250 40q-113 28 -135 28q-18 0 -31 -5q-23 -8 -38 -5q-19 4 -15 28q10 57 53 111q30 37 140 90q74 34 149 69q122 69 241 224q103 135 126 137
q39 3 65 -50t27 -139q1 -61 -17 -116q-16 -51 -30 -51q-8 0 -12 40l-4 50q-15 96 -68 102q-27 -14 -76 -83q-68 -94 -111 -139q-83 -90 -192 -151l278 -36q184 -23 445 -29q6 0 4 -35zM2 0z" />
    <glyph glyph-name="fca3" unicode="&#xfe97;&#xfea8;" horiz-adv-x="995" arabic-form="initial" 
d="M680 1504q0 -18 -18 -64q-22 -58 -48 -61q-24 1 -61 35t-49 58q38 108 67 124q10 0 57.5 -35t51.5 -57zM483 1431q5 -17 -12 -67q-19 -53 -37 -54q-17 2 -67 33q-53 33 -56 51q-5 11 60 125q57 -31 112 -88zM1028 377q-2 -37 -45 -98q-16 -23 -29 -24q18 2 -39 3
q-8 0 -37 2q-25 2 -44 2q-116 0 -265 -65q-190 -83 -381 -167q-75 -29 -188 -30v166q128 0 288 60q185 70 191 71q-124 10 -250 40q-113 28 -135 28q-18 0 -31 -5q-23 -8 -38 -5q-19 4 -15 28q10 57 53 111q30 37 140 90q74 34 149 69q122 69 241 224q103 135 126 137
q39 3 65 -50t27 -139q1 -61 -17 -116q-16 -51 -30 -51q-8 0 -12 40l-4 50q-15 96 -68 102q-27 -14 -76 -83q-68 -94 -111 -139q-83 -90 -192 -151l278 -36q184 -23 445 -29q6 0 4 -35zM104 940q-29 -92 -49 -106q-2 -2 -11 -2q-33 0 -81 19q-54 23 -54 48q0 7 5 14
q9 12 34 73q18 44 37 44q7 0 15 -4q36 -17 73 -34q33 -19 33 -40q0 -6 -2 -12z" />
    <glyph glyph-name="fca4" unicode="&#xfe97;&#xfee4;" horiz-adv-x="586" arabic-form="initial" 
d="M493 1194q0 -18 -18 -64q-22 -59 -48 -63q-24 3 -63 38q-34 30 -50 54q40 114 70 125q10 0 55 -33q49 -36 54 -57zM296 1118q4 -15 -14 -65q-19 -53 -35 -54q-17 2 -67 33q-53 33 -56 49q-4 10 25 66q27 52 34 59q52 -20 113 -88zM593 113q1 -21 -23 -66q-26 -49 -49 -49
q7 0 -58 42.5t-116 41.5q-40 -1 -164 -41.5t-183 -40.5v166q154 0 264 59q-1 31 -11 77q-10 43 -8 63q9 112 64 221q69 134 162 134q44 0 76 -40q28 -33 28 -61q0 -34 -31 -55q-20 -2 -45 13t-51 15q-45 0 -84 -26q-47 -31 -52 -83q-7 -79 66 -164q55 -65 115 -95
q96 -47 100 -111z" />
    <glyph glyph-name="fca5" unicode="&#xfe97;&#xfeec;" horiz-adv-x="708" arabic-form="initial" 
d="M717 854q-7 -23 -29 -67q-26 -48 -38 -53q-13 -5 -65 29q-46 31 -52 39.5t-2 20.5q21 64 57 114q7 10 14 7q56 -22 113 -70q6 -6 2 -20zM525 821q-7 -23 -29 -67q-26 -48 -38 -53q-13 -5 -65 29q-46 31 -52 39.5t-2 20.5q21 64 57 114q7 10 14 7q56 -22 113 -70
q6 -6 2 -20zM641 171q-18 20 -53 15q-212 -30 -212 -259q0 -165 110 -312q-1 -41 -3 -71q-5 -71 -15 -73t-21 -2q-106 0 -183 152q-71 140 -71 305q0 77 19 135q-40 -58 -212 -61v167q136 0 187.5 34.5t78.5 141.5q10 39 35 39q13 0 13 -35q0 -11 -1 -25q-6 -58 -14 -83
q-15 -47 -24 -86q-11 -49 -11 -105q0 -133 58 -267q-6 44 -6 90q0 186 77 327q82 151 206 157q110 6 110 -125q0 -98 -36 -98q-7 0 -17 16z" />
    <glyph glyph-name="fca6" unicode="&#xfe9b;&#xfee4;" horiz-adv-x="586" arabic-form="initial" 
d="M380 1291q0 -49 -55 -138q-2 -2 -5 -3q-4 0 -58 42t-52 52q12 55 43 113q0 17 17 17t48 -17q62 -34 62 -66zM515 1087q0 -14 -19 -67q-24 -62 -44 -62q-14 0 -59 38q-48 41 -48 63l16 41q20 49 33 91q121 -51 121 -104zM306 1059q-7 -33 -16 -59q-19 -60 -37 -68
q-17 -8 -113 72q0 19 21 80q24 71 43 71q4 0 6 -2l88 -54q8 -6 8 -40zM593 113q1 -21 -23 -66q-26 -49 -49 -49q7 0 -58 42.5t-116 41.5q-40 -1 -164 -41.5t-183 -40.5v166q154 0 264 59q-1 31 -11 77q-10 43 -8 63q9 112 64 221q69 134 162 134q44 0 76 -40q28 -33 28 -61
q0 -34 -31 -55q-20 -2 -45 13t-51 15q-45 0 -84 -26q-47 -31 -52 -83q-7 -79 66 -164q55 -65 115 -95q96 -47 100 -111z" />
    <glyph glyph-name="fca8" unicode="&#xfe9f;&#xfee4;" horiz-adv-x="1251" arabic-form="initial" 
d="M1325 532q10 -2 10 -17q0 -29 -28 -68q-30 -42 -56 -39q-11 1 -135 25q-99 18 -174 18q-23 0 -221 -33q-234 -40 -318 -72q105 -112 105 -196q0 -65 -12 -89q-14 -29 -80 -12q-126 32 -187 156q-22 -93 -103 -154q-68 -51 -126 -51v166q107 14 168 69q24 21 87 112
q51 74 114 110q31 18 181.5 51t233.5 39q-152 81 -259 96q-1 0 -212 6q-17 0 -17 18q0 29 39 79.5t81 68.5q36 16 131 16q59 0 162 -63q61 -37 219 -117q206 -89 286 -104q26 -1 111 -15zM967 -37q-20 -61 -25 -75q-9 -22 -22 -33q-2 -2 -10 -2q-34 0 -83 19q-56 23 -56 48
q0 7 5 14q9 12 34 75q18 44 39 44q7 0 15 -4q36 -17 73 -34q32 -18 32 -40q0 -5 -2 -12z" />
    <glyph glyph-name="fcaa" unicode="&#xfea3;&#xfee4;" horiz-adv-x="1251" arabic-form="initial" 
d="M1325 532q10 -2 10 -17q0 -29 -28 -68q-30 -42 -56 -39q-11 1 -135 25q-99 18 -174 18q-23 0 -221 -33q-234 -40 -318 -72q105 -112 105 -196q0 -65 -12 -89q-14 -29 -80 -12q-126 32 -187 156q-22 -93 -103 -154q-68 -51 -126 -51v166q107 14 168 69q24 21 87 112
q51 74 114 110q31 18 181.5 51t233.5 39q-152 81 -259 96q-1 0 -212 6q-17 0 -17 18q0 29 39 79.5t81 68.5q36 16 131 16q59 0 162 -63q61 -37 219 -117q206 -89 286 -104q26 -1 111 -15z" />
    <glyph glyph-name="fcac" unicode="&#xfea7;&#xfee4;" horiz-adv-x="1251" arabic-form="initial" 
d="M676 1264q-30 -94 -47 -109q-3 -2 -9 -2q-33 0 -83 20q-57 22 -57 48q0 7 5 14q9 12 34 74q18 44 39 44q6 0 13 -3l74 -34q33 -18 33 -40q0 -6 -2 -12zM1325 532q10 -2 10 -17q0 -29 -28 -68q-30 -42 -56 -39q-11 1 -135 25q-99 18 -174 18q-23 0 -221 -33
q-234 -40 -318 -72q105 -112 105 -196q0 -65 -12 -89q-14 -29 -80 -12q-126 32 -187 156q-22 -93 -103 -154q-68 -51 -126 -51v166q107 14 168 69q24 21 87 112q51 74 114 110q31 18 181.5 51t233.5 39q-152 81 -259 96q-1 0 -212 6q-17 0 -17 18q0 29 39 79.5t81 68.5
q36 16 131 16q59 0 162 -63q61 -37 219 -117q206 -89 286 -104q26 -1 111 -15z" />
    <glyph glyph-name="fcb0" unicode="&#xfeb3;&#xfee4;" horiz-adv-x="1349" arabic-form="initial" 
d="M1359 827q0 -101 -37 -164q-41 -71 -117 -71t-169 72q-46 -77 -76 -100q-63 -50 -184 -50q-84 0 -144 50q-6 4 -84 91q-45 50 -91 50q-51 0 -117 -80.5t-66 -132.5q0 -74 17 -106q9 -19 57 -64q19 -18 121 -68q23 -11 31 -49q7 -70 -23 -135q-5 -14 -24 -11
q-31 17 -61 34q-55 30 -107 30q-4 0 -104.5 -61.5t-180.5 -61.5v166q32 0 116 34t97 54q-18 39 -18 108q0 121 55 261q41 103 116 176q79 76 154 75q26 0 71 -50q65 -71 93 -92q64 -50 139 -50q117 0 195 76q15 15 29 51q11 27 22 55q6 12 37 43q16 16 22 16q4 0 4 -24
q0 -39 -22 -92q20 -14 41 -29q15 -9 57.5 -20t48.5 -11q27 0 27 58q0 21 -3 53q-2 20 9 34q15 19 20 48q5 26 13 26q11 0 23.5 -48.5t12.5 -90.5z" />
    <glyph glyph-name="fcc9" unicode="&#xfedf;&#xfea0;" horiz-adv-x="987" arabic-form="initial" 
d="M1018 419q19 1 19 -26q0 -36 -27 -82q-28 -49 -52 -46q-39 5 -78 5q-147 0 -326 -70l-290 -130q-161 -70 -265 -70v166q86 0 262 63q200 72 232 78q-85 8 -315 55q-42 11 -77 11q-22 0 -45.5 -4.5t-28.5 -4.5q-11 0 -19 8q0 2 47 177q137 -3 255 94q139 113 192 324
q136 539 264 537q44 -1 75 -114q23 -83 23 -117q0 -114 -18 -179q-4 -16 -20 -16q-27 0 -27 17q1 94 -28 162q-25 60 -52 60q-35 0 -62 -72q-13 -35 -94 -318q-46 -161 -85 -238q-68 -133 -171 -182q14 -14 378 -63q216 -29 333 -25zM678 -300q-29 -92 -47 -109q-3 -2 -9 -2
q-33 0 -83 20q-57 22 -57 48q0 7 5 14q9 12 34 74q18 45 38 45q7 0 14 -4q37 -17 75 -35q32 -18 32 -39q0 -6 -2 -12z" />
    <glyph glyph-name="fcca" unicode="&#xfedf;&#xfea4;" horiz-adv-x="987" arabic-form="initial" 
d="M1018 419q19 1 19 -26q0 -36 -27 -82q-28 -49 -52 -46q-39 5 -78 5q-147 0 -326 -70l-290 -130q-161 -70 -265 -70v166q86 0 262 63q200 72 232 78q-85 8 -315 55q-42 11 -77 11q-22 0 -45.5 -4.5t-28.5 -4.5q-11 0 -19 8q0 2 47 177q137 -3 255 94q139 114 192 324
q136 539 264 537q44 -1 75 -114q23 -83 23 -117q0 -114 -18 -179q-4 -16 -20 -16q-27 0 -27 17q1 94 -28 162q-25 60 -52 60q-35 0 -62 -72q-13 -35 -94 -318q-46 -161 -85 -238q-68 -133 -171 -182q14 -14 378 -63q216 -29 333 -25z" />
    <glyph glyph-name="fccb" unicode="&#xfedf;&#xfea8;" horiz-adv-x="987" arabic-form="initial" 
d="M1018 419q19 1 19 -26q0 -36 -27 -82q-28 -49 -52 -46q-39 5 -78 5q-147 0 -326 -70l-290 -130q-161 -70 -265 -70v166q86 0 262 63q200 72 232 78q-85 8 -315 55q-42 11 -77 11q-22 0 -45.5 -4.5t-28.5 -4.5q-11 0 -19 8q0 2 47 177q137 -3 255 94q139 114 192 324
q136 539 264 537q44 -1 75 -114q23 -83 23 -117q0 -114 -18 -179q-4 -16 -20 -16q-27 0 -27 17q1 94 -28 162q-25 60 -52 60q-35 0 -62 -72q-13 -35 -94 -318q-46 -161 -85 -238q-68 -133 -171 -182q14 -14 378 -63q216 -29 333 -25zM102 940q-29 -92 -49 -106q-2 -2 -11 -2
q-33 0 -81 19q-54 23 -54 48q0 7 5 14q9 12 34 73q18 44 37 44q7 0 15 -4q36 -17 73 -34q33 -19 33 -40q0 -6 -2 -12z" />
    <glyph glyph-name="fccc" unicode="&#xfedf;&#xfee4;" horiz-adv-x="525" arabic-form="initial" 
d="M531 164q4 -35 -10 -92q-11 -44 -28 -44q-7 0 -31 10q-60 26 -174 79q-43 -27 -132 -67q-112 -50 -156 -50v166q60 0 118 26q98 44 151 60q-46 253 -131 791q-23 40 -28 115q9 48 14 62q10 29 34 63q10 14 14 14q2 0 12 -49q12 -55 50 -78q21 -12 21 -39q0 -25 -19 -67
q-13 -30 -27 -60q23 -119 82 -471q30 -195 67 -245q13 -18 54 -37q63 -29 89.5 -45t29.5 -42z" />
    <glyph glyph-name="fccd" unicode="&#xfedf;&#xfeec;" horiz-adv-x="811" arabic-form="initial" 
d="M805 391q2 -89 -31 -162q-30 -67 -72 -90q-104 -56 -224 -56q-47 0 -83 9q-13 -24 -127 -56q-131 -36 -268 -36v166q32 0 203 18q28 212 134 334q76 88 132 88q0 34 -27 261q-29 245 -34 351q-23 40 -28 116q9 48 14 62q9 28 34 63q10 14 14 14q1 0 12 -49q11 -55 50 -78
q20 -13 20 -40q0 -24 -18 -66q-14 -30 -27 -60q51 -453 51 -578q8 -21 13 -47q23 -38 123 -66q138 -38 139 -98zM729 305q-80 48 -205 98q-11 -105 -61 -190q71 3 168 31q103 30 103 53q0 4 -5 8zM455 367q0 73 -27 69q-60 -9 -108 -67q-39 -49 -37 -74q0 -43 75 -70
q97 44 97 142z" />
    <glyph glyph-name="fcce" unicode="&#xfee3;&#xfea0;" horiz-adv-x="1001" arabic-form="initial" 
d="M1028 367q-17 -38 -33 -76q-15 -32 -51 -37q-4 -1 -27 1q-29 3 -54 3q-125 0 -273 -55q-111 -41 -396 -161q-98 -42 -194 -42v166q198 0 479 133q-63 5 -222 37q-147 30 -218 31q-12 0 -18.5 18t-2.5 29q16 43 82 113q75 81 160 130q138 80 217 93q-27 16 -27 58
q0 18 7 30q24 45 49 90q26 42 56 42q13 0 28 -7l118 -52q50 -27 50 -57q0 -54 -51 -131q-42 -63 -105 -68q-76 -6 -201 -52q-139 -52 -190 -105q126 -20 385 -58q227 -32 424 -32q31 0 8 -41zM678 -300q-29 -92 -47 -109q-3 -2 -9 -2q-33 0 -83 20q-57 22 -57 48q0 7 5 14
q9 12 34 74q18 45 38 45q7 0 14 -4q37 -17 75 -35q32 -18 32 -39q0 -6 -2 -12z" />
    <glyph glyph-name="fccf" unicode="&#xfee3;&#xfea4;" horiz-adv-x="1001" arabic-form="initial" 
d="M1028 367q-17 -38 -33 -76q-15 -32 -51 -37q-4 -1 -27 1q-29 3 -54 3q-125 0 -273 -55q-111 -41 -396 -161q-98 -42 -194 -42v166q198 0 479 133q-63 5 -222 37q-147 30 -218 31q-12 0 -18.5 18t-2.5 29q16 43 82 113q75 81 160 130q138 80 217 93q-27 16 -27 58
q0 18 7 30q24 45 49 90q26 42 56 42q13 0 28 -7l118 -52q50 -27 50 -57q0 -54 -51 -131q-42 -63 -105 -68q-76 -6 -201 -52q-139 -52 -190 -105q126 -20 385 -58q227 -32 424 -32q31 0 8 -41z" />
    <glyph glyph-name="fcd0" unicode="&#xfee3;&#xfea8;" horiz-adv-x="1001" arabic-form="initial" 
d="M1028 367q-17 -38 -33 -76q-15 -32 -51 -37q-4 -1 -27 1q-29 3 -54 3q-125 0 -273 -55q-111 -41 -396 -161q-98 -42 -194 -42v166q198 0 479 133q-63 5 -222 37q-147 30 -218 31q-12 0 -18.5 18t-2.5 29q16 43 82 113q75 81 160 130q138 80 217 93q-27 16 -27 58
q0 18 7 30q24 45 49 90q26 42 56 42q13 0 28 -7l118 -52q50 -27 50 -57q0 -54 -51 -131q-42 -63 -105 -68q-76 -6 -201 -52q-139 -52 -190 -105q126 -20 385 -58q227 -32 424 -32q31 0 8 -41zM104 940q-29 -92 -49 -106q-2 -2 -11 -2q-33 0 -81 19q-54 23 -54 48q0 7 5 14
q9 12 34 73q18 44 37 44q7 0 15 -4q36 -17 73 -34q33 -19 33 -40q0 -6 -2 -12z" />
    <glyph glyph-name="fcd1" unicode="&#xfee3;&#xfee4;" horiz-adv-x="487" arabic-form="initial" 
d="M670 893q3 -69 -32 -127t-84 -72q-286 -82 -285 -212q1 -66 52 -132q40 -51 65 -60t99 -51q10 -29 5 -82q-4 -54 -20 -88q-7 -15 -20 -10q-24 13 -72 38q-10 5 -82 30q-15 -2 -122 -66q-101 -61 -174 -61q1 45 0 166q40 4 106 33q52 22 104 45q-20 45 -20 117
q0 92 38 195q39 107 110 173q40 28 79 57q-29 23 -23 53q26 138 87 181q12 8 77 -33q71 -44 112 -94z" />
    <glyph glyph-name="fcd2" unicode="&#xfee7;&#xfea0;" horiz-adv-x="995" arabic-form="initial" 
d="M686 1398q-26 -89 -47 -109q-3 -1 -8 -1q-32 0 -82 20q-58 23 -58 48q0 6 5 13q8 11 34 74q18 45 39 45q7 0 15 -4l72 -34q32 -18 32 -40q0 -6 -2 -12zM1028 377q-2 -37 -45 -98q-16 -23 -29 -24q18 2 -39 3q-8 0 -37 2q-25 2 -44 2q-116 0 -265 -65q-190 -83 -381 -167
q-75 -29 -188 -30v166q128 0 288 60q185 70 191 71q-124 10 -250 40q-113 28 -135 28q-18 0 -31 -5q-23 -8 -38 -5q-19 4 -15 28q10 57 53 111q30 37 140 90q74 34 149 69q122 69 241 224q103 135 126 137q39 3 65 -50t27 -139q1 -61 -17 -116q-16 -51 -30 -51q-8 0 -12 40
l-4 50q-15 96 -68 102q-27 -14 -76 -83q-68 -94 -111 -139q-83 -90 -192 -151l278 -36q184 -23 445 -29q6 0 4 -35zM678 -300q-29 -92 -47 -109q-3 -2 -9 -2q-33 0 -83 20q-57 22 -57 48q0 7 5 14q9 12 34 74q18 45 38 45q7 0 14 -4q37 -17 75 -35q32 -18 32 -39
q0 -6 -2 -12z" />
    <glyph glyph-name="fcd3" unicode="&#xfee7;&#xfea4;" horiz-adv-x="995" arabic-form="initial" 
d="M686 1398q-26 -89 -47 -109q-3 -1 -8 -1q-32 0 -82 20q-58 23 -58 48q0 6 5 13q8 11 34 74q18 45 39 45q7 0 15 -4l72 -34q32 -18 32 -40q0 -6 -2 -12zM1028 377q-2 -37 -45 -98q-16 -23 -29 -24q18 2 -39 3q-8 0 -37 2q-25 2 -44 2q-116 0 -265 -65q-190 -83 -381 -167
q-75 -29 -188 -30v166q128 0 288 60q185 70 191 71q-124 10 -250 40q-113 28 -135 28q-18 0 -31 -5q-23 -8 -38 -5q-19 4 -15 28q10 57 53 111q30 37 140 90q74 34 149 69q122 69 241 224q103 135 126 137q39 3 65 -50t27 -139q1 -61 -17 -116q-16 -51 -30 -51q-8 0 -12 40
l-4 50q-15 96 -68 102q-27 -14 -76 -83q-68 -94 -111 -139q-83 -90 -192 -151l278 -36q184 -23 445 -29q6 0 4 -35z" />
    <glyph glyph-name="fcd4" unicode="&#xfee7;&#xfea8;" horiz-adv-x="995" arabic-form="initial" 
d="M686 1398q-26 -89 -47 -109q-3 -1 -8 -1q-32 0 -82 20q-58 23 -58 48q0 6 5 13q8 11 34 74q18 45 39 45q7 0 15 -4l72 -34q32 -18 32 -40q0 -6 -2 -12zM1028 377q-2 -37 -45 -98q-16 -23 -29 -24q18 2 -39 3q-8 0 -37 2q-25 2 -44 2q-116 0 -265 -65q-190 -83 -381 -167
q-75 -29 -188 -30v166q128 0 288 60q185 70 191 71q-124 10 -250 40q-113 28 -135 28q-18 0 -31 -5q-23 -8 -38 -5q-19 4 -15 28q10 57 53 111q30 37 140 90q74 34 149 69q122 69 241 224q103 135 126 137q39 3 65 -50t27 -139q1 -61 -17 -116q-16 -51 -30 -51q-8 0 -12 40
l-4 50q-15 96 -68 102q-27 -14 -76 -83q-68 -94 -111 -139q-83 -90 -192 -151l278 -36q184 -23 445 -29q6 0 4 -35zM104 940q-29 -92 -49 -106q-2 -2 -11 -2q-33 0 -81 19q-54 23 -54 48q0 7 5 14q9 12 34 73q18 44 37 44q7 0 15 -4q36 -17 73 -34q33 -19 33 -40
q0 -6 -2 -12z" />
    <glyph glyph-name="fcd5" unicode="&#xfee7;&#xfee4;" horiz-adv-x="586" arabic-form="initial" 
d="M445 1241q-20 -63 -25 -75q-9 -21 -22 -31q-3 -2 -9 -2q-33 0 -82 19q-57 23 -57 48q0 7 5 14q9 12 35 75q19 44 39 44q7 0 14 -4q36 -18 72 -35q32 -19 32 -40q0 -6 -2 -13zM593 113q1 -21 -23 -66q-26 -49 -49 -49q7 0 -58 42.5t-116 41.5q-40 -1 -164 -41.5
t-183 -40.5v166q154 0 264 59q-1 31 -11 77q-10 43 -8 63q9 112 64 221q69 134 162 134q44 0 76 -40q28 -33 28 -61q0 -34 -31 -55q-20 -2 -45 13t-51 15q-45 0 -84 -26q-47 -31 -52 -83q-7 -79 66 -164q55 -65 115 -95q96 -47 100 -111z" />
    <glyph glyph-name="fcd6" unicode="&#xfee7;&#xfeec;" horiz-adv-x="708" arabic-form="initial" 
d="M560 716q-7 -23 -29 -67q-26 -48 -38 -53q-13 -5 -65 29q-46 31 -52 39.5t-2 20.5q21 64 57 114q7 10 14 7q56 -22 113 -70q6 -6 2 -20zM641 171q-18 20 -53 15q-212 -30 -212 -259q0 -165 110 -312q-1 -41 -3 -71q-5 -71 -15 -73t-21 -2q-106 0 -183 152
q-71 140 -71 305q0 77 19 135q-40 -58 -212 -61v167q136 0 187.5 34.5t78.5 141.5q10 39 35 39q13 0 13 -35q0 -11 -1 -25q-6 -58 -14 -83q-15 -47 -24 -86q-11 -49 -11 -105q0 -133 58 -267q-6 44 -6 90q0 186 77 327q82 151 206 157q110 6 110 -125q0 -98 -36 -98
q-7 0 -17 16z" />
    <glyph glyph-name="uFCD8" unicode="&#xfeeb;&#xfee4;" horiz-adv-x="1156" arabic-form="initial" 
d="M1134 734q8 -41 8 -76q0 -86 -50 -128q-36 -31 -77 -29q-47 2 -263 64q-114 -100 -217 -119q93 -60 85 -166q-5 -67 -30 -123q-33 -75 -89 -75q-14 0 -28 4q-132 41 -168 128q-17 -99 -129 -162q-91 -52 -176 -52v166q118 0 203 46q73 40 86 88q0 70 17 104q0 16 26.5 36
t57.5 27q21 10 66 33q35 15 168 101q-47 19 -47 85q0 99 92 247l2 115q9 24 30 55q7 4 19 4q78 0 229 -126q162 -134 185 -247zM1081 628q-77 147 -186 210q-9 -69 -12 -83q-13 -48 -47 -90q43 -11 113 -30q84 -22 91 -22q24 0 41 15zM814 745q8 128 -55 130q-49 1 -79 -49
q-21 -41 -41 -83q14 -28 113 -56q41 32 62 58zM545 263q-33 55 -83 90.5t-92 35.5q-20 0 -20 -9q0 -27 55 -77q59 -54 104 -54q21 0 36 14z" />
    <glyph glyph-name="fcda" unicode="&#xfef3;&#xfea0;" horiz-adv-x="995" arabic-form="initial" 
d="M1028 377q-2 -37 -45 -98q-16 -23 -29 -24q18 2 -39 3q-8 0 -37 2q-25 2 -44 2q-116 0 -265 -65q-190 -83 -381 -167q-75 -29 -188 -30v166q128 0 288 60q185 70 191 71q-124 10 -250 40q-113 28 -135 28q-18 0 -31 -5q-23 -8 -38 -5q-19 4 -15 28q10 57 53 111
q30 37 140 90q74 34 149 69q122 69 241 224q103 135 126 137q39 3 65 -50t27 -139q1 -61 -17 -116q-16 -51 -30 -51q-8 0 -12 40l-4 50q-15 96 -68 102q-27 -14 -76 -83q-68 -94 -111 -139q-83 -90 -192 -151l278 -36q184 -23 445 -29q6 0 4 -35zM1096 -14q0 -17 -18 -62
q-22 -58 -48 -61q-24 1 -63 36q-35 31 -47 56q9 26 32 70q25 49 35 53q10 0 55 -33q49 -37 54 -59zM899 -86q5 -17 -12.5 -69t-34.5 -52q-18 0 -70 32.5t-55 49.5q-10 22 59 125q47 -16 113 -86zM562 -300q-29 -92 -47 -109q-3 -2 -9 -2q-33 0 -83 20q-57 22 -57 48
q0 7 5 14q9 12 34 74q18 45 38 45q7 0 14 -4q37 -17 75 -35q32 -18 32 -39q0 -6 -2 -12z" />
    <glyph glyph-name="fcdb" unicode="&#xfef3;&#xfea4;" horiz-adv-x="995" arabic-form="initial" 
d="M1028 377q-2 -37 -45 -98q-16 -23 -29 -24q18 2 -39 3q-8 0 -37 2q-25 2 -44 2q-116 0 -265 -65q-190 -83 -381 -167q-75 -29 -188 -30v166q128 0 288 60q185 70 191 71q-124 10 -250 40q-113 28 -135 28q-18 0 -31 -5q-23 -8 -38 -5q-19 4 -15 28q10 57 53 111
q30 37 140 90q74 34 149 69q122 69 241 224q103 135 126 137q39 3 65 -50t27 -139q1 -61 -17 -116q-16 -51 -30 -51q-8 0 -12 40l-4 50q-15 96 -68 102q-27 -14 -76 -83q-68 -94 -111 -139q-83 -90 -192 -151l278 -36q184 -23 445 -29q6 0 4 -35zM1034 -76q0 -17 -17 -63
q-22 -59 -48 -62q-24 1 -64 36q-35 31 -49 56q38 110 70 125q10 0 55 -34q49 -37 53 -58zM838 -150q5 -16 -13 -66q-20 -53 -37 -54q-17 2 -66 33q-53 33 -56 51q-6 12 59 125q60 -33 113 -89z" />
    <glyph glyph-name="fcdc" unicode="&#xfef3;&#xfea8;" horiz-adv-x="995" arabic-form="initial" 
d="M1028 377q-2 -37 -45 -98q-16 -23 -29 -24q18 2 -39 3q-8 0 -37 2q-25 2 -44 2q-116 0 -265 -65q-190 -83 -381 -167q-75 -29 -188 -30q-1 45 0 166q128 0 288 60q185 70 191 71q-124 10 -250 40q-113 28 -135 28q-18 0 -31 -5q-23 -8 -38 -5q-19 4 -15 28q10 57 53 111
q30 37 140 90q74 34 149 69q122 69 241 224q103 135 126 137q39 3 65 -50t27 -139q1 -61 -17 -116q-16 -51 -30 -51q-8 0 -12 40l-4 50q-15 96 -68 102q-27 -14 -76 -83q-68 -94 -111 -139q-83 -90 -192 -151l278 -36q184 -23 445 -29q6 0 4 -35zM104 940q-29 -92 -49 -106
q-2 -2 -11 -2q-33 0 -81 19q-54 23 -54 48q0 7 5 14q9 12 34 73q18 44 37 44q7 0 15 -4q36 -17 73 -34q33 -19 33 -40q0 -6 -2 -12zM1034 -76q0 -17 -17 -63q-22 -59 -48 -62q-24 1 -64 36q-35 31 -49 56q38 110 70 125q10 0 55 -34q49 -37 53 -58zM838 -150q5 -16 -13 -66
q-20 -53 -37 -54q-17 2 -66 33q-53 33 -56 51q-6 12 59 125q60 -33 113 -89z" />
    <glyph glyph-name="fcdd" unicode="&#xfef3;&#xfee4;" horiz-adv-x="586" arabic-form="initial" 
d="M593 113q1 -21 -23 -66q-26 -49 -49 -49q7 0 -58 42.5t-116 41.5q-40 -1 -164 -41.5t-183 -40.5v166q154 0 264 59q-1 31 -11 77q-10 43 -8 63q9 112 64 221q69 134 162 134q44 0 76 -40q28 -33 28 -61q0 -34 -31 -55q-20 -2 -45 13t-51 15q-45 0 -84 -26
q-47 -31 -52 -83q-7 -79 66 -164q55 -65 115 -95q96 -47 100 -111zM629 -210q0 -17 -16 -63q-22 -58 -47 -61q-25 1 -64 36q-37 32 -47 56q7 24 31.5 71.5t35.5 53.5q11 0 55 -34q49 -37 52 -59zM434 -283q4 -17 -13 -67q-19 -53 -36 -54q-17 2 -67 33q-53 33 -56 51
q-5 8 25 65q27 52 35 60q58 -29 112 -88z" />
    <glyph glyph-name="fd30" unicode="&#xfeb7;&#xfee4;" horiz-adv-x="1349" arabic-form="initial" 
d="M889 1582q0 -42 -53 -137q-2 -3 -5 -3q-6 0 -57 40q-56 44 -53 55q9 32 43 113q0 16 17 16q18 0 46 -16q62 -36 62 -68zM1026 1377q0 -13 -19 -66q-24 -63 -44 -63q-14 0 -59 38q-48 41 -48 63l16 41q20 49 33 92q121 -55 121 -105zM817 1349q-7 -33 -16 -59
q-19 -59 -37 -68q-18 -8 -113 71q0 20 21 82q24 72 43 72q4 -1 6 -2q44 -26 88 -53q8 -7 8 -43zM1359 827q0 -101 -37 -164q-41 -71 -117 -71t-169 72q-46 -77 -76 -100q-63 -50 -184 -50q-84 0 -144 50q-6 4 -84 91q-45 50 -91 50q-51 0 -117 -80.5t-66 -132.5
q0 -74 17 -106q9 -19 57 -64q19 -18 121 -68q23 -11 31 -49q7 -70 -23 -135q-5 -14 -24 -11q-31 17 -61 34q-55 30 -107 30q-4 0 -104.5 -61.5t-180.5 -61.5v166q32 0 116 34t97 54q-18 39 -18 108q0 121 55 261q41 103 116 176q79 76 154 75q26 0 71 -50q65 -71 93 -92
q64 -50 139 -50q117 0 195 76q15 15 29 51q11 27 22 55q6 12 37 43q16 16 22 16q4 0 4 -24q0 -39 -22 -92q20 -14 41 -29q15 -9 57.5 -20t48.5 -11q27 0 27 58q0 21 -3 53q-2 20 9 34q15 19 20 48q5 26 13 26q11 0 23.5 -48.5t12.5 -90.5z" />
    <glyph glyph-name="fd88" unicode="&#xfedf;&#xfee4;&#xfea4;" horiz-adv-x="1020" arabic-form="initial" 
d="M1096 408q0 -14 -9 -30q-17 -26 -22 -38q-9 -34 -27 -72q-12 -7 -26 -7q-8 0 -50 8.5t-83 8.5q-119 0 -297 -65q-143 -58 -286 -117q-209 -84 -296 -96v166q128 11 291 69q110 44 221 87q-73 4 -221 33q-139 26 -186 26q-44 0 -64 -14q-7 -7 -12 -7q-8 0 -8 19
q0 31 12 59q18 66 47 94q187 178 395 246q-16 122 -48 332q-11 31 -35 151q0 19 23 75q25 61 39 61q7 0 10 -13q18 -74 72 -129q0 -70 -30 -136q13 -119 43 -270q34 -45 115 -85q68 -33 77 -66q8 -97 -16 -131q-2 -11 -17 -11q-21 0 -108 40t-115 39q-61 -2 -155 -41
q-89 -36 -103 -59q23 -32 371 -68q164 -18 465 -43q33 -2 33 -16z" />
    <glyph glyph-name="fef5" unicode="&#xfedf;&#xfe82;" horiz-adv-x="1153" arabic-form="isolated" 
d="M1051 1660q-12 -67 -87 -115q-198 -125 -428 -125q-202 0 -244 50q-28 -19 -45 -45q-23 -36 -35 -49h-17q-6 4 -12 28q-5 18 60 113t87 100q5 2 29 -11q38 -20 70 -33q99 -39 202 -28q266 30 403 161q24 0 17 -46zM1518 1440q-45 -82 -265 -378q-208 -280 -370 -489
q89 -164 82 -240q-7 -77 -8 -85q-8 -50 -25 -76q-120 -140 -228 -140q-44 0 -70 53q-22 45 -22 102q0 67 45 176q40 94 86 161q-96 96 -337 286q-123 97 -179 125q-3 -18 -33 -18q-51 0 -115 39q-71 44 -78 96q0 110 9 150q6 27 45 27q67 0 183 -83q252 -179 589 -504
q85 116 351 467q113 142 297 380q21 28 35 28q19 0 19 -34q0 -24 -11 -43zM882 332q0 46 -77 128q-28 -47 -57 -94q-43 -77 -46 -117q22 -10 47 -10q48 0 93 35q40 32 40 58z" />
    <glyph glyph-name="fef6" unicode="&#xfee0;&#xfe82;" horiz-adv-x="1038" arabic-form="final" 
d="M832 1351q-11 -67 -87 -115q-197 -125 -428 -125q-201 0 -244 50q-27 -18 -44 -44q-23 -36 -36 -50q-16 0 -16 1q-6 3 -13 27q-4 19 61 113.5t86 99.5q6 2 30 -10q38 -21 69 -34q99 -39 202 -28q267 30 403 161q25 0 17 -46zM1039 0q-59 0 -98 20q-90 46 -144 237
q-40 140 -52 316q-6 93 -53 284l-3 -311q-2 -365 -227 -523q-190 -133 -388 -168q-38 -7 -53 -7q-12 0 -12 4q0 3 134 92q95 63 195 147q96 81 116 113q-27 139 -101 260q-39 64 -170 195q-13 -23 -30 -23q-6 0 -33 14q-50 25 -79 47q-13 27 -36 73q-8 38 -8 82q0 87 35 87
q10 0 23 -8q146 -91 225 -178q87 -95 148 -243q40 -96 62 -266q67 76 105 205q27 88 29 149l9 234l2 132q5 92 29 164q13 11 23 11q32 0 60 -145q14 -73 74 -486q17 -117 61 -209q64 -133 157 -133v-166z" />
    <glyph glyph-name="fef7" unicode="&#xfedf;&#xfe84;" horiz-adv-x="1153" arabic-form="isolated" 
d="M528 1504q4 1 7 1q9 0 9 -12q0 -38 -30 -75t-115 -74q-96 -43 -133 -75q-21 -6 -32 -3q-13 1 -13 10q0 29 81 87q-54 11 -55 12q-22 12 -40 61q54 177 153 177q31 0 50 -23q11 -11 -4 -78q-8 -9 -17 -17t-38 -3q-6 1 -6.5 13t-4.5 12q-67 -9 -67 -37q33 -34 66 -42
q27 -7 54 -13q42 15 75 38q46 33 60 41zM1518 1440q-45 -82 -265 -378q-208 -280 -370 -489q89 -164 82 -240q-7 -77 -8 -85q-8 -50 -25 -76q-120 -140 -228 -140q-44 0 -70 53q-22 45 -22 102q0 67 45 176q40 94 86 161q-96 96 -337 286q-123 97 -179 125q-3 -18 -33 -18
q-51 0 -115 39q-71 44 -78 96q0 110 9 150q6 27 45 27q67 0 183 -83q252 -179 589 -504q85 116 351 467q113 142 297 380q21 28 35 28q19 0 19 -34q0 -24 -11 -43zM882 332q0 46 -77 128q-28 -47 -57 -94q-43 -77 -46 -117q22 -10 47 -10q48 0 93 35q40 32 40 58z" />
    <glyph glyph-name="fef8" unicode="&#xfee0;&#xfe84;" horiz-adv-x="1039" arabic-form="final" 
d="M475 1315q4 1 7 1q9 0 9 -12q0 -38 -30 -75t-115 -74q-96 -43 -133 -75q-21 -6 -32 -3q-13 1 -13 10q0 29 81 87q-54 11 -55 12q-22 12 -40 61q54 177 153 177q31 0 50 -23q11 -11 -4 -78q-8 -9 -17 -17t-38 -3q-6 1 -6.5 13t-4.5 12q-67 -9 -67 -37q33 -34 66 -42
q27 -7 54 -13q42 15 75 38q46 33 60 41zM1039 0q-59 0 -98 20q-90 46 -144 237q-40 140 -52 316q-6 93 -53 284l-3 -311q-2 -365 -227 -523q-190 -133 -388 -168q-38 -7 -53 -7q-12 0 -12 4q0 3 134 92q95 63 195 147q96 81 116 113q-27 139 -101 260q-39 64 -170 195
q-13 -23 -30 -23q-6 0 -33 14q-50 25 -79 47q-13 27 -36 73q-8 38 -8 82q0 87 35 87q10 0 23 -8q146 -91 225 -178q87 -95 148 -243q40 -96 62 -266q67 76 105 205q27 88 29 149l9 234l2 132q5 92 29 164q13 11 23 11q32 0 60 -145q14 -73 74 -486q17 -117 61 -209
q64 -133 157 -133v-166z" />
    <glyph glyph-name="fef9" unicode="&#xfedf;&#xfe88;" horiz-adv-x="1153" arabic-form="isolated" 
d="M1518 1440q-45 -82 -265 -378q-208 -280 -370 -489q89 -164 82 -240q-7 -77 -8 -85q-8 -50 -25 -76q-120 -140 -228 -140q-44 0 -70 53q-22 45 -22 102q0 67 45 176q40 94 86 161q-96 96 -337 286q-123 97 -179 125q-3 -18 -33 -18q-51 0 -115 39q-71 44 -78 96
q0 110 9 150q6 27 45 27q67 0 183 -83q252 -179 589 -504q85 116 351 467q113 142 297 380q21 28 35 28q19 0 19 -34q0 -24 -11 -43zM609 -273q4 1 7 1q9 0 9 -12q0 -38 -30 -75t-115 -74q-96 -43 -133 -75q-21 -6 -32 -3q-13 1 -13 10q0 29 81 87q-54 11 -55 12
q-22 12 -40 61q54 177 153 177q31 0 50 -23q11 -11 -4 -78q-8 -9 -17 -17t-38 -3q-6 1 -6.5 13t-4.5 12q-67 -9 -67 -37q33 -34 66 -43l54 -12q42 15 75 38q46 33 60 41zM882 332q0 46 -77 128q-28 -47 -57 -94q-43 -77 -46 -117q22 -10 47 -10q48 0 93 35q40 32 40 58z" />
    <glyph glyph-name="fefa" unicode="&#xfee0;&#xfe88;" horiz-adv-x="1039" arabic-form="final" 
d="M1039 0q-59 0 -98 20q-90 46 -144 237q-40 140 -52 316q-6 93 -53 284l-3 -311q-2 -365 -227 -523q-190 -133 -388 -168q-38 -7 -53 -7q-12 0 -12 4q0 3 134 92q95 63 195 147q96 81 116 113q-27 139 -101 260q-39 64 -170 195q-13 -23 -30 -23q-6 0 -33 14
q-50 25 -79 47q-13 27 -36 73q-8 38 -8 82q0 87 35 87q10 0 23 -8q146 -91 225 -178q87 -95 148 -243q40 -96 62 -266q67 76 105 205q27 88 29 149l9 234l2 132q5 92 29 164q13 11 23 11q32 0 60 -145q14 -73 74 -486q17 -117 61 -209q64 -133 157 -133v-166zM609 -273
q4 1 7 1q9 0 9 -12q0 -38 -30 -75t-115 -74q-96 -43 -133 -75q-21 -6 -32 -3q-13 1 -13 10q0 29 81 87q-54 11 -55 12q-22 12 -40 61q54 177 153 177q31 0 50 -23q11 -11 -4 -78q-8 -9 -17 -17t-38 -3q-6 1 -6.5 13t-4.5 12q-67 -9 -67 -37q33 -34 66 -43l54 -12
q42 15 75 38q46 33 60 41z" />
    <glyph glyph-name="fefb" unicode="&#xfedf;&#xfe8e;" horiz-adv-x="1153" arabic-form="isolated" 
d="M1518 1440q-45 -82 -265 -378q-208 -280 -370 -489q89 -164 82 -240q-7 -77 -8 -85q-8 -50 -25 -76q-120 -140 -228 -140q-44 0 -70 53q-22 45 -22 102q0 67 45 176q40 94 86 161q-96 96 -337 286q-123 97 -179 125q-3 -18 -33 -18q-51 0 -115 39q-71 44 -78 96
q0 110 9 150q6 27 45 27q67 0 183 -83q252 -179 589 -504q85 116 351 467q113 142 297 380q21 28 35 28q19 0 19 -34q0 -24 -11 -43zM882 332q0 46 -77 128q-28 -47 -57 -94q-43 -77 -46 -117q22 -10 47 -10q48 0 93 35q40 32 40 58z" />
    <glyph glyph-name="fefc" unicode="&#xfee0;&#xfe8e;" horiz-adv-x="1039" arabic-form="final" 
d="M1039 0q-59 0 -98 20q-90 46 -144 237q-40 140 -52 316q-6 93 -53 284l-3 -311q-2 -365 -227 -523q-190 -133 -388 -168q-38 -7 -53 -7q-12 0 -12 4q0 3 134 92q95 63 195 147q96 81 116 113q-27 139 -101 260q-39 64 -170 195q-13 -23 -30 -23q-6 0 -33 14
q-50 25 -79 47q-13 27 -36 73q-8 38 -8 82q0 87 35 87q10 0 23 -8q146 -91 225 -178q87 -95 148 -243q40 -96 62 -266q67 76 105 205q27 88 29 149l9 234l2 132q5 92 29 164q13 11 23 11q32 0 60 -145q14 -73 74 -486q17 -117 61 -209q64 -133 157 -133v-166z" />
    <glyph glyph-name="fb56" unicode="&#x67e;" horiz-adv-x="1179" arabic-form="isolated" 
d="M1177 367q0 -80 -49 -193q-99 -102 -339.5 -176t-475.5 -74q-136 0 -225.5 88.5t-89.5 218.5q0 20 21 96q27 98 59 128q9 3 15 3q11 0 11 -14q0 -8 -9.5 -53t-9.5 -78t9 -63q19 -63 108.5 -106.5t194.5 -43.5q138 0 359 54q338 83 338 163q0 30 -37 81t-37 67q0 11 20 67
t27 68q110 -127 110 -233zM895 -197q0 -19 -21 -80q-24 -71 -43 -71q-4 0 -6 2l-88 54q-8 6 -8 40q7 33 16 59q19 60 37 68q17 8 113 -72zM690 -252l-16 -41q-20 -49 -33 -91q-121 51 -121 104q0 14 20 67q23 62 43 62q14 0 59 -38q48 -41 48 -63zM825 -437
q-12 -55 -43 -113q0 -17 -17 -17t-48 17q-62 34 -62 66q0 49 55 138q2 2 5 3q4 0 58 -42t52 -52z" />
    <glyph glyph-name="fb57" unicode="&#x67e;" horiz-adv-x="1469" arabic-form="final" 
d="M1469 0q-81 0 -186 154q-32 -41 -49 -58q-32 -31 -71 -53q-34 -19 -224 -64q-256 -61 -452 -61q-192 0 -326 68q-161 82 -161 237q0 50 36 148.5t59 98.5q4 0 7 -3q6 -7 0 -30q-10 -33 -10 -36q-9 -76 0 -106q58 -197 445 -197q423 0 713 140q24 12 35 38q6 17 12 35
q10 23 18 23q10 0 15 -26.5t2 -41.5q-3 -18 -14 -57q60 -43 151 -43v-166zM864 -386q0 -19 -21 -80q-24 -71 -43 -71q-4 0 -6 2l-88 54q-8 6 -8 40q7 33 16 59q19 60 37 68q17 8 113 -72zM659 -441l-16 -41q-20 -49 -33 -91q-121 51 -121 104q0 14 20 67q23 62 43 62
q14 0 59 -38q48 -41 48 -63zM794 -626q-12 -55 -43 -113q0 -17 -17 -17t-48 17q-62 34 -62 66q0 49 55 138q2 2 5 3q4 0 58 -42t52 -52z" />
    <glyph glyph-name="fb58" unicode="&#x67e;" horiz-adv-x="268" arabic-form="initial" 
d="M180 238q0 -98 -39 -181q-27 -57 -141 -57v166q93 0 102 49q-12 34 -44 79q-26 36 -31 75q13 43 45 114q4 2 8 2q28 0 56 -59q33 -70 44 -188zM336 -634q0 -19 -21 -80q-24 -71 -43 -71q-4 0 -6 2l-88 54q-8 6 -8 40q7 33 16 59q19 60 37 68q17 8 113 -72zM131 -689
l-16 -41q-20 -49 -33 -91q-121 51 -121 104q0 14 19 67q24 62 44 62q14 0 59 -38q48 -41 48 -63zM266 -874q-12 -55 -43 -113q0 -17 -17 -17t-48 17q-62 34 -62 66q0 49 55 138q2 2 5 3q4 0 58 -42t52 -52z" />
    <glyph glyph-name="fb59" unicode="&#x67e;" horiz-adv-x="451" arabic-form="medial" 
d="M451 0q-21 0 -67 17q-58 22 -96 53q-15 13 -58 100q-64 -94 -71 -101q-66 -69 -159 -69v166q71 0 134 27q40 17 80 92q36 67 58 67q7 0 16 -5q0 -5 -2 -27t-2 -37q3 -24 63 -69q63 -48 104 -48v-166zM460 -631q0 -19 -21 -80q-24 -71 -43 -71q-4 0 -6 2l-88 54
q-8 6 -8 40q7 33 16 59q19 60 37 68q17 8 113 -72zM255 -686l-16 -41q-20 -49 -33 -91q-121 51 -121 104q0 14 20 67q23 62 43 62q14 0 59 -38q48 -41 48 -63zM390 -871q-12 -55 -43 -113q0 -17 -17 -17t-48 17q-62 34 -62 66q0 49 55 138q2 2 5 3q4 0 58 -42t52 -52z" />
    <glyph glyph-name="fb66" unicode="&#x679;" horiz-adv-x="1164" arabic-form="isolated" 
d="M1177 367q0 -80 -49 -193q-99 -102 -339.5 -176t-475.5 -74q-136 0 -225.5 88.5t-89.5 218.5q0 20 21 96q27 98 59 128q9 3 15 3q11 0 11 -14q0 -8 -9.5 -53t-9.5 -78t9 -63q19 -63 108.5 -106.5t194.5 -43.5q138 0 359 54q338 83 338 163q0 30 -37 81t-37 67q0 11 20 67
t27 68q110 -127 110 -233zM678 704q1 -54 -33 -106q-81 -74 -272 -80q-6 0 -95 40q-7 8 0 8q32 1 116 8q2 10 14 31q0 17 -30 185q-12 67 -12 92q-20 26 -21 57q11 15 26 51q3 5 6 5q-1 0 14 -24q10 -7 21 -21q6 -22 -10 -48q0 -13 36 -192q6 -33 4 -51q-4 -30 -4 -31
q117 114 160 114q24 0 52 -13.5t28 -24.5zM636 658q-26 24 -58 24q-31 0 -127 -100q92 7 157 39q10 16 28 37z" />
    <glyph glyph-name="fb67" unicode="&#x679;" horiz-adv-x="1469" arabic-form="final" 
d="M1469 0q-81 0 -186 154q-32 -41 -49 -58q-32 -31 -71 -53q-34 -19 -224 -64q-256 -61 -452 -61q-192 0 -326 68q-161 82 -161 237q0 50 36 148.5t59 98.5q4 0 7 -3q6 -7 0 -30q-10 -33 -10 -36q-9 -76 0 -106q58 -197 445 -197q423 0 713 140q24 12 35 38q6 17 12 35
q10 23 18 23q10 0 15 -26.5t2 -41.5q-3 -18 -14 -57q60 -43 151 -43v-166zM900 612q1 -54 -33 -106q-81 -74 -272 -80q-6 0 -95 40q-7 8 0 8q32 1 116 8q2 10 14 31q0 17 -30 185q-12 67 -12 92q-20 26 -21 57q11 15 26 51q3 5 6 5q-1 0 14 -24q10 -7 21 -21q6 -22 -10 -48
q0 -13 36 -192q6 -33 4 -51q-4 -30 -4 -31q117 114 160 114q24 0 52 -13.5t28 -24.5zM858 566q-26 24 -58 24q-31 0 -127 -100q92 7 157 39q10 16 28 37z" />
    <glyph glyph-name="fb68" unicode="&#x679;" horiz-adv-x="246" arabic-form="initial" 
d="M180 238q0 -98 -39 -181q-27 -57 -141 -57v166q93 0 102 49q-12 34 -44 79q-26 36 -31 75q13 43 45 114q4 2 8 2q28 0 56 -59q33 -70 44 -188zM228 876q1 -54 -33 -106q-81 -74 -272 -80q-6 0 -95 40q-7 8 0 8q32 1 116 8q2 10 14 31q0 17 -30 185q-12 67 -12 92
q-20 26 -21 57q10 15 26 51q3 5 6 5q-1 0 14 -24q10 -7 21 -21q6 -22 -10 -48q0 -13 36 -192q6 -33 4 -51q-4 -30 -4 -31q117 114 160 114q24 0 52 -13.5t28 -24.5zM186 830q-26 24 -58 24q-31 0 -127 -100q92 7 157 39q10 16 28 37z" />
    <glyph glyph-name="fb69" unicode="&#x679;" horiz-adv-x="452" arabic-form="medial" 
d="M320 762q1 -43 -26 -85q-65 -59 -218 -64q-5 0 -76 32q-4 5 0 7q26 1 93 6q2 8 11 25q0 13 -24 148q-9 54 -9 74q-16 21 -17 45q8 12 21 41q3 5 16 -15q7 -6 17 -17q4 -18 -8 -38q0 -11 28 -154v-66q94 92 128 92q20 0 42 -11t22 -20zM287 725q-21 20 -47 20
q-24 0 -101 -80q74 5 125 31q8 12 23 29zM451 0q-65 0 -133 35t-98 89q-25 -37 -94 -78q-76 -46 -126 -46v166q89 0 178 70q44 34 73 79q12 18 20 18q19 0 17 -53q-1 -23 -9 -43q3 -21 65 -46t107 -25v-166z" />
    <glyph glyph-name="fb7a" unicode="&#x686;" horiz-adv-x="758" arabic-form="isolated" 
d="M820 -148q0 -19 -21 -80q-24 -71 -43 -71q-4 0 -6 2l-88 54q-8 6 -8 40q7 33 16 59q19 60 37 68q17 8 113 -72zM1297 -766q-19 -15 -107 -52q-98 -41 -152 -75q-212 -88 -436 -88q-615 0 -608 602q3 252 85 428.5t269 333.5q-30 3 -180 -8q-65 -5 -141 -28
q-66 -21 -140 -21q-14 49 -12 55q68 187 312 187q55 0 142.5 -10.5t110.5 -10.5q60 0 148 14q94 16 121 17q69 3 96 -15q-22 -70 -49 -145q-4 -3 -160.5 -58t-273.5 -141q-149 -109 -216 -287q-45 -120 -45 -239q0 -479 637 -479q126 0 260 18q217 28 339 39q11 -18 11 -19
q0 -9 -11 -18zM615 -203l-16 -41q-20 -49 -33 -91q-121 51 -121 104q0 14 20 67q23 62 43 62q14 0 59 -38q48 -41 48 -63zM750 -388q-12 -55 -43 -113q0 -17 -17 -17t-48 17q-62 34 -62 66q0 49 55 138q2 2 5 3q4 0 58 -42t52 -52z" />
    <glyph glyph-name="fb7b" unicode="&#x686;" horiz-adv-x="952" arabic-form="final" 
d="M820 -148q0 -19 -21 -80q-24 -71 -43 -71q-4 0 -6 2l-88 54q-8 6 -8 40q7 33 16 59q19 60 37 68q17 8 113 -72zM1426 -799q2 4 3 -16q2 -16 -15 -29q-21 -17 -118 -55q-100 -40 -147 -72q-143 -49 -164 -53q-98 -23 -264 -23q-606 0 -606 594q0 157 47 317
q43 147 106 238q88 127 201 211q-12 2 -100 2q-71 0 -177 -30.5t-176 -30.5q-1 5 -13 21q-9 13 -7 20q30 83 80 143q40 27 69 33q76 24 153 24q32 0 124 -9q80 -8 139 -5q71 3 199 16q116 11 131 11q44 0 35 -37q-17 -48 -49 -121q-37 -14 -123 -49q0 -4 -3 -36
q-3 -26 -1 -41q3 -21 16 -29q47 -29 186 -29v-166q-42 2 -78 10q-85 19 -120 62q-49 59 -49 141q0 19 3 43t3 27q-81 -31 -148 -65q-161 -82 -225 -169q-78 -106 -110 -196q-33 -96 -33 -228q0 -481 634 -481q126 0 258 17q224 30 339 40zM615 -203l-16 -41q-20 -49 -33 -91
q-121 51 -121 104q0 14 20 67q23 62 43 62q14 0 59 -38q48 -41 48 -63zM750 -388q-12 -55 -43 -113q0 -17 -17 -17t-48 17q-62 34 -62 66q0 49 55 138q2 2 5 3q4 0 58 -42t52 -52z" />
    <glyph glyph-name="fb7c" unicode="&#x686;" horiz-adv-x="1004" arabic-form="initial" 
d="M1053 329q-15 -42 -30 -83q-7 -19 -24.5 -25.5t-46.5 -6.5q-26 0 -97.5 7.5t-109.5 7.5q-69 0 -339 -114.5t-406 -114.5v166q155 0 341 59q129 41 194 79q-73 14 -145 42q-59 23 -88 24q-25 1 -73 -16q-61 -20 -140 -29q-11 -1 -13 8t4 24q19 58 70 150q85 57 138 59
q57 -5 94 -21l126 -66q85 -44 257 -88q180 -45 265 -39q20 1 25 -2t2 -9q-4 -10 -4 -12zM867 -35q0 -19 -21 -80q-24 -71 -43 -71q-4 0 -6 2l-88 54q-8 6 -8 40q7 33 16 59q19 60 37 68q17 8 113 -72zM662 -90l-16 -41q-20 -49 -33 -91q-121 51 -121 104q0 14 20 67
q23 62 43 62q14 0 59 -38q48 -41 48 -63zM797 -275q-12 -55 -43 -113q0 -17 -17 -17t-48 17q-62 34 -62 66q0 49 55 138q2 2 5 3q4 0 58 -42t52 -52z" />
    <glyph glyph-name="fb7d" unicode="&#x686;" horiz-adv-x="1081" arabic-form="medial" 
d="M1081 0q-14 0 -64 -2t-95 -2q-136 0 -150 133q-3 25 3.5 60.5t6.5 36.5q0 7 -4 7q-79 5 -176 -36q-65 -22 -223 -86q-96 -44 -112 -50q-75 -31 -150 -49q-52 -12 -117 -12v166q137 0 314 51q143 42 216 84q-13 6 -103 36q-105 34 -132 34q-29 0 -60 -12q-58 -21 -71 -25
q-63 -12 -88 -12q17 61 35 121q10 33 43 67l72 39q36 16 81 16q25 0 138 -55q142 -68 247 -101q174 -55 346 -55q17 -13 17 -20q0 -36 -45 -115q-128 0 -191 14q-6 -12 -6 -27q0 -14 6 -24q31 -32 98 -32q30 0 86.5 7.5t77.5 8.5v-166zM797 -40q0 -19 -21 -80
q-24 -71 -43 -71q-4 0 -6 2l-88 54q-8 6 -8 40q7 33 16 59q19 60 37 68q17 8 113 -72zM592 -95l-16 -41q-20 -49 -33 -91q-121 51 -121 104q0 14 20 67q23 62 43 62q14 0 59 -38q48 -41 48 -63zM727 -280q-12 -55 -43 -113q0 -17 -17 -17t-48 17q-62 34 -62 66q0 49 55 138
q2 2 5 3q4 0 58 -42t52 -52z" />
    <glyph glyph-name="fb88" unicode="&#x688;" horiz-adv-x="668" arabic-form="isolated" 
d="M668 197q1 -76 -45 -148q-26 -40 -161 -81q-122 -37 -186 -37q-69 0 -98 71q-21 53 -8 125q9 31 31 31q5 0 10 -2q21 -39 96 -39q60 0 170 30q121 32 121 60q0 36 -83 148q-92 124 -156 124q-21 0 -37 -14q-4 -3 -7 -3q-13 0 -21 34t-5 61q13 119 106 119q51 0 151 -135
q120 -163 122 -344zM462 1000q1 -54 -33 -106q-81 -74 -272 -80q-6 0 -95 40q-7 8 0 8q32 1 116 8q2 10 14 31q0 17 -30 185q-12 67 -12 92q-20 26 -21 57q11 15 26 51q3 5 6 5q-1 0 14 -24q10 -7 21 -21q6 -22 -10 -48q0 -13 36 -192q6 -33 4 -51q-4 -30 -4 -31
q117 114 160 114q24 0 52 -13.5t28 -24.5zM420 954q-26 24 -58 24q-31 0 -127 -100q92 7 157 39q10 16 28 37z" />
    <glyph glyph-name="fb89" unicode="&#x688;" horiz-adv-x="876" arabic-form="final" 
d="M876 0q-89 0 -169 118q-36 52 -93 179q1 -15 1 -30q0 -140 -78 -232q-93 -109 -267 -105q-47 1 -82 42t-37 94q-2 64 41 153q8 16 17 18q10 2 10 -14q0 -78 5 -89q11 -25 71 -25q107 0 185 50q87 55 87 146q0 32 -24.5 130.5t-47.5 152.5q-3 53 0 84q4 48 17 48
q12 0 33 -46q63 -148 125 -295q105 -208 206 -213v-166zM630 1008q1 -54 -33 -106q-81 -74 -272 -80q-6 0 -95 40q-7 8 0 8q32 1 116 8q2 10 14 31q0 17 -30 185q-12 67 -12 92q-20 26 -21 57q11 15 26 51q3 5 6 5q-1 0 14 -24q10 -7 21 -21q6 -22 -10 -48q0 -13 36 -192
q6 -33 4 -51q-4 -30 -4 -31q117 114 160 114q24 0 52 -13.5t28 -24.5zM588 962q-26 24 -58 24q-31 0 -127 -100q92 7 157 39q10 16 28 37z" />
    <glyph glyph-name="fb8a" unicode="&#x698;" horiz-adv-x="1171" arabic-form="isolated" 
d="M1171 158q0 -101 -41 -101q-4 0 -8 2q-95 72 -178 73q-167 1 -331 -176q-125 -164 -251 -328q-137 -175 -240 -173q-121 3 -121 217q0 78 44 199q41 114 93 193q12 18 23 18q13 0 13 -16q0 -5 -3 -10q-73 -135 -82 -286q-3 -51 17 -91q22 -46 63 -46q83 0 230 191
q210 273 335 382q34 30 105 69q96 53 154 53q62 0 117 -46q61 -51 61 -124zM823 860q0 -49 -55 -138q-2 -2 -5 -3q-4 0 -58 42t-52 52q12 55 43 113q0 17 17 17t48 -17q62 -34 62 -66zM958 656q0 -14 -19 -67q-24 -62 -44 -62q-14 0 -59 38q-48 41 -48 63l16 41q20 49 33 91
q121 -51 121 -104zM749 628q-7 -33 -16 -59q-19 -60 -37 -68q-17 -8 -113 72q0 19 21 80q24 71 43 71q4 0 6 -2l88 -54q8 -6 8 -40z" />
    <glyph glyph-name="fb8b" unicode="&#x698;" horiz-adv-x="1059" arabic-form="final" 
d="M1059 0h-62q-192 1 -389 -187q-154 -174 -308 -349q-167 -187 -285 -184q-137 3 -137 248q0 89 50 227q46 130 106 220q13 20 26 20q14 0 14 -17q0 -6 -3 -12q-84 -158 -93 -327q-3 -58 19 -104q26 -52 73 -52q72 0 169 105q104 119 207 239q151 162 310 258
q41 24 138 52q105 29 165 29v-166zM755 703q0 -49 -55 -138q-2 -2 -5 -3q-4 0 -58 42t-52 52q12 55 43 113q0 17 17 17t48 -17q62 -34 62 -66zM890 499q0 -14 -19 -67q-24 -62 -44 -62q-14 0 -59 38q-48 41 -48 63l16 41q20 49 33 91q121 -51 121 -104zM681 471
q-7 -33 -16 -59q-19 -60 -37 -68q-17 -8 -113 72q0 19 21 80q24 71 43 71q4 0 6 -2l88 -54q8 -6 8 -40z" />
    <glyph glyph-name="fb8c" unicode="&#x691;" horiz-adv-x="1171" arabic-form="isolated" 
d="M967 767q1 -54 -33 -106q-81 -74 -272 -80q-6 0 -95 40q-7 8 0 8q32 1 116 8q2 10 14 31q0 17 -30 185q-12 67 -12 92q-20 26 -21 57q11 15 26 51q3 5 6 5q-1 0 14 -24q10 -7 21 -21q6 -22 -10 -48q0 -13 36 -192q6 -33 4 -51q-4 -30 -4 -31q117 114 160 114
q24 0 52 -13.5t28 -24.5zM925 721q-26 24 -58 24q-31 0 -127 -100q92 7 157 39q10 16 28 37zM1171 158q0 -101 -41 -101q-4 0 -8 2q-95 72 -178 73q-167 1 -331 -176q-125 -164 -251 -328q-137 -175 -240 -173q-121 3 -121 217q0 78 44 199q41 114 93 193q12 18 23 18
q13 0 13 -16q0 -5 -3 -10q-73 -135 -82 -286q-3 -51 17 -91q22 -46 63 -46q83 0 230 191q210 273 335 382q34 30 105 69q96 53 154 53q62 0 117 -46q61 -51 61 -124z" />
    <glyph glyph-name="fb8d" unicode="&#x691;" horiz-adv-x="1059" arabic-form="final" 
d="M855 582q1 -54 -33 -106q-81 -74 -272 -80q-6 0 -95 40q-7 8 0 8q32 1 116 8q2 10 14 31q0 17 -30 185q-12 67 -12 92q-20 26 -21 57q11 15 26 51q3 5 6 5q-1 0 14 -24q10 -7 21 -21q6 -22 -10 -48q0 -13 36 -192q6 -33 4 -51q-4 -30 -4 -31q117 114 160 114
q24 0 52 -13.5t28 -24.5zM813 536q-26 24 -58 24q-31 0 -127 -100q92 7 157 39q10 16 28 37zM1059 0h-62q-192 1 -389 -187q-154 -174 -308 -349q-167 -187 -285 -184q-137 3 -137 248q0 89 50 227q46 130 106 220q13 20 26 20q14 0 14 -17q0 -6 -3 -12q-84 -158 -93 -327
q-3 -58 19 -104q26 -52 73 -52q72 0 169 105q104 119 207 239q151 162 310 258q41 24 138 52q105 29 165 29v-166z" />
    <glyph glyph-name="fb8e" unicode="&#x6a9;" horiz-adv-x="842" arabic-form="isolated" 
d="M881 203q-14 -53 -27 -106q-18 -54 -59 -72q-154 -67 -787 -74q-9 83 0 127q13 60 31 69q67 -17 147 -14q278 10 615 78q0 130 -51 371q-15 69 -36 238q-20 154 -40 235q-16 6 -31.5 46.5t-15.5 83.5q0 40 31 92q29 49 46 49q9 0 9 -16q0 -8 -1 -19t-1 -15q0 -25 84 -83
q4 -19 4 -39q0 -63 -39 -136l53 -328q19 -114 39 -228q19 -117 29 -259zM514 684q-28 -118 -104 -209q-73 -55 -295 -55q-9 33 14 41q138 46 248 96q-79 26 -91 42q-7 10 -7 73q0 59 50 136q47 65 93 130q11 -5 21 -11q3 -2 3 -26q0 -21 -28 -66q-33 -53 -41 -79
q18 -9 97 -25q40 -8 40 -47z" />
    <glyph glyph-name="fb8f" unicode="&#x6a9;" horiz-adv-x="1311" arabic-form="final" 
d="M1311 0q-97 0 -149 109q-32 69 -63 238q-35 -85 -38 -91q-26 -53 -69 -100q-296 -229 -629 -235q-196 -4 -289 103q-73 82 -73 211q0 63 25 146q27 92 64 127q11 8 30 18q-3 -9 -12 -37q-32 -92 -32 -164q0 -58 53 -123q84 -103 255 -113q92 -5 298 67q227 80 327 174
q23 22 47 131q-22 123 -38 234q-38 268 -41 435q3 65 27 198q33 -65 76 -372q54 -381 85 -511q60 -262 146 -279v-166zM796 605q-38 -132 -123 -212l-237 -41q-7 19 115 82q133 68 146 89q-40 19 -80 39q-54 26 -54 80q0 55 33 119t75 96v-30q-49 -86 -49 -97q0 -5 4.5 -14
t4.5 -15q106 -11 117 -14q52 -13 52 -54q0 -13 -4 -28z" />
    <glyph glyph-name="fb90" unicode="&#x6a9;" horiz-adv-x="2269" arabic-form="initial" 
d="M2330 365q-40 -136 -101 -154q-11 -3 -203 -33q-1145 -178 -1825 -178h-201v166q272 0 525 10q317 13 677 54q669 78 675 79q118 16 327 35q-2 60 -126 101q-88 29 -127 29q47 0 -527 -54.5t-926 -54.5q-214 0 -340 20q-157 25 -157 100q0 35 84 152.5t173 204.5
q185 179 594 326q17 6 26 6q12 0 12 -10t-21 -49q-21 -31 -50 -80q-97 -38 -309 -143q-287 -165 -402 -301q113 -73 415 -73q69 0 387 13q232 9 987 84q55 5 98 5q37 0 163 -24q179 -70 179 -186q0 -22 -7 -45z" />
    <glyph glyph-name="fb91" unicode="&#x6a9;" horiz-adv-x="2442" arabic-form="medial" 
d="M2442 0q-104 0 -151 13q-80 23 -88 91q-3 22 6 49q13 40 14 44q-42 -2 -137 -14l-726 -104q-638 -83 -1085 -83q-92 0 -275 4v166q473 -2 605 7q440 30 1162 118q191 23 475 62q0 60 -112 99q-78 27 -116 27q39 0 -509.5 -63.5t-858.5 -63.5q-322 0 -418 15
q-144 22 -144 108q0 39 70 142q79 116 182 210q345 240 599 331q17 6 26 6q11 0 11 -10q0 -11 -20 -49q-23 -26 -55 -70q-73 -32 -295 -153q-170 -102 -236 -147q-108 -73 -179 -144l8 -24q8 -16 50 -28q56 -15 182 -27q363 -8 569 0q235 9 470 38q248 33 496 65q57 7 102 7
q55 0 99 -11q29 -9 58 -17q178 -69 178 -179q0 -22 -7 -45q-39 -138 -100 -154q-6 -2 -23 -7q0 -34 56 -43h117v-166zM2223 197z" />
    <glyph glyph-name="fb92" unicode="&#x6af;" horiz-adv-x="842" arabic-form="isolated" 
d="M1819 2224q-118 -85 -554 -367q-481 -310 -512 -310q-10 0 -4 31q5 31 18 38q214 124 545 336q345 221 500 335q2 1 4 1q10 0 12 -28q1 -29 -9 -36zM1910 2187q25 -2 25 -34q0 -25 -16 -71l-16 -46q-99 -72 -506 -333q-166 -108 -612 -375q-8 -4 -13 -4q-9 0 -9 14
q0 30 28.5 87t51.5 72q262 164 827 528q81 54 240 162zM881 203q-14 -53 -27 -106q-18 -54 -59 -72q-154 -67 -787 -74q-9 83 0 127q13 60 31 69q67 -17 147 -14q278 10 615 78q0 130 -51 371q-15 69 -36 238q-20 154 -40 235q-16 6 -31.5 46.5t-15.5 83.5q0 40 31 92
q29 49 46 49q9 0 9 -16q0 -8 -1 -19t-1 -15q0 -25 84 -83q4 -19 4 -39q0 -63 -39 -136l53 -328q19 -114 39 -228q19 -117 29 -259zM514 684q-28 -118 -104 -209q-73 -55 -295 -55q-9 33 14 41q138 46 248 96q-79 26 -91 42q-7 10 -7 73q0 59 50 136q47 65 93 130
q11 -5 21 -11q3 -2 3 -26q0 -21 -28 -66q-33 -53 -41 -79q18 -9 97 -25q40 -8 40 -47z" />
    <glyph glyph-name="fb93" unicode="&#x6af;" horiz-adv-x="1311" arabic-form="final" 
d="M2070 2260q-155 -120 -543 -365q-362 -228 -519 -311q-2 -1 -4 -1q-10 0 -4 29q5 30 18 37q207 120 546.5 339.5t498.5 337.5q2 1 4 1q10 0 12 -29q1 -30 -9 -38zM2165 2217q25 -2 25 -34q0 -25 -16 -71l-16 -46q-99 -72 -506 -333q-166 -108 -612 -375q-8 -4 -13 -4
q-9 0 -9 14q0 30 28.5 87t51.5 72q262 164 827 528q81 54 240 162zM1311 0q-97 0 -149 109q-32 69 -63 238q-35 -85 -38 -91q-26 -53 -69 -100q-296 -229 -629 -235q-196 -4 -289 103q-73 82 -73 211q0 63 25 146q27 92 64 127q11 8 30 18q-3 -9 -12 -37q-32 -92 -32 -164
q0 -58 53 -123q84 -103 255 -113q92 -5 298 67q227 80 327 174q23 22 47 131q-22 123 -38 234q-38 268 -41 435q3 65 27 198q33 -65 76 -372q54 -381 85 -511q60 -262 146 -279v-166zM796 605q-38 -132 -123 -212l-237 -41q-7 19 115 82q133 68 146 89q-40 19 -80 39
q-54 26 -54 80q0 55 33 119t75 96v-30q-49 -86 -49 -97q0 -5 4.5 -14t4.5 -15q106 -11 117 -14q52 -13 52 -54q0 -13 -4 -28z" />
    <glyph glyph-name="fb94" unicode="&#x6af;" horiz-adv-x="518" arabic-form="initial" 
d="M776 1690q2 1 4 1q10 0 8 -23q-3 -23 -14 -29q-300 -165 -473 -264q-318 -182 -451 -280q-3 -3 -8 -3q-26 0 -26 28q0 6 5 10q193 140 955 560zM1000 1354q4 -49 -21 -49q-10 0 -12 22q-5 47 -21 175q-179 -92 -521 -275q-421 -236 -573 -388q141 -59 278 -170
q222 -180 222 -367q0 -88 -92 -186q-109 -116 -260 -116v166q93 0 184 57q88 56 88 105q-6 62 -172 183q-152 112 -217 127q-7 3 -18 -5q-14 -10 -21 -11q-76 37 -93 99q-6 23 -6 131q0 36 19 63q7 10 58 62q126 130 504 329q253 137 637 335q4 -3 8 -16q1 -2 7 -61
q3 -15 2 -25q6 -52 20 -185z" />
    <glyph glyph-name="fb95" unicode="&#x6af;" horiz-adv-x="971" arabic-form="medial" 
d="M927 1792q2 2 4 2q9 0 6 -23q-2 -22 -12 -30q-151 -117 -517 -342q-325 -200 -494 -289q-3 -2 -8 -2q-24 0 -24 23q0 7 6 11q736 426 1039 650zM1033 1712q25 -2 25 -34q0 -25 -16 -71l-16 -46q-99 -72 -506 -333q-288 -169 -633 -387q35 -42 225 -138q235 -118 294 -157
q176 -115 370 -276q110 -90 195 -109v-162q-64 11 -137 29q-89 64 -283 223q-145 119 -244 178q4 -23 18 -60q10 -27 10 -57q0 -26 -6 -67q-19 -134 -153 -200q-91 -45 -176 -45v166q170 0 269 125q0 60 -118 156q-63 51 -239 167q-150 99 -186 138q-12 109 30 140
q203 152 537 352q412 248 500 306q81 54 240 162z" />
    <glyph glyph-name="fb9e" unicode="&#x6ba;" horiz-adv-x="756" arabic-form="isolated" 
d="M756 54q-2 -136 -60 -276q-55 -95 -168 -158q-118 -65 -247 -65q-125 0 -204 106q-77 102 -77 254q0 57 15 134q18 90 44 128q15 22 28 22q20 0 20 -34q0 -31 -15.5 -80t-15.5 -69q0 -117 65.5 -194t165.5 -77q75 0 189 49q136 59 182 140q-4 135 -43 231q-26 62 -73 114
q-38 43 -38 52q0 20 45 168q11 17 25 17q8 0 14 -9q53 -81 100 -219q50 -147 48 -234z" />
    <glyph glyph-name="fb9f" unicode="&#x6ba;" horiz-adv-x="864" arabic-form="final" 
d="M864 0q-11 0 -27 1t-32 1q11 -110 11 -126q0 -150 -95 -306q-119 -195 -426 -195q-156 0 -234 113q-68 98 -59 246q13 207 104 309q13 15 21 15q16 0 2 -38q-51 -140 -51 -235q0 -75 49 -142q66 -89 186 -89q160 0 278 57q122 58 146 153q3 150 -22 232q-14 47 -43 92
q-23 37 -23 45q39 82 39 133q0 18 14 18q13 0 23 -16q3 -3 57 -94q39 -8 82 -8v-166z" />
    <glyph glyph-name="uFBA4" unicode="&#x6c0;" horiz-adv-x="330" arabic-form="isolated" 
d="M383 274q0 -185 -129 -270q-31 -6 -74 -23q-33 -12 -59 -12q-50 0 -85.5 48.5t-35.5 115.5q0 63 61 213q59 143 103 197q119 -62 164 -113q55 -61 55 -156zM262 195q0 47 -36 83t-85 41q-47 -47 -47 -104q0 -29 58 -47q89 0 110 27zM323 828q4 1 7 1q9 0 9 -12
q0 -38 -30 -75t-115 -74q-96 -43 -133 -75q-21 -6 -32 -3q-13 1 -13 10q0 29 81 87q-54 11 -55 12q-22 12 -40 61q54 177 153 177q31 0 50 -23q11 -11 -4 -78q-8 -9 -17 -17t-38 -3q-6 1 -6.5 13t-4.5 12q-67 -9 -67 -37q33 -34 66 -42q27 -7 54 -13q42 15 75 38
q46 33 60 41z" />
    <glyph glyph-name="uFBA5" unicode="&#x6c0;" horiz-adv-x="657" arabic-form="final" 
d="M657 0q-133 0 -204 74q-58 61 -109 217q-61 -80 -75 -91q-53 -43 -154 -46q-113 -3 -113 71q0 137 136 240q19 15 151 84q6 23 4.5 74t3.5 75q10 46 24 46q12 0 21 -52q36 -220 78 -319q80 -189 237 -207v-166zM326 362q-10 46 -27 125q-16 -39 -60 -77l-98 -76
q65 -7 101 0q33 6 84 28zM379 995q4 1 7 1q9 0 9 -12q0 -38 -30 -75t-115 -74q-96 -43 -133 -75q-21 -6 -32 -3q-13 1 -13 10q0 29 81 87q-54 11 -55 12q-22 12 -40 61q54 177 153 177q31 0 50 -23q11 -11 -4 -78q-8 -9 -17 -17t-38 -3q-6 1 -6.5 13t-4.5 12q-67 -9 -67 -37
q33 -34 66 -42q27 -7 54 -13q42 15 75 38q46 33 60 41z" />
    <glyph glyph-name="fba6" unicode="&#x6c1;" horiz-adv-x="330" arabic-form="isolated" 
d="M383 274q0 -185 -129 -270q-31 -6 -74 -23q-33 -12 -59 -12q-50 0 -85.5 48.5t-35.5 115.5q0 63 61 213q59 143 103 197q119 -62 164 -113q55 -61 55 -156zM262 195q0 47 -36 83t-85 41q-47 -47 -47 -104q0 -29 58 -47q89 0 110 27z" />
    <glyph glyph-name="fba7" unicode="&#x6c1;" horiz-adv-x="657" arabic-form="final" 
d="M657 0q-133 0 -204 74q-58 61 -109 217q-61 -80 -75 -91q-53 -43 -154 -46q-113 -3 -113 71q0 137 136 240q19 15 151 84q6 23 4.5 74t3.5 75q10 46 24 46q12 0 21 -52q36 -220 78 -319q80 -189 237 -207v-166zM326 362q-10 46 -27 125q-16 -39 -60 -77l-98 -76
q65 -7 101 0q33 6 84 28z" />
    <glyph glyph-name="fba8" unicode="&#x6c1;" horiz-adv-x="373" arabic-form="initial" 
d="M343 315q3 -30 -21 -94q-16 -42 -90 -132q-57 -70 -66 -163q-1 -13 -1 -24q0 -90 62 -101q17 28 43 108q3 17 13 17q21 0 52 -55.5t26 -90.5q-24 -169 -118 -169q-19 0 -37 9q-126 80 -126 248q0 81 24 145q-48 -12 -104 -13v167q120 3 153 13q89 29 143 142q16 33 33 33
q14 0 14 -40z" />
    <glyph glyph-name="fba9" unicode="&#x6c1;" horiz-adv-x="522" arabic-form="medial" 
d="M522 0q-90 0 -147 -65q-51 -58 -51 -134q0 -36 14 -65q-14 -137 -31 -133q-192 46 -192 262q0 74 24 154q-66 -19 -139 -19v167q120 3 153 13q89 29 143 142q16 33 28 33q11 0 12 -40q1 -65 -14 -94q-113 -214 -113 -299q0 -76 54 -130q-2 128 62 242q75 133 197 133
v-167z" />
    <glyph glyph-name="uFBAA" unicode="&#x6be;" horiz-adv-x="903" arabic-form="isolated" 
d="M865 203q-17 -26 -33 -53q-24 -26 -81 -26q-31 0 -76 7q-90 14 -98 16q-4 1 -50 17q-175 -137 -338 -173q-63 -14 -138 -4q-56 7 -56 25q0 23 57 41q36 11 211 89q110 49 152 92q-58 87 -58 113q0 12 4 24q9 29 40 81q27 46 30 68q-18 13 -18 51q0 47 22 91q24 48 53 47
q102 -4 232 -152q90 -102 112 -133q60 -83 60 -145q0 -41 -27 -76zM808 248q2 35 -75 112q-62 63 -107 93q0 -132 -17 -181q2 0 89 -21q60 -15 85 -15q24 0 25 12zM570 377q-8 92 -63 92q-22 -10 -55 -47q-40 -46 -40 -81q0 -12 5 -22q64 -27 100 -29q56 57 53 87z" />
    <glyph glyph-name="uFBAB" unicode="&#x6be;" horiz-adv-x="909" arabic-form="final" 
d="M909 0q-198 0 -343 40q-29 -5 -57 -5q-51 0 -88 14q-213 -142 -372 -136q-55 2 -55 22q0 24 67 53q204 89 247 132q-13 10 -35 33q-11 16 -11 50q0 130 105 248q29 33 74 60q54 33 88 27q49 -9 63 -75q45 -15 137 -42q131 -37 126 -92q-8 -86 -54 -162h108v-167zM776 240
q4 26 -97 56q-28 11 -106 33q-17 -68 -23 -82q-15 -41 -47 -80q101 -4 194 30q74 28 79 43zM486 261q2 20 7 48q3 23 3 31q0 26 -52 36q-89 -37 -110 -117q16 -33 89 -62q33 22 63 64z" />
    <glyph glyph-name="uFBAC" unicode="&#x6be;" horiz-adv-x="762" arabic-form="initial" 
d="M733 203q-17 -26 -33 -53q-24 -26 -81 -26q-31 0 -76 7q-90 14 -98 16q-4 1 -50 17l-212 -112q-110 -53 -183 -52v166q68 2 158 30q80 24 113 47q-5 15 -29 54q-17 29 -17 50q0 12 4 24q9 29 40 81q27 46 30 68q-18 13 -18 51q0 47 22 91q24 48 53 47q102 -4 232 -152
q90 -102 112 -133q60 -83 60 -145q0 -41 -27 -76zM676 248q2 35 -75 112q-62 63 -107 93q0 -132 -17 -181q2 0 89 -21q60 -15 85 -15q24 0 25 12zM438 377q-8 92 -63 92q-22 -10 -55 -47q-40 -46 -40 -81q0 -12 5 -22q40 -17 100 -20q56 44 53 78z" />
    <glyph glyph-name="uFBAD" unicode="&#x6be;" horiz-adv-x="496" arabic-form="medial" 
d="M496 0q-11 0 -52 -1t-84 -1q60 -50 60 -154q0 -134 -48 -199q-40 -55 -100 -48q-106 12 -163 101q-49 76 -49 186q0 36 6 71q-25 -2 -66 -2v213q105 0 129 33q21 60 43 120q47 113 172 238q7 5 14 5q33 0 33 -75q0 -56 -15 -138q-26 -141 -83 -193q53 3 203 10v-166z
M328 389q0 18 -9 18q-25 0 -85 -84t-66 -128q47 5 94 49q31 35 62 69q8 60 4 76zM344 -199q-35 49 -91 81q-28 16 -124 57q9 -127 148 -175q11 -4 23 -4q48 0 48 29q0 6 -4 12z" />
    <glyph glyph-name="fbae" unicode="&#x6d2;" horiz-adv-x="2331" arabic-form="isolated" 
d="M2408 -148q-25 -53 -62 -150q-3 -11 -27 -11q-520 0 -1180 -29q-627 -27 -766 -27q-17 0 -56 -1h-58q-243 0 -243 131q0 55 145 258q34 47 181 120q79 37 159 74q43 25 121 175q68 130 129 130q55 0 72 -48q9 -27 9 -99q0 -110 -26 -197q-10 -32 -25 -32q-14 0 -18 26
q-12 83 -16 96q-11 35 -45 77q-29 -12 -95 -132q-68 -124 -96 -141q-47 -29 -209 -106q-117 -56 -166 -104q13 -64 349 -64q170 0 856 35q659 33 1040 29q29 0 27 -10z" />
    <glyph glyph-name="fbaf" unicode="&#x6d2;" horiz-adv-x="391" arabic-form="final" 
d="M1325 -398q-25 -45 -62 -135q-3 -11 -27 -11q-533 0 -820 -24q-270 -22 -406 -22q-17 0 -56 -1h-58q-243 0 -243 131q0 77 86 195q127 174 289 291q192 140 363 140v-166q-180 0 -362 -120q-146 -98 -256 -243q14 -71 215 -71q52 0 503 26q430 24 807 20q29 0 27 -10z
" />
    <glyph glyph-name="uFBB0" unicode="&#x6d3;" horiz-adv-x="2331" arabic-form="isolated" 
d="M2408 -148q-25 -53 -62 -150q-3 -11 -27 -11q-520 0 -1180 -29q-627 -27 -766 -27q-17 0 -56 -1h-58q-243 0 -243 131q0 55 145 258q34 47 181 120q79 37 159 74q43 25 121 175q68 130 129 130q55 0 72 -48q9 -27 9 -99q0 -110 -26 -197q-10 -32 -25 -32q-14 0 -18 26
q-12 83 -16 96q-11 35 -45 77q-29 -12 -95 -132q-68 -124 -96 -141q-47 -29 -209 -106q-117 -56 -166 -104q13 -64 349 -64q170 0 856 35q659 33 1040 29q29 0 27 -10zM527 654q4 1 7 1q9 0 9 -12q0 -38 -30 -75t-115 -74q-96 -43 -133 -75q-21 -6 -32 -3q-13 1 -13 10
q0 29 81 87q-54 11 -55 12q-22 12 -40 61q54 177 153 177q31 0 50 -23q11 -11 -4 -78q-8 -9 -17 -17t-38 -3q-6 1 -6.5 13t-4.5 12q-67 -9 -67 -37q33 -34 66 -42q27 -7 54 -13q42 15 75 38q46 33 60 41z" />
    <glyph glyph-name="uFBB1" unicode="&#x6d3;" horiz-adv-x="391" arabic-form="final" 
d="M439 587q4 1 7 1q9 0 9 -12q0 -38 -30 -75t-115 -74q-96 -43 -133 -75q-21 -6 -32 -3q-13 1 -13 10q0 29 81 87q-54 11 -55 12q-22 12 -40 61q54 177 153 177q31 0 50 -23q11 -11 -4 -78q-8 -9 -17 -17t-38 -3q-6 1 -6.5 13t-4.5 12q-67 -9 -67 -37q33 -34 66 -42
q27 -7 54 -13q42 15 75 38q46 33 60 41zM1325 -398q-25 -45 -62 -135q-3 -11 -27 -11q-533 0 -820 -24q-270 -22 -406 -22q-17 0 -56 -1h-58q-243 0 -243 131q0 77 86 195q127 174 289 291q192 140 363 140v-166q-180 0 -362 -120q-146 -98 -256 -243q14 -71 215 -71
q52 0 503 26q430 24 807 20q29 0 27 -10z" />
    <glyph glyph-name="uFBFC" unicode="&#x6cc;" horiz-adv-x="980" arabic-form="isolated" 
d="M1047 624q0 -99 -25 -135q-13 -18 -22 -18t-21 18q-24 37 -88 37q-40 0 -156 -116q-124 -124 -124 -193q0 -23 16 -37q75 -11 231 -33q40 -17 80 -33q47 -28 47 -90q0 -41 -55 -174q-83 -123 -292 -222q-195 -93 -333 -93q-148 0 -251 136q-95 125 -95 276q0 56 50 211
q51 159 79 170q10 3 12 -7q1 -9 -2.5 -22.5t-9.5 -22.5q-45 -70 -45 -237q0 -137 107 -234q98 -89 212 -84q132 6 332 103q193 94 193 141q0 4 -2 6q0 22 -74 31q-122 14 -123 14q-67 16 -87 23q-54 22 -69 63q-2 19 -2 39q0 181 153 383q145 192 275 215q89 -41 89 -115z
" />
    <glyph glyph-name="uFBFD" unicode="&#x6cc;" horiz-adv-x="1047" arabic-form="final" 
d="M1047 -195q-12 -66 -65 -151q-167 -142 -372 -229q-176 -76 -284 -76q-121 0 -217 98q-110 113 -110 291q0 64 27 156q33 114 85 178q26 31 45 31q5 0 5 -5q0 -12 -21 -49q-64 -111 -64 -250q0 -115 86 -198q83 -80 189 -80q250 -2 606 239q21 18 4 39q-13 17 -105 34
q-132 25 -200 46q-19 9 -19 33q0 39 42 104q86 73 205 115q97 35 163 35v-166q-110 0 -145 -14q-44 -18 -44 -31q0 -6 15 -8q49 -9 139 -39q35 -29 35 -103z" />
    <glyph glyph-name="fbfe" unicode="&#x6cc;" horiz-adv-x="176" arabic-form="initial" 
d="M180 238q0 -98 -39 -181q-27 -57 -141 -57v166q93 0 102 49q-12 34 -44 79q-26 36 -31 75q13 43 45 114q4 2 8 2q28 0 56 -59q33 -70 44 -188zM240 -658q0 -16 -18 -62q-22 -59 -48 -63q-24 3 -62 38q-36 32 -48 55q9 26 32 71q25 49 35 54q11 0 56 -33q49 -37 53 -60z
M55 -715q5 -16 -13.5 -67t-35.5 -52q-15 2 -65 32q-54 33 -58 50q-9 21 60 125q59 -24 112 -88z" />
    <glyph glyph-name="fbff" unicode="&#x6cc;" horiz-adv-x="451" arabic-form="medial" 
d="M451 0q-21 0 -67 17q-58 22 -96 53q-15 13 -58 100q-64 -94 -71 -101q-66 -69 -159 -69v166q71 0 134 27q40 17 80 92q36 67 58 67q7 0 16 -5q0 -5 -2 -27t-2 -37q3 -24 63 -69q63 -48 104 -48v-166zM382 -224q0 -17 -17 -63q-22 -59 -48 -62q-24 3 -63 37q-35 30 -50 55
q42 111 70 125q10 0 54 -33q49 -36 54 -59zM207 -284q4 -16 -14.5 -67t-34.5 -51t-68 32.5t-55 49.5q-4 9 25 65q26 51 34 60q57 -30 113 -89z" />
    <glyph glyph-name="fe70" unicode="&#xfe70;" arabic-form="isolated" 
d="M440 2170q6 3 9 3q27 0 -50 -93q-12 -14 -149 -94q-168 -98 -302 -201q-26 -20 -36 -20q-6 0 -6 7q0 45 85 122q64 58 127 97q70 43 322 179zM402 2020q21 13 35 13q9 0 9 -9q0 -21 -56 -86q4 -7 -147 -94q-199 -114 -334 -220q-12 -10 -18 -10q-5 0 -5 7q0 16 19 51.5
t35 51.5q38 38 462 296z" />
    <glyph glyph-name="fe72" unicode="&#xfe72;" arabic-form="isolated" 
d="M380 2103q-5 -33 -6 -36q-6 -13 -31 -13q-10 0 -24 2q-62 -155 -80 -186q-71 -125 -160 -125q-95 0 -108 59q-19 89 -4 229q-5 3 -11 3q-24 0 -85 -66q-10 -5 -16 -5q-9 0 -9 10q0 23 38.5 74t64.5 57q39 9 45 -1q9 -15 4 -52q-8 -57 -8 -72q0 -143 106 -137q47 3 113 74
q71 76 77 145q-60 8 -73 16q-25 15 -25 70q0 35 18 77q24 56 65 54q73 -4 73 -107q0 -27 -7 -53l34 -5q11 -1 9 -12zM293 2141v34q-25 40 -35 40q-7 0 -37 -24q8 -17 17 -35q16 -7 32 -15h23z" />
    <glyph glyph-name="fe74" unicode="&#xfe74;" arabic-form="isolated" 
d="M439 -998q6 3 9 3q27 0 -50 -93q-12 -14 -149 -94q-168 -98 -302 -201q-26 -20 -36 -20q-6 0 -6 7q0 45 85 122q64 58 127 97q70 43 322 179zM401 -1148q21 13 35 13q9 0 9 -9q0 -21 -56 -86q4 -7 -147 -94q-199 -114 -334 -220q-12 -10 -18 -10q-5 0 -5 7q0 16 19 51.5
t35 51.5q38 38 462 296z" />
    <glyph glyph-name="fe76" unicode="&#xfe76;" arabic-form="isolated" 
d="M545 2166q21 13 35 13q9 0 9 -9q0 -21 -56 -86q4 -7 -147 -94q-199 -114 -334 -220q-12 -10 -18 -10q-5 0 -5 7q0 16 19 51.5t35 51.5q38 38 462 296z" />
    <glyph glyph-name="fe78" unicode="&#xfe78;" arabic-form="isolated" 
d="M334 1978q-3 -45 -23 -60q-20 12 -53 29q-63 -89 -94 -122q-39 -41 -128 -105q-84 -60 -130 -60q-11 0 -11 5q0 9 27 26q227 141 294 273q-35 14 -69 27.5t-30 54.5q3 37 43 94q43 65 80 65q52 0 52 -85q0 -55 -14 -95q57 -32 56 -47zM249 2036q0 36 -6 47q-11 21 -54 30
q-11 2 -15 -20q-4 -23 7 -28q7 -3 68 -29z" />
    <glyph glyph-name="fe7a" unicode="&#xfe7a;" arabic-form="isolated" 
d="M465 -996q21 13 35 13q9 0 9 -9q0 -21 -56 -86q4 -7 -147 -94q-199 -114 -334 -220q-12 -10 -18 -10q-5 0 -5 7q0 16 19 51.5t35 51.5q38 38 462 296z" />
    <glyph glyph-name="fe7c" unicode="&#xfe7c;" horiz-adv-x="462" arabic-form="isolated" 
d="M294 1952q-12 -83 -48 -120q-25 -24 -48 -24q-17 0 -44 21l-32 -38q-23 -23 -53 -23q-61 0 -61 112q0 19 17.5 66.5t29.5 47.5q5 0 9 -9q5 -14 0 -35q-7 -28 -7 -37q0 -41 44 -33q35 7 55 72t25 65q17 0 17 -29q0 -6 -5 -23t-3 -29q20 -20 40 -20q16 0 26 40q7 35 15 69
q2 10 7 11q7 0 13 -28t3 -56z" />
    <glyph glyph-name="fe7e" unicode="&#xfe7e;" arabic-form="isolated" 
d="M261 2009q0 -239 -136 -239q-92 0 -92 104q0 69 59 157q0 51 30 92q27 37 54 37q85 0 85 -151zM228 1941q-13 85 -84 85q-15 0 -32 -4q-35 -70 -35 -94q0 -39 35 -39q50 0 116 52z" />
    <glyph glyph-name="fe80" unicode="&#x621;" horiz-adv-x="670" arabic-form="isolated" 
d="M614 547q5 2 10 2q13 0 13 -18q0 -55 -43 -107t-165 -106q-136 -60 -189 -107q-30 -8 -45 -4q-19 2 -19 14q0 37 115 125q-77 16 -78 17q-32 16 -57 86q32 108 90 178q61 75 129 75q45 0 71 -32q6 -6 6 -27q0 -31 -12 -84q-9 -11 -18.5 -21.5t-28.5 -10.5q-12 0 -31 3
q-8 1 -9 18t-7 17q-96 -12 -96 -53q48 -48 95 -60q38 -9 77 -18q59 22 106 55q66 47 86 58z" />
    <glyph glyph-name="fe81" unicode="&#x622;" horiz-adv-x="352" arabic-form="isolated" 
d="M502 1794q-11 -67 -87 -115q-197 -125 -428 -125q-201 0 -244 50q-27 -19 -44 -45q-23 -36 -36 -49h-16q-6 4 -13 28q-4 18 61 113t86 100q6 2 30 -11q38 -20 69 -33q99 -39 202 -28q267 30 403 161q25 0 17 -46zM356 255q5 -64 -19 -114q-11 -24 -21 -24q-23 0 -43 160
q-22 198 -43 396q-13 121 -38 300q-18 131 -18 153q0 92 30 149q11 20 17 20q14 0 29 -111q4 -24 51 -409q41 -335 55 -520z" />
    <glyph glyph-name="fe82" unicode="&#x622;" horiz-adv-x="515" arabic-form="final" 
d="M679 1836q-11 -68 -87 -115q-198 -125 -428 -125q-201 0 -244 50q-27 -19 -44 -45q-23 -36 -36 -49h-16q-6 3 -13 28q-5 18 60.5 112.5t86.5 100.5q6 2 30 -11q38 -21 69 -33q99 -40 202 -28q267 30 403 161q25 0 17 -46zM515 0q-161 0 -228 132q-42 85 -76 334.5
t-34 487.5q0 187 19 283q33 165 128 184q9 -27 9 -137q-43 -32 -59 -61q-37 -69 -35 -207q5 -344 36 -555q21 -143 89 -221q62 -72 151 -74v-166zM570 -354q4 1 7 1q9 0 9 -12q0 -38 -30 -75t-115 -74q-96 -43 -133 -75q-21 -6 -32 -3q-13 1 -13 10q0 29 81 87
q-54 11 -55 12q-22 12 -40 61q54 177 153 177q31 0 50 -23q11 -11 -4 -78q-8 -9 -17 -17t-38 -3q-6 1 -6.5 13t-4.5 12q-67 -9 -67 -37q33 -34 66 -43l54 -12q42 15 75 38q46 33 60 41z" />
    <glyph glyph-name="fe83" unicode="&#x623;" horiz-adv-x="352" arabic-form="isolated" 
d="M351 1758q4 1 7 1q9 0 9 -12q0 -38 -30 -75t-115 -74q-96 -43 -133 -75q-21 -6 -32 -3q-13 1 -13 10q0 29 81 87q-54 11 -55 12q-22 12 -40 61q54 177 153 177q31 0 50 -23q11 -11 -4 -78q-8 -9 -17 -17t-38 -3q-6 1 -6.5 13t-4.5 12q-67 -9 -67 -37q33 -34 66 -42
q27 -7 54 -13q42 15 75 38q46 33 60 41zM349 269q5 -64 -19 -114q-11 -24 -21 -24q-23 0 -43 160q-22 198 -43 396q-13 121 -38 300q-18 131 -18 153q0 92 30 149q11 20 17 20q14 0 29 -111q4 -24 51 -409q41 -335 55 -520z" />
    <glyph glyph-name="fe84" unicode="&#x623;" horiz-adv-x="515" arabic-form="final" 
d="M440 1684q4 1 7 1q9 0 9 -12q0 -38 -30 -75t-115 -74q-96 -43 -133 -75q-21 -6 -32 -3q-13 1 -13 10q0 29 81 87q-54 11 -55 12q-22 12 -40 61q54 177 153 177q31 0 50 -23q11 -11 -4 -78q-8 -9 -17 -17t-38 -3q-6 1 -6.5 13t-4.5 12q-67 -9 -67 -37q33 -34 66 -42
q27 -7 54 -13q42 15 75 38q46 33 60 41zM515 0q-161 0 -228 132q-42 85 -76 334.5t-34 487.5q0 187 19 283q33 165 128 184q9 -27 9 -137q-43 -32 -59 -61q-37 -69 -35 -207q5 -344 36 -555q21 -143 89 -221q62 -72 151 -74v-166z" />
    <glyph glyph-name="fe85" unicode="&#x624;" horiz-adv-x="657" arabic-form="isolated" 
d="M581 883q4 1 7 1q9 0 9 -12q0 -38 -30 -75t-115 -74q-96 -43 -133 -75q-21 -6 -32 -3q-13 1 -13 10q0 29 81 87q-54 11 -55 12q-22 12 -40 61q54 177 153 177q31 0 50 -23q11 -11 -4 -78q-8 -9 -17 -17t-38 -3q-6 1 -6.5 13t-4.5 12q-67 -9 -67 -37q33 -34 66 -42
q27 -7 54 -13q42 15 75 38q46 33 60 41zM664 240q0 -126 -66 -335q-97 -165 -173 -236q-103 -97 -231 -97q-52 0 -304 44q-20 4 -20 18q0 26 28 26q128 0 171 11q174 44 310 153q140 112 203 265q13 31 -16 94q-23 -66 -34 -83q-27 -44 -76 -44q-67 0 -112 57q-39 50 -33 99
q11 94 53 174q47 87 111 119q64 0 128 -92q61 -90 61 -173zM502 263q-13 37 -65 37q-18 -31 -18 -37q2 -28 51 -28q14 0 32 28z" />
    <glyph glyph-name="fe86" unicode="&#x624;" horiz-adv-x="604" arabic-form="final" 
d="M534 774q4 1 7 1q9 0 9 -12q0 -38 -30 -75t-115 -74q-96 -43 -133 -75q-21 -6 -32 -3q-13 1 -13 10q0 29 81 87q-54 11 -55 12q-22 12 -40 61q54 177 153 177q31 0 50 -23q11 -11 -4 -78q-8 -9 -17 -17t-38 -3q-6 1 -6.5 13t-4.5 12q-67 -9 -67 -37q33 -34 66 -42
q27 -7 54 -13q42 15 75 38q46 33 60 41zM604 0h-45q-9 -78 -104 -212q-117 -164 -252 -208q-114 12 -253 47q-135 34 -135 50q0 6 27 6q83 -1 167 -2q81 0 141 18q81 24 202.5 127.5t149.5 173.5q-57 -4 -76 -4q-186 0 -186 166q0 56 48 145q54 101 111 111q31 5 89 -74
q60 -84 83 -178h33v-166zM432 170q0 26 -16 53q-19 33 -45 29q-40 -2 -45 -55q26 -22 64 -29q32 -6 42 2z" />
    <glyph glyph-name="fe87" unicode="&#x625;" horiz-adv-x="352" arabic-form="isolated" 
d="M356 166q5 -64 -19 -114q-11 -24 -21 -24q-23 0 -43 160q-22 198 -43 396q-13 121 -38 300q-18 131 -18 153q0 92 30 149q11 20 17 20q14 0 29 -111q4 -24 51 -409q41 -335 55 -520zM379 -165q4 1 7 1q9 0 9 -12q0 -38 -30 -75t-115 -74q-96 -43 -133 -75q-21 -6 -32 -3
q-13 1 -13 10q0 29 81 87q-54 11 -55 12q-22 12 -40 61q54 177 153 177q31 0 50 -23q11 -11 -4 -78q-8 -9 -17 -17t-38 -3q-6 1 -6.5 13t-4.5 12q-67 -9 -67 -37q33 -34 66 -43l54 -12q42 15 75 38q46 33 60 41z" />
    <glyph glyph-name="fe88" unicode="&#x625;" horiz-adv-x="515" arabic-form="final" 
d="M515 0q-161 0 -228 132q-42 85 -76 334.5t-34 487.5q0 187 19 283q33 165 128 184q9 -27 9 -137q-43 -32 -59 -61q-37 -69 -35 -207q5 -344 36 -555q21 -143 89 -221q62 -72 151 -74v-166zM570 -354q4 1 7 1q9 0 9 -12q0 -38 -30 -75t-115 -74q-96 -43 -133 -75
q-21 -6 -32 -3q-13 1 -13 10q0 29 81 87q-54 11 -55 12q-22 12 -40 61q54 177 153 177q31 0 50 -23q11 -11 -4 -78q-8 -9 -17 -17t-38 -3q-6 1 -6.5 13t-4.5 12q-67 -9 -67 -37q33 -34 66 -43l54 -12q42 15 75 38q46 33 60 41z" />
    <glyph glyph-name="fe89" unicode="&#x626;" horiz-adv-x="980" arabic-form="isolated" 
d="M279 707q4 1 7 1q9 0 9 -12q0 -38 -30 -75t-115 -74q-96 -43 -133 -75q-21 -6 -32 -3q-13 1 -13 10q0 29 81 87q-54 11 -55 12q-22 12 -40 61q54 177 153 177q31 0 50 -23q11 -11 -4 -78q-8 -9 -17 -17t-38 -3q-6 1 -6.5 13t-4.5 12q-67 -9 -67 -37q33 -34 66 -42
q27 -7 54 -13q42 15 75 38q46 33 60 41zM1047 624q0 -99 -25 -135q-13 -18 -22 -18t-21 18q-24 37 -88 37q-40 0 -156 -116q-124 -124 -124 -193q0 -23 16 -37q75 -11 231 -33q40 -17 80 -33q47 -28 47 -90q0 -41 -55 -174q-83 -123 -292 -222q-195 -93 -333 -93
q-148 0 -251 136q-95 125 -95 276q0 56 50 211q51 159 79 170q10 3 12 -7q1 -9 -2.5 -22.5t-9.5 -22.5q-45 -70 -45 -237q0 -137 107 -234q98 -89 212 -84q132 6 332 103q193 94 193 141q0 4 -2 6q0 22 -74 31q-122 14 -123 14q-67 16 -87 23q-54 22 -69 63q-2 19 -2 39
q0 181 153 383q145 192 275 215q89 -41 89 -115z" />
    <glyph glyph-name="fe8a" unicode="&#x626;" horiz-adv-x="1047" arabic-form="final" 
d="M328 548q4 1 7 1q9 0 9 -12q0 -38 -30 -75t-115 -74q-96 -43 -133 -75q-21 -6 -32 -3q-13 1 -13 10q0 29 81 87q-54 11 -55 12q-22 12 -40 61q54 177 153 177q31 0 50 -23q11 -11 -4 -78q-8 -9 -17 -17t-38 -3q-6 1 -6.5 13t-4.5 12q-67 -9 -67 -37q33 -34 66 -42
q27 -7 54 -13q42 15 75 38q46 33 60 41zM1047 -195q-12 -66 -65 -151q-167 -142 -372 -229q-176 -76 -284 -76q-121 0 -217 98q-110 113 -110 291q0 64 27 156q33 114 85 178q26 31 45 31q5 0 5 -5q0 -12 -21 -49q-64 -111 -64 -250q0 -115 86 -198q83 -80 189 -80
q250 -2 606 239q21 18 4 39q-13 17 -105 34q-132 25 -200 46q-19 9 -19 33q0 39 42 104q86 73 205 115q97 35 163 35v-166q-110 0 -145 -14q-44 -18 -44 -31q0 -6 15 -8q49 -9 139 -39q35 -29 35 -103z" />
    <glyph glyph-name="fe8b" unicode="&#x626;" horiz-adv-x="186" arabic-form="initial" 
d="M187 871q4 1 7 1q9 0 9 -12q0 -38 -30 -75t-115 -74q-96 -43 -133 -75q-21 -6 -32 -3q-13 1 -13 10q0 29 81 87q-54 11 -55 12q-22 12 -40 61q54 177 153 177q31 0 50 -23q11 -11 -4 -78q-8 -9 -17 -17t-38 -3q-6 1 -6.5 13t-4.5 12q-67 -9 -67 -37q33 -34 66 -42
q27 -7 54 -13q42 15 75 38q46 33 60 41zM180 238q0 -98 -39 -181q-27 -57 -141 -57v166q93 0 102 49q-12 34 -44 79q-26 36 -31 75q13 43 45 114q4 2 8 2q28 0 56 -59q33 -70 44 -188z" />
    <glyph glyph-name="fe8c" unicode="&#x626;" horiz-adv-x="451" arabic-form="medial" 
d="M282 1230q4 1 7 1q9 0 9 -12q0 -38 -30 -75t-115 -74q-96 -43 -133 -75q-21 -6 -32 -3q-13 1 -13 10q0 29 81 87q-54 11 -55 12q-22 12 -40 61q54 177 153 177q31 0 50 -23q11 -11 -4 -78q-8 -9 -17 -17t-38 -3q-6 1 -6.5 13t-4.5 12q-67 -9 -67 -37q33 -34 66 -42
q27 -7 54 -13q42 15 75 38q46 33 60 41zM451 0q-21 0 -67 17q-58 22 -96 53q-15 13 -58 100q-64 -94 -71 -101q-66 -69 -159 -69v166q71 0 134 27q40 17 80 92q36 67 58 67q7 0 16 -5q0 -5 -2 -27t-2 -37q3 -24 63 -69q63 -48 104 -48v-166z" />
    <glyph glyph-name="fe8d" unicode="&#x627;" horiz-adv-x="353" arabic-form="isolated" 
d="M356 122q5 -64 -19 -114q-11 -24 -21 -24q-23 0 -43 160q-22 198 -43 396q-13 121 -38 300q-18 131 -18 153q0 92 30 149q11 20 17 20q14 0 29 -111q3 -20 51 -409q41 -335 55 -520z" />
    <glyph glyph-name="fe8e" unicode="&#x627;" horiz-adv-x="515" arabic-form="final" 
d="M515 0q-161 0 -228 132q-42 85 -76 334.5t-34 487.5q0 187 19 283q33 165 128 184q9 -27 9 -137q-43 -32 -59 -61q-37 -69 -35 -207q5 -344 36 -555q21 -143 89 -221q62 -72 151 -74v-166z" />
    <glyph glyph-name="fe8f" unicode="&#x628;" horiz-adv-x="1179" arabic-form="isolated" 
d="M1177 367q0 -80 -49 -193q-99 -102 -339.5 -176t-475.5 -74q-136 0 -225.5 88.5t-89.5 218.5q0 20 21 96q27 98 59 128q9 3 15 3q11 0 11 -14q0 -8 -9.5 -53t-9.5 -78t9 -63q19 -63 108.5 -106.5t194.5 -43.5q138 0 359 54q338 83 338 163q0 30 -37 81t-37 67q0 11 20 67
t27 68q110 -127 110 -233zM913 -348q-27 -92 -49 -109q-3 -1 -8 -1q-32 0 -81 19q-57 23 -57 48q0 7 5 14q9 11 35 74q18 45 39 45q6 0 14 -4l72 -34q32 -18 32 -40q0 -6 -2 -12z" />
    <glyph glyph-name="fe90" unicode="&#x628;" horiz-adv-x="1469" arabic-form="final" 
d="M1469 0q-81 0 -186 154q-32 -41 -49 -58q-32 -31 -71 -53q-34 -19 -224 -64q-256 -61 -452 -61q-192 0 -326 68q-161 82 -161 237q0 50 36 148.5t59 98.5q4 0 7 -3q6 -7 0 -30q-10 -33 -10 -36q-9 -76 0 -106q58 -197 445 -197q423 0 713 140q24 12 35 38q6 17 12 35
q10 23 18 23q10 0 15 -26.5t2 -41.5q-3 -18 -14 -57q60 -43 151 -43v-166zM930 -356q-30 -94 -47 -111q-3 -1 -7 -1q-32 0 -83 20q-59 23 -59 49q0 7 5 14q9 12 34 74q18 44 39 44q6 0 13 -3l74 -34q33 -18 33 -40q0 -6 -2 -12z" />
    <glyph glyph-name="fe91" unicode="&#x628;" horiz-adv-x="246" arabic-form="initial" 
d="M180 238q0 -98 -39 -181q-27 -57 -141 -57v166q93 0 102 49q-12 34 -44 79q-26 36 -31 75q13 43 45 114q4 2 8 2q28 0 56 -59q33 -70 44 -188zM221 -664q-19 -61 -25 -75q-9 -23 -20 -33q-3 -2 -9 -2q-32 0 -82 20q-57 23 -57 48q0 7 5 14q7 11 34 75q18 43 38 43
q7 0 14 -3q36 -17 73 -34q31 -18 31 -40q0 -6 -2 -13z" />
    <glyph glyph-name="fe92" unicode="&#x628;" horiz-adv-x="403" arabic-form="medial" 
d="M403 0q-35 0 -102.5 36.5t-97.5 36.5q-25 0 -87 -37.5t-116 -37.5v168q78 16 116 36q45 25 66 31q8 2 17 2q30 0 101.5 -34.5t102.5 -34.5v-166zM286 -274q-19 -61 -25 -75q-9 -23 -20 -33q-3 -2 -9 -2q-32 0 -82 20q-57 23 -57 48q0 7 5 14q7 11 34 75q18 43 38 43
q7 0 14 -3q36 -17 73 -34q31 -18 31 -40q0 -6 -2 -13z" />
    <glyph glyph-name="fe93" unicode="&#x629;" horiz-adv-x="383" arabic-form="isolated" 
d="M341 802q-7 -23 -29 -67q-26 -48 -38 -53q-13 -5 -65 29q-46 31 -52 39.5t-2 20.5q21 64 57 114q7 10 14 7q56 -22 113 -70q6 -6 2 -20zM149 769q-7 -23 -29 -67q-26 -48 -38 -53q-13 -5 -65 29q-46 31 -52 39.5t-2 20.5q21 64 57 114q7 10 14 7q56 -22 113 -70
q6 -6 2 -20zM383 274q0 -185 -129 -270q-31 -6 -74 -23q-33 -12 -59 -12q-50 0 -85.5 48.5t-35.5 115.5q0 63 61 213q59 143 103 197q119 -62 164 -113q55 -61 55 -156zM262 195q0 47 -36 83t-85 41q-47 -47 -47 -104q0 -29 58 -47q89 0 110 27z" />
    <glyph glyph-name="fe94" unicode="&#x629;" horiz-adv-x="657" arabic-form="final" 
d="M372 1011q0 -17 -17 -62q-22 -57 -48 -60q-24 1 -64 36q-35 30 -49 54q9 28 32 72q26 49 38 53q10 0 55 -33q49 -37 53 -60zM176 938q5 -15 -13 -65q-20 -53 -37 -54q-16 2 -65 32q-53 33 -57 50q-11 22 59 127q64 -32 113 -90zM657 0q-133 0 -204 74q-58 61 -109 217
q-61 -80 -75 -91q-53 -43 -154 -46q-113 -3 -113 71q0 137 136 240q19 15 151 84q6 23 4.5 74t3.5 75q10 46 24 46q12 0 21 -52q36 -220 78 -319q80 -189 237 -207v-166zM326 362q-10 46 -27 125q-16 -39 -60 -77l-98 -76q65 -7 101 0q33 6 84 28z" />
    <glyph glyph-name="fe95" unicode="&#x62a;" horiz-adv-x="1179" arabic-form="isolated" 
d="M823 715q0 -17 -17 -63q-22 -59 -48 -62q-23 3 -62 37q-37 31 -49 55q39 112 70 125q10 0 54 -33q48 -36 52 -59zM627 641q5 -15 -13 -66q-19 -54 -36 -55q-17 2 -66 33q-53 33 -57 49q-9 25 59 127q56 -25 113 -88zM1177 367q0 -80 -49 -193q-99 -102 -339.5 -176
t-475.5 -74q-136 0 -225.5 88.5t-89.5 218.5q0 20 21 96q27 98 59 128q9 3 15 3q11 0 11 -14q0 -8 -9.5 -53t-9.5 -78t9 -63q19 -63 108.5 -106.5t194.5 -43.5q138 0 359 54q338 83 338 163q0 30 -37 81t-37 67q0 11 20 67t27 68q110 -127 110 -233z" />
    <glyph glyph-name="fe96" unicode="&#x62a;" horiz-adv-x="1469" arabic-form="final" 
d="M922 729q0 -15 -18 -61q-22 -59 -48 -62q-24 3 -63 37q-35 31 -48 55q43 112 68 123q11 0 55 -32q49 -36 54 -60zM725 657q4 -17 -13 -66q-18 -52 -34 -52q-18 0 -70 31t-53 48q-11 24 57 127q51 -22 113 -88zM1469 0q-81 0 -186 154q-32 -41 -49 -58q-32 -31 -71 -53
q-34 -19 -224 -64q-256 -61 -452 -61q-192 0 -326 68q-161 82 -161 237q0 50 36 148.5t59 98.5q4 0 7 -3q6 -7 0 -30q-10 -33 -10 -36q-9 -76 0 -106q58 -197 445 -197q423 0 713 140q24 12 35 38q6 17 12 35q10 23 18 23q10 0 15 -26.5t2 -41.5q-3 -18 -14 -57
q60 -43 151 -43v-166z" />
    <glyph glyph-name="fe97" unicode="&#x62a;" horiz-adv-x="268" arabic-form="initial" 
d="M217 944q0 -18 -16 -63q-22 -59 -49 -62q-23 1 -63 36q-36 32 -48 56q7 25 32 70q26 49 38 53q10 0 54 -32q48 -35 52 -58zM23 870q4 -17 -14 -66q-20 -53 -38 -54q-15 2 -65 33q-53 33 -56 48q-11 23 58 127q56 -25 115 -88zM180 238q0 -98 -39 -181q-27 -57 -141 -57
v166q93 0 102 49q-12 34 -44 79q-26 36 -31 75q13 43 45 114q4 2 8 2q28 0 56 -59q33 -70 44 -188z" />
    <glyph glyph-name="fe98" unicode="&#x62a;" horiz-adv-x="451" arabic-form="medial" 
d="M357 937q0 -18 -16 -63q-22 -59 -49 -62q-23 1 -63 36q-36 32 -48 56q7 25 32 70q26 49 38 53q10 0 54 -32q48 -35 52 -58zM163 863q4 -17 -14 -66q-20 -53 -38 -54q-15 2 -65 33q-53 33 -56 48q-11 23 58 127q56 -25 115 -88zM451 0q-21 0 -67 17q-58 22 -96 53
q-15 13 -58 100q-64 -94 -71 -101q-66 -69 -159 -69v166q71 0 134 27q40 17 80 92q36 67 58 67q7 0 16 -5q0 -5 -2 -27t-2 -37q3 -24 63 -69q63 -48 104 -48v-166z" />
    </font>
</defs>
</svg>
