<?xml version="1.0" standalone="no"?>
<!DOCTYPE svg PUBLIC "-//W3C//DTD SVG 1.1//EN" "http://www.w3.org/Graphics/SVG/1.1/DTD/svg11.dtd" >
<svg xmlns="http://www.w3.org/2000/svg" xmlns:xlink="http://www.w3.org/1999/xlink" version="1.1">
<metadata>
Created by FontForge 20170731 at Sat Oct 13 12:17:15 2001
 By Aleksey,,,
(c) 2000 Borna Rayaneh
</metadata>
<defs>
<font id="BLotus" horiz-adv-x="0" >
  <font-face 
    font-family="B Lotus"
    font-weight="400"
    font-stretch="normal"
    units-per-em="2048"
    panose-1="0 0 4 0 0 0 0 0 0 0"
    ascent="1638"
    descent="-410"
    bbox="-183 -1383 2279 1845"
    underline-thickness="60"
    underline-position="-1060"
    unicode-range="U+0020-FEFC"
  />
<missing-glyph horiz-adv-x="1024" 
d="M128 0v1222h768v-1222h-768zM256 128h512v966h-512v-966z" />
    <glyph glyph-name="uE818" unicode="&#x651;&#x64b;" 
d="M353 1356q0 -40 -25 -81q-31 -50 -78 -50q-19 0 -39 8q-51 -93 -123 -93q-61 0 -61 86q0 51 34 113q6 11 14 12q4 -5 7 -10q-3 -25 -3 -46q0 -65 30 -65q42 0 72 92t32 92q8 0 15.5 -48.5t33.5 -48.5q30 0 45 76.5t19 76.5q27 0 27 -114zM405 1817l-35 -90l-348 -171
l34 84zM395 1669l-34 -90l-349 -171l35 84z" />
    <glyph glyph-name="uFC5E" unicode="&#x651;&#x64c;" arabic-form="isolated" 
d="M374 1355q0 -40 -25 -81q-31 -50 -78 -50q-19 0 -39 8q-51 -93 -123 -93q-61 0 -61 86q0 51 34 113q6 11 14 12q4 -5 7 -10q-3 -25 -3 -46q0 -65 30 -65q42 0 72 92t32 92q8 0 15.5 -48.5t33.5 -48.5q30 0 45 76.5t19 76.5q27 0 27 -114zM421 1763q0 -89 -61 -148
q5 -3 50 -22l-10 -81q-53 9 -98 52q-115 -94 -233 -113l-48 32q66 44 70 99q3 33 -6 40q-21 15 -75 -14l-1 28q50 54 89 54q55 0 55 -57q0 -50 -34 -109q108 44 129 77q-38 40 -38 91q0 41 53 97t93 56q65 0 65 -82zM339 1768q-16 0 -41.5 -18.5t-25.5 -34.5t15.5 -39.5
t30.5 -23.5q19 0 31 35q10 28 10 52q0 29 -20 29z" />
    <glyph glyph-name="uFC5F" unicode="&#x651;&#x64d;" arabic-form="isolated" 
d="M384 1714q0 -40 -25 -81q-31 -50 -78 -50q-19 0 -39 8q-51 -93 -123 -93q-61 0 -61 86q0 51 34 113q6 11 14 12q4 -5 7 -10q-3 -25 -3 -46q0 -65 30 -65q42 0 72 92t32 92q8 0 15.5 -48.5t33.5 -48.5q30 0 45 76.5t19 76.5q27 0 27 -114zM409 1520l-35 -90l-349 -170
l36 84zM400 1373l-35 -90l-349 -170l35 84z" />
    <glyph glyph-name="uFC60" unicode="&#x651;&#x64e;" arabic-form="isolated" 
d="M365 1361q0 -40 -25 -81q-31 -50 -78 -50q-19 0 -39 8q-51 -93 -123 -93q-61 0 -61 86q0 51 34 113q6 11 14 12q4 -5 7 -10q-3 -25 -3 -46q0 -65 30 -65q42 0 72 92t32 92q8 0 15.5 -48.5t33.5 -48.5q30 0 45 76.5t19 76.5q27 0 27 -114zM396 1666l-33 -89l-342 -167
l34 82z" />
    <glyph glyph-name="uFC61" unicode="&#x651;&#x64f;" arabic-form="isolated" 
d="M393 1336q0 -40 -25 -81q-31 -50 -78 -50q-19 0 -39 8q-51 -93 -123 -93q-61 0 -61 86q0 51 34 113q6 11 14 12q4 -5 7 -10q-3 -25 -3 -46q0 -65 30 -65q42 0 72 92t32 92q8 0 15.5 -48.5t33.5 -48.5q30 0 45 76.5t19 76.5q27 0 27 -114zM435 1748q0 -86 -60 -144
q16 -10 47 -25l-6 -78q-65 19 -104 55q-115 -99 -242 -119q-40 7 -42 36q169 57 237 117q-43 43 -43 88q0 42 53.5 97t94.5 55q65 0 65 -82zM353 1753q-18 0 -43 -17.5t-25 -34.5t14 -39q15 -25 31 -25q19 0 32 36q9 28 9 52q0 28 -18 28z" />
    <glyph glyph-name="uFC62" unicode="&#x651;&#x650;" arabic-form="isolated" 
d="M370 1511q0 -40 -25 -81q-31 -50 -78 -50q-19 0 -39 8q-51 -93 -123 -93q-61 0 -61 86q0 51 34 113q6 11 14 12q4 -5 7 -10q-3 -25 -3 -46q0 -65 30 -65q42 0 72 92t32 92q8 0 15.5 -48.5t33.5 -48.5q30 0 45 76.5t19 76.5q27 0 27 -114zM391 1340l-34 -88l-341 -167
l33 82z" />
    <glyph glyph-name="uFDF2" unicode="&#xfedf;&#xfee0;&#xfeea;" horiz-adv-x="1275" arabic-form="isolated" 
d="M878 1174q0 -21 -8 -59q-10 -47 -21 -47q-1 10 -8 65q-5 39 -23 77q-3 5 18.5 24t30.5 16q11 -39 11 -76zM964 1040q5 -155 -82 -155q-34 0 -58 38q-38 -82 -99 -82q-53 0 -53 58q0 22 19 68q20 51 37 51q7 0 7 -8q0 -10 -6 -30t-6 -31q0 -25 27 -25q26 0 53.5 56.5
t34.5 56.5q5 0 14.5 -40.5t36.5 -40.5q45 0 53 76q3 25 13 25q8 0 9 -17zM1273 276q0 -96 -34 -175q-43 -101 -123 -101q-108 0 -179 194q-83 -204 -239 -204q-126 0 -166 186q-89 -115 -139 -115q-36 0 -110 20q-86 23 -86 48q0 16 24 81t34 76q105 108 254 140
q-2 75 5 158l49 41q9 8 9 -5q0 -216 16 -299q35 -182 155 -182q45 0 96 34q55 37 55 79q0 70 -68 446l53 112q10 22 14 3q27 -140 55 -276q81 -398 191 -398q65 0 65 110q0 198 -102 476l58 98q34 -86 71 -249q42 -187 42 -298zM523 220l-12 135q-58 0 -129 -51
q-63 -45 -63 -62q0 -15 60 -24q46 -7 73 -7q43 0 71 9z" />
    <glyph glyph-name="uFEF5" unicode="&#xfedf;&#xfe82;" horiz-adv-x="995" arabic-form="isolated" 
d="M1043 1132q-62 -49 -62 -110q0 -248 -29 -406q-25 -136 -90 -295q47 -136 47 -225q0 -23 -22.5 -65t-42.5 -51q-44 -21 -170 -23q-105 -2 -184 7q-1 3 -1 11v117h46q76 0 166 91q78 79 78 108q-63 136 -175 296q-129 184 -259 306q-15 -11 -48 -51q-30 18 -109 103
q-84 90 -84 111q0 17 22 91q24 80 38 85q178 -116 380 -396q166 -230 277 -465q90 219 90 481q0 173 -41 311l85 105zM846 110q-7 49 -33 103q-40 -60 -116 -114q25 -1 46 -1q68 0 103 12zM442 1564q-40 -111 -137 -140q-47 -14 -106 -16q-81 -3 -87 -4q-48 -6 -78 -35
q-12 -11 -20 -16q-6 -2 -6 6q0 9 4 25q24 95 85 106q74 -2 234 24q66 22 102 66q6 7 10 9q5 2 5 -3t-6 -22z" />
    <glyph glyph-name="uFEF6" unicode="&#xfee0;&#xfe82;" horiz-adv-x="1280" arabic-form="final" 
d="M1312 1h-83q-125 0 -176 118q-20 45 -59 260q-14 75 -41 292q-5 37 -9 39q-5 0 -11 -39q-33 -225 -82 -362q-92 -259 -259 -359q-38 -23 -165 -48q-123 -25 -174 -23q-26 1 -26 11q0 8 19 14q210 68 376 188q145 105 145 197t-152.5 250t-244.5 158q-7 0 -37 -64
q-32 0 -119 50q-98 56 -98 96q0 204 26 204q73 0 274 -153q180 -137 247 -219q98 -120 140 -299q109 318 103 751q8 12 65 92q8 11 9 -4q16 -233 26 -332q11 -112 45 -366q42 -311 182 -311h79v-141zM494 1379q-39 -109 -138 -139q-44 -13 -106 -16q-44 -2 -88 -3
q-49 -7 -77 -36q-14 -14 -20 -16t-6 6q0 9 4 25q24 95 85 106q74 -2 234 24q66 22 102 66q5 6 11 9q4 2 4 -4q0 -8 -5 -22z" />
    <glyph glyph-name="uFEF7" unicode="&#xfedf;&#xfe84;" horiz-adv-x="995" arabic-form="isolated" 
d="M1043 1132q-62 -49 -62 -110q0 -248 -29 -406q-25 -136 -90 -295q47 -136 47 -225q0 -23 -22.5 -65t-42.5 -51q-44 -21 -170 -23q-105 -2 -184 7q-1 3 -1 11v117h46q76 0 166 91q78 79 78 108q-63 136 -175 296q-129 184 -259 306q-15 -11 -48 -51q-30 18 -109 103
q-84 90 -84 111q0 17 22 91q24 80 38 85q178 -116 380 -396q166 -230 277 -465q90 219 90 481q0 173 -41 311l85 105zM846 110q-7 49 -33 103q-40 -60 -116 -114q25 -1 46 -1q68 0 103 12zM416 1528q-17 -37 -37 -83q-132 -24 -292 -88q12 23 29 50q45 51 85 63l-50 32
q-21 17 -21 46q0 48 49 104.5t96 56.5q57 0 57 -47q0 -49 -20 -73q-8 -10 -14 4q-18 41 -66 41q-35 0 -35 -35q0 -31 39 -59.5t71 -28.5q19 0 109 17z" />
    <glyph glyph-name="uFEF8" unicode="&#xfee0;&#xfe84;" horiz-adv-x="1282" arabic-form="final" 
d="M1312 1h-83q-125 0 -176 118q-20 45 -59 260q-14 75 -41 292q-5 37 -9 39q-5 0 -11 -39q-33 -225 -82 -362q-92 -259 -259 -359q-38 -23 -165 -48q-123 -25 -174 -23q-26 1 -26 11q0 8 19 14q210 68 376 188q145 105 145 197t-152.5 250t-244.5 158q-7 0 -37 -64
q-32 0 -119 50q-98 56 -98 96q0 204 26 204q73 0 274 -153q180 -137 247 -219q98 -120 140 -299q109 318 103 751q8 12 65 92q8 11 9 -4q16 -233 26 -332q11 -112 45 -366q42 -311 182 -311h79v-141zM416 1313q-17 -37 -37 -83q-132 -24 -292 -88q12 23 29 50q45 51 85 63
l-50 32q-21 17 -21 46q0 48 49 104.5t96 56.5q57 0 57 -47q0 -49 -20 -73q-8 -10 -14 4q-18 41 -66 41q-35 0 -35 -35q0 -31 39 -59.5t71 -28.5q19 0 109 17z" />
    <glyph glyph-name="uFEF9" unicode="&#xfedf;&#xfe88;" horiz-adv-x="995" arabic-form="isolated" 
d="M1043 1132q-62 -49 -62 -110q0 -248 -29 -406q-25 -136 -90 -295q47 -136 47 -225q0 -23 -22.5 -65t-42.5 -51q-44 -21 -170 -23q-105 -2 -184 7q-1 3 -1 11v117h46q76 0 166 91q78 79 78 108q-63 136 -175 296q-129 184 -259 306q-15 -11 -48 -51q-30 18 -109 103
q-84 90 -84 111q0 17 22 91q24 80 38 85q178 -116 380 -396q166 -230 277 -465q90 219 90 481q0 173 -41 311l85 105zM846 110q-7 49 -33 103q-40 -60 -116 -114q25 -1 46 -1q68 0 103 12zM608 -326l-37 -83q-131 -23 -291 -88q12 24 28 51q45 50 85 63l-50 32
q-20 17 -20 46q0 48 49 104.5t96 56.5q56 0 56 -47q0 -48 -19 -73q-8 -11 -15 4q-19 41 -65 41q-36 0 -36 -35q0 -31 41 -60q38 -28 70 -28q18 0 108 16z" />
    <glyph glyph-name="uFEFA" unicode="&#xfee0;&#xfe88;" horiz-adv-x="1282" arabic-form="final" 
d="M1312 1h-83q-125 0 -176 118q-20 45 -59 260q-14 75 -41 292q-5 37 -9 39q-5 0 -11 -39q-33 -225 -82 -362q-92 -259 -259 -359q-38 -23 -165 -48q-123 -25 -174 -23q-26 1 -26 11q0 8 19 14q210 68 376 188q145 105 145 197t-152.5 250t-244.5 158q-7 0 -37 -64
q-32 0 -119 50q-98 56 -98 96q0 204 26 204q73 0 274 -153q180 -137 247 -219q98 -120 140 -299q109 318 103 751q8 12 65 92q8 11 9 -4q16 -233 26 -332q11 -112 45 -366q42 -311 182 -311h79v-141zM618 -418q-16 -36 -36 -83q-132 -23 -292 -88q12 24 28 50q45 51 85 64
q-70 45 -70 78q0 48 49 104t96 56q57 0 57 -47q0 -48 -20 -72q-8 -10 -14 4q-18 41 -66 41q-36 0 -36 -35q0 -31 41 -60q38 -28 70 -28q18 0 108 16z" />
    <glyph glyph-name="uFEFB" unicode="&#xfedf;&#xfe8e;" horiz-adv-x="995" arabic-form="isolated" 
d="M1043 1132q-62 -49 -62 -110q0 -248 -29 -406q-25 -136 -90 -295q47 -136 47 -225q0 -23 -22.5 -65t-42.5 -51q-44 -21 -170 -23q-105 -2 -184 7q-1 3 -1 11v117h46q76 0 166 91q78 79 78 108q-63 136 -175 296q-129 184 -259 306q-15 -11 -48 -51q-30 18 -109 103
q-84 90 -84 111q0 17 22 91q24 80 38 85q178 -116 380 -396q166 -230 277 -465q90 219 90 481q0 173 -41 311l85 105zM846 110q-7 49 -33 103q-40 -60 -116 -114q25 -1 46 -1q68 0 103 12z" />
    <glyph glyph-name="uFEFC" unicode="&#xfee0;&#xfe8e;" horiz-adv-x="1282" arabic-form="final" 
d="M1312 1h-83q-125 0 -176 118q-20 45 -59 260q-14 75 -41 292q-5 37 -9 39q-5 0 -11 -39q-33 -225 -82 -362q-92 -259 -259 -359q-38 -23 -165 -48q-123 -25 -174 -23q-26 1 -26 11q0 8 19 14q210 68 376 188q145 105 145 197t-152.5 250t-244.5 158q-7 0 -37 -64
q-32 0 -119 50q-98 56 -98 96q0 204 26 204q73 0 274 -153q180 -137 247 -219q98 -120 140 -299q109 318 103 751q8 12 65 92q8 11 9 -4q16 -233 26 -332q11 -112 45 -366q42 -311 182 -311h79v-141z" />
    <glyph glyph-name="u0652_u064E.liga" unicode="&#x652;&#x64e;" horiz-adv-x="1" 
d="M230 1043q1 -5 1 -12q0 -37 -23 -57q-3 -3 -7 -2q-4 0 -4 4q0 42 -16 121q-22 105 -25 123q16 14 42 34q3 2 5 3q3 -3 2 -16q-2 -11 -2 -14q0 -20 27 -184z" />
    <glyph glyph-name="u0652_u064B.liga" unicode="&#x652;&#x64b;" horiz-adv-x="1" 
d="M562 829q-28 -49 -73 -114q-58 49 -120 89q-25 -36 -69 -106q-43 32 -120 88q41 62 68 115l125 -89l73 98q75 -54 116 -81z" />
    <glyph glyph-name="u0652_u064D.liga" unicode="&#x652;&#x64d;" horiz-adv-x="1" 
d="M801 -751q-28 -49 -73 -114q-58 49 -120 89q-25 -36 -69 -106q-43 32 -120 88q41 62 68 115l125 -89l73 98q75 -54 116 -81z" />
    <glyph glyph-name="u0622" unicode="&#x622;" horiz-adv-x="504" arabic-form="isolated" 
d="M569 1502q-40 -110 -137 -138q-46 -13 -106 -16q-44 -2 -87 -4q-49 -6 -78 -35q-14 -14 -20 -16t-6 5q0 9 4 25q23 93 85 105q34 6 114 8q155 3 222 84q6 7 10 8q5 2 5 -4t-6 -22zM427 290q2 -29 2 -48q0 -153 -41 -238q-5 -11 -12 -9t-7 16q1 123 -28 421
q-21 218 -43 592q28 58 72 141q6 12 10 13q5 0 2 -64q-1 -22 -1 -60q0 -99 46 -764z" />
    <glyph glyph-name="u0623" unicode="&#x623;" horiz-adv-x="422" arabic-form="isolated" 
d="M462 1413q-17 -43 -37 -83q-172 -27 -273 -68q3 13 11 30q40 48 85 64q-25 15 -51 31q-21 17 -21 46q0 48 50 104t97 56q55 0 55 -47q0 -50 -19 -72q-7 -10 -14 5q-18 40 -66 40q-36 0 -36 -34q0 -31 41 -60q38 -28 70 -28q33 0 108 16zM366 290q1 -14 1 -48
q0 -155 -40 -238q-5 -11 -13 -9q-7 2 -7 16q1 128 -27 421q-22 234 -43 592q28 59 72 141q6 11 10 13q4 -10 2 -64q-2 -50 -2 -60q0 -84 47 -764z" />
    <glyph glyph-name="u0624" unicode="&#x624;" horiz-adv-x="829" arabic-form="isolated" 
d="M792 901q-17 -43 -37 -83q-170 -27 -274 -68q3 13 12 30q40 48 85 64q-26 15 -51 31q-21 17 -21 46q0 48 49.5 104t96.5 56q56 0 56 -47q0 -49 -19 -72q-8 -9 -14 5q-17 40 -67 40q-36 0 -36 -34q0 -31 40 -59.5t72 -28.5q33 0 108 16zM823 213q0 -202 -134 -394
q-147 -211 -341 -211q-113 0 -245 125q-23 22 -23 28t12 6q-16 0 -17 -2q0 -6 76 -23q111 -24 152 -24q128 0 269 110q138 107 180 232q14 42 -4 74q-65 -39 -111 -39q-55 0 -89 45q-31 41 -31 98q0 67 47 169q53 116 112 116q79 0 119 -124q28 -88 28 -186zM743 261
q0 38 -27 78q-30 43 -66 43q-19 0 -36.5 -25t-17.5 -45q0 -83 58 -83q89 0 89 32z" />
    <glyph glyph-name="u0625" unicode="&#x625;" horiz-adv-x="475" arabic-form="isolated" 
d="M396 290q2 -29 2 -48q0 -153 -41 -238q-5 -11 -12 -9t-7 16q1 123 -28 421q-21 218 -43 592q28 58 72 141q6 12 11 13q3 -9 1 -64q-1 -26 -1 -60q0 -99 46 -764zM503 -287q-17 -43 -37 -83q-172 -27 -273 -68q3 13 11 30q40 48 85 64q-25 15 -51 31q-21 17 -21 46
q0 48 50 104.5t97 56.5q55 0 55 -48q0 -50 -19 -72q-7 -10 -14 5q-18 40 -67 40q-35 0 -35 -34q0 -31 41 -60q38 -28 70 -28q33 0 108 16z" />
    <glyph glyph-name="u0626" unicode="&#x626;" horiz-adv-x="1313" arabic-form="isolated" 
d="M1307 639q0 -20 -13.5 -67.5t-17.5 -47.5l-31 13q-29 12 -63 12q-87 0 -211 -78q-134 -84 -134 -165q0 -83 111 -113l208 -32q112 -17 112 -79q0 -48 -16 -123q-18 -86 -40 -113q-60 -75 -249 -159q-214 -95 -395 -95q-168 0 -268 78q-110 85 -110 249q0 223 155 431
q3 4 12 3q10 -1 7 -9q-104 -215 -104 -317q0 -142 100 -218q89 -68 236 -68q189 0 471 124q144 63 144 127q0 29 -232 59q-109 14 -156 48q-57 42 -57 134q0 102 171 294q159 178 276 178q24 0 55 -16q39 -20 39 -50zM567 657l-37 -83q-131 -23 -291 -88q12 24 28 51
q45 50 85 63l-50 32q-20 17 -20 46q0 48 49 104.5t96 56.5q56 0 56 -47q0 -49 -19 -73q-8 -10 -14 4q-19 41 -66 41q-36 0 -36 -35q0 -31 41 -60q38 -28 70 -28q18 0 108 16z" />
    <glyph glyph-name="u0627" unicode="&#x627;" horiz-adv-x="330" arabic-form="isolated" 
d="M325 290q1 -14 1 -48q0 -155 -40 -238q-5 -11 -13 -9q-7 2 -7 16q1 128 -27 421q-22 234 -43 592q28 59 72 141q6 11 10 13q4 -10 2 -64q-2 -50 -2 -60q0 -84 47 -764z" />
    <glyph glyph-name="u0628" unicode="&#x628;" horiz-adv-x="1597" arabic-form="isolated" 
d="M1596 390q0 -76 -38 -165q-30 -70 -52 -91q-61 -58 -287 -116q-262 -67 -532 -67q-195 0 -318 53q-173 74 -173 242q0 142 93 246q6 7 14 4t3 -11q-47 -76 -47 -166q0 -126 199 -180q128 -35 294 -35q201 0 405 43q134 28 252 68q139 47 139 73q0 63 -81 158l53 135
q10 26 19 10q57 -104 57 -201zM991 -417q-20 -43 -57 -133q-56 33 -127 70q6 13 56 137q46 -32 128 -74z" />
    <glyph glyph-name="u0629" unicode="&#x629;" horiz-adv-x="584" arabic-form="isolated" 
d="M536 896q-17 -43 -37 -83q-172 -27 -274 -69q3 14 12 31q40 48 85 64q-26 15 -51 31q-21 17 -21 45q0 48 49.5 104.5t96.5 56.5q56 0 56 -47q0 -50 -19 -73q-7 -9 -14 6q-17 39 -67 39q-36 0 -36 -33q0 -31 41 -61q38 -27 71 -27t108 16zM577 271q18 -145 -23 -206
q-52 -78 -225 -78q-45 0 -83 36q-50 48 -50 138q0 84 58 216q61 138 107 138q71 0 142 -88q65 -80 74 -156zM523 187q0 61 -68 110q-62 44 -126 44q-11 0 -39.5 -66.5t-23.5 -80.5q25 -50 137 -50q120 0 120 43z" />
    <glyph glyph-name="u062A" unicode="&#x62a;" horiz-adv-x="1597" arabic-form="isolated" 
d="M1052 752q-29 -50 -73 -115q-58 49 -120 89q-25 -35 -69 -105q-44 31 -120 88q41 61 67 114l126 -89l73 99q75 -55 116 -81zM1596 390q0 -76 -38 -165q-30 -70 -52 -91q-61 -58 -287 -116q-262 -67 -532 -67q-195 0 -318 53q-173 74 -173 242q0 142 93 246q6 7 14 4
t3 -11q-47 -76 -47 -166q0 -126 199 -180q128 -35 294 -35q201 0 405 43q134 28 252 68q139 47 139 73q0 63 -81 158l53 135q10 26 19 10q57 -104 57 -201z" />
    <glyph glyph-name="u062B" unicode="&#x62b;" horiz-adv-x="1597" arabic-form="isolated" 
d="M900 955q-18 -40 -59 -120l-115 69q31 61 56 121zM1043 735q-37 -59 -64 -108q-75 54 -120 80q-24 -33 -67 -98l-116 82q22 33 66 105q59 -41 125 -81l64 99zM1596 390q0 -76 -38 -165q-30 -70 -52 -91q-61 -58 -287 -116q-262 -67 -532 -67q-195 0 -318 53
q-173 74 -173 242q0 142 93 246q6 7 14 4t3 -11q-47 -76 -47 -166q0 -126 199 -180q128 -35 294 -35q201 0 405 43q134 28 252 68q139 47 139 73q0 63 -81 158l53 135q10 26 19 10q57 -104 57 -201z" />
    <glyph glyph-name="u062C" unicode="&#x62c;" horiz-adv-x="1186" arabic-form="isolated" 
d="M1411 -726q-254 -116 -319 -132q-95 -23 -245 -23q-284 0 -452 112q-199 132 -199 403q0 251 186 444q133 138 311 209q-190 34 -246 34q-112 0 -166 -60q-12 -13 -22 -11q-9 2 -4 17q70 196 216 196q85 0 253.5 -30t253.5 -30h165q18 0 16 -4l-51 -121
q-303 -2 -549 -145q-292 -170 -292 -451q0 -428 659 -428q231 0 485 46q20 4 20 -7q0 -10 -20 -19zM841 -249q-21 -43 -58 -133q-55 33 -127 70q6 12 57 137q46 -32 128 -74z" />
    <glyph glyph-name="u062D" unicode="&#x62d;" horiz-adv-x="1186" arabic-form="isolated" 
d="M1411 -726q-254 -116 -319 -132q-95 -23 -245 -23q-284 0 -452 112q-199 132 -199 403q0 251 186 444q133 138 311 209q-190 34 -246 34q-112 0 -166 -60q-12 -13 -22 -11q-9 2 -4 17q70 196 216 196q85 0 253.5 -30t253.5 -30h165q18 0 16 -4l-51 -121
q-303 -2 -549 -145q-292 -170 -292 -451q0 -428 659 -428q231 0 485 46q20 4 20 -7q0 -10 -20 -19z" />
    <glyph glyph-name="u062E" unicode="&#x62e;" horiz-adv-x="1186" arabic-form="isolated" 
d="M759 857q-21 -43 -58 -133q-55 33 -127 70q6 12 57 137q46 -32 128 -74zM1411 -726q-254 -116 -319 -132q-95 -23 -245 -23q-284 0 -452 112q-199 132 -199 403q0 251 186 444q133 138 311 209q-190 34 -246 34q-112 0 -166 -60q-12 -13 -22 -11q-9 2 -4 17
q70 196 216 196q85 0 253.5 -30t253.5 -30h165q18 0 16 -4l-51 -121q-303 -2 -549 -145q-292 -170 -292 -451q0 -428 659 -428q231 0 485 46q20 4 20 -7q0 -10 -20 -19z" />
    <glyph glyph-name="u062F" unicode="&#x62f;" horiz-adv-x="715" arabic-form="isolated" 
d="M714 270q0 -109 -24 -154q-36 -68 -166 -103q-95 -25 -201 -25q-58 0 -122 15q-6 2 -5 8q3 50 30 172q57 -21 129 -21q96 0 189 22q131 31 131 87q0 70 -118 157q-105 77 -210 108q40 162 49 162q68 0 180 -114q138 -140 138 -314z" />
    <glyph glyph-name="u0630" unicode="&#x630;" horiz-adv-x="715" arabic-form="isolated" 
d="M457 1036q-21 -43 -58 -133q-55 33 -127 70q6 13 57 137q46 -32 128 -74zM714 270q0 -109 -24 -154q-36 -68 -166 -103q-95 -25 -201 -25q-58 0 -122 15q-6 2 -5 8q3 50 30 172q57 -21 129 -21q96 0 189 22q131 31 131 87q0 70 -118 157q-105 77 -210 108q40 162 49 162
q68 0 180 -114q138 -140 138 -314z" />
    <glyph glyph-name="u0631" unicode="&#x631;" horiz-adv-x="756" arabic-form="isolated" 
d="M754 123q0 -206 -133 -360q-55 -63 -129 -108q-86 -52 -158 -52q-105 0 -246 108q-13 10 -11 17q1 6 15 2q108 -33 174 -33q139 0 300 157q148 145 148 230q0 46 -61 132q-51 72 -99 114q45 85 71 128q61 -52 97 -154q32 -90 32 -181z" />
    <glyph glyph-name="u0632" unicode="&#x632;" horiz-adv-x="756" arabic-form="isolated" 
d="M668 753q-21 -43 -58 -133q-55 33 -127 69q6 13 57 137q46 -31 128 -73zM754 123q0 -206 -133 -360q-55 -63 -129 -108q-86 -52 -158 -52q-105 0 -246 108q-13 10 -11 17q1 6 15 2q108 -33 174 -33q139 0 300 157q148 145 148 230q0 46 -61 132q-51 72 -99 114
q45 85 71 128q61 -52 97 -154q32 -90 32 -181z" />
    <glyph glyph-name="u0633" unicode="&#x633;" horiz-adv-x="1826" arabic-form="isolated" 
d="M1825 315q0 -94 -29 -160q-39 -89 -121 -89q-85 0 -167 102q-81 -111 -165 -141q-70 -25 -246 -25q-27 -289 -149 -424q-136 -149 -417 -149q-146 0 -238 79q-97 84 -97 228q0 70 37 163q35 88 82 147q10 12 16 7q5 -4 2 -12q-78 -180 -78 -246q0 -220 343 -220
q95 0 210 36q135 42 178 106q41 60 41 204q0 111 -95 233l72 112q7 11 24 -15q44 -67 59 -79q38 -31 117 -31q233 0 305 163q25 56 34 56t12 -23q5 -40 17 -69q30 -72 132 -81q36 -3 46 2q14 7 14 39q0 39 -51 103q60 102 76 121q5 6 9 -1q27 -50 27 -136z" />
    <glyph glyph-name="u0634" unicode="&#x634;" horiz-adv-x="1826" arabic-form="isolated" 
d="M1530 976q-18 -41 -60 -121l-114 70q31 61 56 121zM1673 756q-37 -59 -64 -109q-76 55 -120 80q-25 -32 -68 -97q-41 28 -115 82q22 32 66 104q59 -41 125 -81l64 100zM1825 315q0 -94 -29 -160q-39 -89 -121 -89q-85 0 -167 102q-81 -111 -165 -141q-70 -25 -246 -25
q-27 -289 -149 -424q-136 -149 -417 -149q-146 0 -238 79q-97 84 -97 228q0 70 37 163q35 88 82 147q10 12 16 7q5 -4 2 -12q-78 -180 -78 -246q0 -220 343 -220q95 0 210 36q135 42 178 106q41 60 41 204q0 111 -95 233l72 112q7 11 24 -15q44 -67 59 -79q38 -31 117 -31
q233 0 305 163q25 56 34 56t12 -23q5 -40 17 -69q30 -72 132 -81q36 -3 46 2q14 7 14 39q0 39 -51 103q60 102 76 121q5 6 9 -1q27 -50 27 -136z" />
    <glyph glyph-name="u0635" unicode="&#x635;" horiz-adv-x="2169" arabic-form="isolated" 
d="M2166 393q0 -217 -314 -317q-188 -60 -447 -69q-30 -61 -76 -136q-11 5 -11 19q0 13 36 111h-257q-27 -288 -149 -423q-136 -149 -417 -149q-146 0 -238 79q-97 84 -97 228q0 70 37 163q35 87 82 147q8 10 15 7t3 -12q-78 -177 -78 -246q0 -220 343 -220q96 0 212 36
q138 43 182 106q36 52 36 197q0 79 -25 132q-21 44 -71 108l72 112q8 12 24 -15q37 -63 57 -79q38 -30 119 -30h162q46 0 67 17q4 3 45 52q30 37 55 66q93 108 202 183q140 96 267 96q164 0 164 -163zM2060 314q0 26 -45 57q-53 37 -121 37q-112 0 -246 -100
q-106 -79 -160 -158q180 0 385 67q187 61 187 97z" />
    <glyph glyph-name="u0636" unicode="&#x636;" horiz-adv-x="2169" arabic-form="isolated" 
d="M1875 934q-21 -43 -57 -133q-56 33 -127 69q6 13 56 138q46 -32 128 -74zM2166 393q0 -217 -314 -317q-188 -60 -447 -69q-30 -61 -76 -136q-11 5 -11 19q0 13 36 111h-257q-27 -288 -149 -423q-136 -149 -417 -149q-146 0 -238 79q-97 84 -97 228q0 70 37 163
q35 87 82 147q8 10 15 7t3 -12q-78 -177 -78 -246q0 -220 343 -220q96 0 212 36q138 43 182 106q36 52 36 197q0 79 -25 132q-21 44 -71 108l72 112q8 12 24 -15q37 -63 57 -79q38 -30 119 -30h162q46 0 67 17q4 3 45 52q30 37 55 66q93 108 202 183q140 96 267 96
q164 0 164 -163zM2060 314q0 26 -45 57q-53 37 -121 37q-112 0 -246 -100q-106 -79 -160 -158q180 0 385 67q187 61 187 97z" />
    <glyph glyph-name="u0637" unicode="&#x637;" horiz-adv-x="1287" arabic-form="isolated" 
d="M1286 391q0 -54 -29.5 -116.5t-71.5 -95.5q-81 -63 -229 -112q-200 -66 -434 -66h-164q-28 0 -79 43q-41 35 -70 74q-9 13 -10 18q0 6 29 6h164q145 0 189 83q28 53 28 209q0 157 -31 365q-34 229 -79 306l89 126q6 8 9 1q43 -89 89 -155q-62 -75 -62 -131q0 29 2 30
q4 -8 10 -56q33 -276 33 -430q0 -100 -9 -204q98 109 209 186q131 91 221 91q87 0 139 -42q57 -45 57 -130zM1202 322q0 40 -66 69q-53 23 -100 23q-175 0 -427 -262q218 0 421 74q172 63 172 96z" />
    <glyph glyph-name="u0638" unicode="&#x638;" horiz-adv-x="1288" arabic-form="isolated" 
d="M1079 975q-20 -43 -57 -133q-56 33 -127 69q6 13 56 138q46 -32 128 -74zM1286 391q0 -54 -29.5 -116.5t-71.5 -95.5q-81 -63 -229 -112q-200 -66 -434 -66h-164q-28 0 -79 43q-41 35 -70 74q-9 13 -10 18q0 6 29 6h164q145 0 189 83q28 53 28 209q0 157 -31 365
q-34 229 -79 306l89 126q6 8 9 1q43 -89 89 -155q-62 -75 -62 -131q0 29 2 30q4 -8 10 -56q33 -276 33 -430q0 -100 -9 -204q98 109 209 186q131 91 221 91q87 0 139 -42q57 -45 57 -130zM1202 322q0 40 -66 69q-53 23 -100 23q-175 0 -427 -262q218 0 421 74q172 63 172 96
z" />
    <glyph glyph-name="u0639" unicode="&#x639;" horiz-adv-x="931" arabic-form="isolated" 
d="M1365 -719q21 2 21 -9q0 -9 -30 -21q-15 -6 -228 -91q-127 -51 -247 -51q-295 0 -472 114q-213 137 -213 416q0 165 90 335q68 129 167 227q-195 83 -195 166q0 109 75 231q83 135 185 135q78 0 152 -61q19 -16 19 -22q0 -8 -36 -9q-231 -4 -347 -190q32 -60 118 -97
q70 -30 133 -30q16 0 26 3q114 64 295 160q16 8 20 2t-3 -17l-84 -136q-175 -81 -328 -220q-226 -205 -226 -415q0 -248 228 -365q176 -90 450 -90q73 0 236 16z" />
    <glyph glyph-name="u063A" unicode="&#x63a;" horiz-adv-x="931" arabic-form="isolated" 
d="M534 1052q-21 -43 -58 -133q-56 33 -127 69q6 13 57 137q46 -31 128 -73zM1365 -719q21 2 21 -9q0 -9 -30 -21q-15 -6 -228 -91q-127 -51 -247 -51q-295 0 -472 114q-213 137 -213 416q0 165 90 335q68 129 167 227q-195 83 -195 166q0 109 75 231q83 135 185 135
q78 0 152 -61q19 -16 19 -22q0 -8 -36 -9q-231 -4 -347 -190q32 -60 118 -97q70 -30 133 -30q16 0 26 3q114 64 295 160q16 8 20 2t-3 -17l-84 -136q-175 -81 -328 -220q-226 -205 -226 -415q0 -248 228 -365q176 -90 450 -90q73 0 236 16z" />
    <glyph glyph-name="u0641" unicode="&#x641;" horiz-adv-x="1594" arabic-form="isolated" 
d="M1455 990q-20 -43 -57 -133q-56 33 -127 70q6 13 56 137q46 -32 128 -74zM1592 322q0 -163 -76 -219q-138 -102 -494 -102h-267q-255 0 -367 40q-192 69 -192 273q0 64 39 148q31 66 58 96q9 10 17 6q9 -4 3 -14q-59 -105 -59 -162q0 -121 92 -176q119 -71 433 -71h304
q239 0 355 39q68 23 113 74q0 71 -44 115q-58 -82 -167 -82q-105 0 -105 106q0 76 48 184q56 125 120 125q41 0 107 -101q82 -125 82 -279zM1462 438q-8 29 -36 72q-33 51 -55 51t-45 -50q-20 -44 -20 -70q0 -40 54 -40q21 0 56 10q40 12 46 27z" />
    <glyph glyph-name="u0642" unicode="&#x642;" horiz-adv-x="1188" arabic-form="isolated" 
d="M1118 1084q-28 -49 -72 -114q-59 49 -120 89q-25 -36 -70 -106q-43 32 -120 88q41 62 68 115l126 -89l72 98q76 -54 116 -81zM1185 264q0 -261 -195 -407q-177 -132 -448 -132q-162 0 -252 84q-94 87 -94 247q0 205 154 366q11 11 20 7t2 -16q-20 -33 -61 -95
q-47 -89 -47 -171q0 -279 315 -279q188 0 353 80q205 99 205 268q0 19 -10 56q-12 44 -24 44q14 0 15 -4q0 -8 -58 -31q-87 -35 -124 -35q-151 0 -151 146q0 53 56 160q68 130 146 130q44 0 110 -98q88 -130 88 -320zM1056 432q-12 37 -45 68q-36 34 -72 34q-27 0 -56 -28
t-29 -55q0 -58 89 -58q71 0 113 39z" />
    <glyph glyph-name="u0643" unicode="&#x643;" horiz-adv-x="1505" arabic-form="isolated" 
d="M1577 1168q-43 -109 -81 -141q-440 -147 -587 -245q-18 -12 -18 -22q0 -9 20 -21q231 -141 270 -174q152 -129 152 -284q0 -38 -19 -89q-20 -54 -47 -78q-79 -71 -325 -114q-194 -34 -355 -34q-187 0 -277 55q-114 69 -114 243q0 141 89 264q6 9 14 10q9 2 9 -6
q-1 -5 -4 -11q-46 -84 -46 -189q0 -230 338 -230q344 0 573 82q114 41 114 97q0 63 -169 187q-130 95 -230 145q-31 33 -31 132q0 59 17 81q186 165 707 342z" />
    <glyph glyph-name="u0644" unicode="&#x644;" horiz-adv-x="1014" arabic-form="isolated" 
d="M1012 1057q-83 -66 -75 -127q9 -69 17 -142l40 -358q19 -173 12 -257q-15 -170 -163 -276q-136 -97 -312 -97q-145 0 -237 78q-98 84 -98 226q0 81 35 179t86 159q6 7 14 2q10 -4 4 -14q-76 -133 -76 -263q0 -215 271 -215q110 0 247 48q176 62 169 151q-53 714 -139 948
l106 118q24 -45 99 -160z" />
    <glyph glyph-name="u0645" unicode="&#x645;" horiz-adv-x="748" arabic-form="isolated" 
d="M744 264q0 -8 -39 -132q-89 10 -150 10q-83 0 -178 -32q-122 -41 -122 -109q0 -5 2 -13q139 -536 139 -789q0 -94 -15 -94q-16 0 -26 90q-17 154 -76 404q-78 329 -78 381q0 136 85 220q0 120 73 222q65 91 119 91q86 0 166 -85q68 -72 100 -164zM590 274q-79 97 -154 97
q-38 0 -61 -53q-17 -39 -20 -85q103 43 235 41z" />
    <glyph glyph-name="u0646" unicode="&#x646;" horiz-adv-x="979" arabic-form="isolated" 
d="M605 929q-20 -43 -57 -133q-56 33 -127 69q6 13 56 137q46 -31 128 -73zM976 281q0 -206 -124.5 -333.5t-330.5 -127.5q-149 0 -235 77q-90 80 -90 227q0 65 34 159q33 89 75 145q9 12 18 12q14 0 4 -20q-71 -143 -71 -221q0 -213 255 -213q214 0 331 81q87 60 87 123
q0 174 -147 395l53 137q7 18 20 1q121 -162 121 -442z" />
    <glyph glyph-name="u0647" unicode="&#x647;" horiz-adv-x="581" arabic-form="isolated" 
d="M577 271q18 -145 -23 -206q-52 -78 -225 -78q-45 0 -83 36q-50 48 -50 138q0 84 58 216q61 138 107 138q71 0 142 -88q65 -80 74 -156zM523 187q0 61 -68 110q-62 44 -126 44q-11 0 -39.5 -66.5t-23.5 -80.5q25 -50 137 -50q120 0 120 43z" />
    <glyph glyph-name="u0648" unicode="&#x648;" horiz-adv-x="825" arabic-form="isolated" 
d="M823 213q0 -202 -134 -394q-147 -211 -341 -211q-113 0 -245 125q-23 22 -23 28t12 6q-16 0 -17 -2q0 -6 76 -23q111 -24 152 -24q128 0 269 110q138 107 180 232q14 42 -4 74q-65 -39 -111 -39q-55 0 -89 45q-31 41 -31 98q0 67 47 169q53 116 112 116q79 0 119 -124
q28 -88 28 -186zM743 261q0 38 -27 78q-30 43 -66 43q-19 0 -36.5 -25t-17.5 -45q0 -83 58 -83q89 0 89 32z" />
    <glyph glyph-name="u0649" unicode="&#x649;" horiz-adv-x="1313" arabic-form="isolated" 
d="M1307 639q0 -20 -13.5 -67.5t-17.5 -47.5l-31 13q-29 12 -63 12q-87 0 -211 -78q-134 -84 -134 -165q0 -83 111 -113l208 -32q112 -17 112 -79q0 -48 -16 -123q-18 -86 -40 -113q-60 -75 -249 -159q-214 -95 -395 -95q-168 0 -268 78q-110 85 -110 249q0 223 155 431
q3 4 12 3q10 -1 7 -9q-104 -215 -104 -317q0 -142 100 -218q89 -68 236 -68q189 0 471 124q144 63 144 127q0 29 -232 59q-109 14 -156 48q-57 42 -57 134q0 102 171 294q159 178 276 178q24 0 55 -16q39 -20 39 -50z" />
    <glyph glyph-name="u064A" unicode="&#x64a;" horiz-adv-x="1313" arabic-form="isolated" 
d="M1307 639q0 -20 -13.5 -67.5t-17.5 -47.5l-31 13q-29 12 -63 12q-87 0 -211 -78q-134 -84 -134 -165q0 -83 111 -113l208 -32q112 -17 112 -79q0 -48 -16 -123q-18 -86 -40 -113q-60 -75 -249 -159q-214 -95 -395 -95q-168 0 -268 78q-110 85 -110 249q0 223 155 431
q3 4 12 3q10 -1 7 -9q-104 -215 -104 -317q0 -142 100 -218q89 -68 236 -68q189 0 471 124q144 63 144 127q0 29 -232 59q-109 14 -156 48q-57 42 -57 134q0 102 171 294q159 178 276 178q24 0 55 -16q39 -20 39 -50z" />
    <glyph glyph-name="u067E" unicode="&#x67e;" horiz-adv-x="1597" arabic-form="isolated" 
d="M1596 390q0 -76 -38 -165q-30 -70 -52 -91q-61 -58 -287 -116q-262 -67 -532 -67q-195 0 -318 53q-173 74 -173 242q0 142 93 246q6 7 14 4t3 -11q-47 -76 -47 -166q0 -126 199 -180q128 -35 294 -35q201 0 405 43q134 28 252 68q139 47 139 73q0 63 -81 158l53 135
q10 26 19 10q57 -104 57 -201zM1071 -336q-22 -32 -66 -104q-59 40 -125 81l-64 -100l-113 79q38 59 65 109q75 -55 120 -80q24 32 67 97zM1021 -549q-32 -61 -56 -121l-118 70q18 41 59 121q40 -24 115 -70z" />
    <glyph glyph-name="u0686" unicode="&#x686;" horiz-adv-x="1186" arabic-form="isolated" 
d="M1411 -726q-254 -116 -319 -132q-95 -23 -245 -23q-284 0 -452 112q-199 132 -199 403q0 251 186 444q133 138 311 209q-190 34 -246 34q-112 0 -166 -60q-12 -13 -22 -11q-9 2 -4 17q70 196 216 196q85 0 253.5 -30t253.5 -30h165q18 0 16 -4l-51 -121
q-303 -2 -549 -145q-292 -170 -292 -451q0 -428 659 -428q231 0 485 46q20 4 20 -7q0 -10 -20 -19zM923 -218q-22 -33 -67 -105q-58 41 -125 81l-63 -99l-113 79q37 59 65 108q75 -54 119 -79q25 32 68 97zM872 -431q-31 -61 -56 -121l-118 70q18 41 60 121q40 -25 114 -70z
" />
    <glyph glyph-name="u0698" unicode="&#x698;" horiz-adv-x="756" arabic-form="isolated" 
d="M608 1058q-17 -41 -59 -121q-40 24 -115 70q32 61 56 120zM752 838q-38 -59 -65 -109q-75 55 -120 80q-24 -32 -67 -97q-41 28 -116 82q22 32 67 104q58 -41 124 -81l64 99zM754 123q0 -206 -133 -360q-55 -63 -129 -108q-86 -52 -158 -52q-105 0 -246 108q-13 10 -11 17
q1 6 15 2q108 -33 174 -33q139 0 300 157q148 145 148 230q0 46 -61 132q-51 72 -99 114q45 85 71 128q61 -52 97 -154q32 -90 32 -181z" />
    <glyph glyph-name="u06AF" unicode="&#x6af;" horiz-adv-x="1577" arabic-form="isolated" 
d="M1605 1390q-18 -69 -34 -87q-172 -64 -237 -93q-179 -80 -415 -223l8 76q356 227 678 327zM1590 1192q-25 -83 -57 -131q-429 -145 -640 -292q-16 -11 -16 -19q0 -9 18 -19q216 -120 259 -153q179 -137 179 -297q0 -38 -19 -89q-20 -54 -47 -78q-79 -71 -325 -114
q-194 -34 -355 -34q-187 0 -277 55q-114 69 -114 243q0 141 89 264q6 9 15 11q9 1 9 -7q-1 -5 -4 -11q-49 -92 -49 -189q0 -124 114 -184q88 -46 226 -46q324 0 560 84q124 44 124 97q0 63 -168 187q-125 92 -228 143q-28 30 -28 139q0 59 11 76q296 231 723 364z" />
    <glyph glyph-name="uFB57" unicode="&#x67e;" horiz-adv-x="1689" arabic-form="final" 
d="M1719 1h-80q-81 0 -119 47q-21 26 -36 87q-47 -81 -231 -138q-201 -62 -473 -62q-584 0 -584 337q0 166 76 246q9 9 16 6q8 -4 3 -13q-39 -74 -39 -157q0 -161 232 -228q144 -41 356 -41q180 0 344 27q182 30 244 81q35 29 50 83q4 14 14 14q11 -1 12 -11q8 -74 28 -97
q35 -40 148 -40h39v-141zM1102 -336q-22 -32 -67 -104q-58 40 -125 81l-63 -100l-113 79q37 59 65 109q75 -55 120 -80q24 32 67 97zM1052 -549q-32 -61 -57 -121l-117 70q17 41 59 121q40 -24 115 -70z" />
    <glyph glyph-name="uFB58" unicode="&#x67e;" horiz-adv-x="406" arabic-form="initial" 
d="M333 265q0 -67 -33 -143q-22 -51 -37 -68q-46 -53 -184 -53h-110v141h81q236 0 236 49q0 46 -87 156l62 130q6 13 14 1q58 -96 58 -213zM400 -259q-22 -33 -66 -105q-59 41 -125 81l-64 -99l-112 79q37 59 64 108q76 -54 120 -79q25 32 68 97q41 -29 115 -82zM350 -472
q-31 -61 -56 -121l-118 70q18 41 60 121z" />
    <glyph glyph-name="uFB59" unicode="&#x67e;" horiz-adv-x="464" arabic-form="medial" 
d="M485 1h-71q-142 0 -188 142q-28 -59 -85 -99q-61 -43 -123 -43h-49v141h71q130 0 190 121q20 40 25 42q8 0 24 -53q32 -110 150 -110h56v-141zM411 -259q-22 -33 -67 -105q-58 41 -125 81l-63 -99l-113 79q37 59 65 108q75 -54 119 -79q25 32 68 97zM360 -472
q-31 -61 -56 -121l-118 70q18 41 60 121q40 -24 114 -70z" />
    <glyph glyph-name="uFB7B" unicode="&#x686;" horiz-adv-x="1237" arabic-form="final" 
d="M1411 -726q-254 -116 -319 -132q-95 -23 -245 -23q-284 0 -452 112q-199 132 -199 403q0 250 186 443q132 137 311 209q-203 36 -249 36q-116 0 -165 -61q-11 -13 -20 -9q-9 3 -4 15q33 86 59 120q59 76 157 76q85 0 253.5 -30t253.5 -30h168q14 0 11 -8l-49 -117
q-102 0 -186 -15q0 -93 60 -113q24 -8 153 -8h133v-141h-185q-214 0 -214 148q0 40 18 113q-262 -58 -425 -191q-190 -155 -190 -379q0 -438 654 -438q231 0 485 46q20 4 20 -7q0 -10 -20 -19zM923 -218q-22 -33 -67 -105q-58 41 -125 81l-63 -99l-113 79q37 59 65 108
q75 -54 119 -79q25 32 68 97zM872 -431q-31 -61 -56 -121l-118 70q18 41 60 121q40 -25 114 -70z" />
    <glyph glyph-name="uFB7C" unicode="&#x686;" horiz-adv-x="1094" arabic-form="initial" 
d="M1092 375l-35 -111h-222q-167 0 -317 -68q-4 -2 -255 -127q-136 -68 -229 -68h-65v141h62q96 0 271 62q216 76 299 95q26 6 27 10q-3 3 -26 10q-43 14 -194 62q-107 34 -142 34q-85 0 -133 -46q-15 -15 -25 -13q-11 1 -6 15q25 67 76 119q60 62 122 62q43 0 143 -43
q125 -54 208 -78q148 -43 297 -43h133q15 0 11 -13zM841 -172q-22 -33 -67 -104q-58 40 -125 80l-63 -99l-113 79q37 59 65 108q75 -54 119 -79q25 32 68 97zM791 -385q-32 -61 -57 -121l-118 70q18 41 60 121q40 -24 115 -70z" />
    <glyph glyph-name="uFB7D" unicode="&#x686;" horiz-adv-x="1183" arabic-form="medial" 
d="M1213 1h-237q-170 0 -170 133q0 42 17 105q-171 0 -328 -62q-35 -14 -233 -114q-122 -62 -208 -62h-85v141h92q69 0 227 56q187 66 290 81q30 4 31 8q-4 5 -30 12q-56 15 -199 67q-101 37 -134 37q-81 0 -143 -50q-20 -16 -29 -16q-10 0 -4 16q70 193 186 193
q43 0 153 -46q154 -64 226 -86q154 -46 308 -46h133q12 0 8 -12l-43 -117h-171q0 -64 51 -84q33 -13 123 -13h169v-141zM738 -172q-22 -33 -66 -104q-59 40 -125 80l-64 -99l-112 79q37 59 64 108q76 -54 120 -79q25 32 68 97q41 -29 115 -82zM688 -385q-31 -61 -56 -121
l-118 70q18 41 59 121q40 -24 115 -70z" />
    <glyph glyph-name="uFB8B" unicode="&#x698;" horiz-adv-x="841" arabic-form="final" 
d="M608 822q-17 -41 -59 -121q-40 25 -115 70q32 61 56 121zM752 602q-38 -59 -65 -108q-75 54 -120 79q-24 -32 -67 -97l-116 82q22 33 67 105q58 -41 124 -81l64 99zM871 1h-97q-34 0 -43 -53q-25 -152 -134 -304q-132 -184 -283 -184q-79 0 -214 97q-20 14 -20 23t26 3
q82 -19 144 -19q133 0 273 134q45 43 100 124q65 96 65 139q0 54 -121 163q34 75 63 129q106 -111 142 -111h99v-141z" />
    <glyph glyph-name="uFEDA" unicode="&#x6a9;" horiz-adv-x="1806" arabic-form="final" 
d="M1828 1h-70q-71 0 -151 61q-50 38 -150 143q-106 111 -169 164q10 -38 10 -76q0 -105 -63 -187q-52 -68 -259 -107q-176 -33 -389 -33q-187 0 -277 55q-114 69 -114 243q0 141 89 264q6 9 14 10q8 2 8 -6q-1 -5 -4 -11q-47 -89 -47 -189q0 -124 114 -184q88 -46 226 -46
q171 0 346 24q198 27 263 71q38 25 48 42q13 21 13 66q0 65 -148 152q-188 110 -210 134q-31 33 -31 152q0 45 11 62q72 109 386 262q250 122 479 196q-29 -89 -70 -150q-489 -163 -736 -342q-37 -27 -37 -41q0 -17 44 -41q113 -61 277 -161q76 -46 325 -260
q147 -126 196 -126h76v-141z" />
    <glyph glyph-name="uFEDB" unicode="&#x6a9;" horiz-adv-x="686" arabic-form="initial" 
d="M755 1146q-20 -55 -77 -140q-191 -64 -291 -103q-186 -73 -306 -149q-20 -13 -20 -21q0 -9 16 -17l179 -94q268 -145 268 -362q0 -173 -153 -229q-82 -30 -271 -30h-160v141h186q160 0 207 7q146 22 146 105q0 66 -176 191q-139 99 -240 143q-33 37 -33 141q0 56 17 75
q124 136 708 342z" />
    <glyph glyph-name="uFEDC" unicode="&#x6a9;" horiz-adv-x="1004" arabic-form="medial" 
d="M1034 1h-80q-93 0 -229 133q-216 212 -255 240q17 -46 17 -95q0 -100 -56 -173q-81 -105 -361 -105h-101v141h150q333 0 333 168q0 64 -142 149q-173 104 -199 135q-32 39 -32 154q0 43 9 56q73 108 386 262q255 126 475 197q-29 -89 -69 -150q-484 -162 -733 -342
q-44 -32 -44 -41q0 -13 52 -41q101 -55 269 -157q74 -45 325 -257q157 -133 199 -133h86v-141z" />
    <glyph glyph-name="uFB93" unicode="&#x6af;" horiz-adv-x="1788" arabic-form="final" 
d="M1755 1437q-17 -69 -34 -88q-176 -65 -297 -119q-244 -108 -478 -249l8 77q173 110 420 225q227 105 381 154zM1818 1h-60q-71 0 -147 57q-44 33 -146 139q-110 114 -179 173q11 -41 11 -81q0 -103 -62 -183q-52 -67 -259 -106q-181 -34 -389 -34q-187 0 -277 55
q-114 69 -114 243q0 141 89 264q6 9 16 12t10 -5q0 -6 -4 -14q-51 -103 -51 -189q0 -124 114 -184q88 -46 226 -46q168 0 341 25q141 20 197 41q121 45 121 137q0 65 -141 151q-183 112 -204 134q-31 33 -31 144q0 65 13 84q326 253 864 423q-24 -81 -57 -131
q-495 -166 -749 -340q-44 -30 -44 -41q0 -13 51 -41q109 -59 268 -156q71 -43 323 -258q155 -132 204 -132h66v-141z" />
    <glyph glyph-name="uFB94" unicode="&#x6af;" horiz-adv-x="788" arabic-form="initial" 
d="M826 1369q-17 -68 -33 -87q-172 -63 -237 -92q-179 -80 -416 -223l8 75q356 227 678 327zM812 1171q-26 -82 -57 -131q-396 -134 -607 -270q-36 -23 -36 -32q0 -7 30 -23q177 -95 248 -155q165 -137 165 -300q0 -173 -153 -229q-82 -30 -271 -30h-161v141h187
q149 0 204 9q141 23 141 106q0 61 -169 188q-132 100 -228 148q-27 30 -27 138q0 60 11 77q296 230 723 363z" />
    <glyph glyph-name="uFB95" unicode="&#x6af;" horiz-adv-x="1005" arabic-form="medial" 
d="M951 1436q-17 -68 -33 -87q-176 -65 -298 -119q-244 -108 -478 -249l9 76q172 110 419 225q227 105 381 154zM1034 1h-80q-91 0 -216 123q-227 223 -264 253q16 -48 16 -96q0 -98 -59 -175q-80 -105 -361 -105h-101v141h148q335 0 335 166q0 63 -138 147
q-173 105 -200 136q-35 40 -35 152q0 50 11 66q348 269 862 432q-24 -81 -57 -131q-487 -163 -745 -339q-41 -28 -41 -39q0 -17 140 -98q55 -31 163 -93q79 -47 330 -260q164 -139 206 -139h86v-141z" />
    <glyph glyph-name="uFE94" unicode="&#x6c0;" horiz-adv-x="799" arabic-form="final" 
d="M577 1029q-17 -43 -37 -83q-170 -27 -274 -68q3 13 12 30q40 48 84 64q-25 15 -50 31q-21 17 -21 46q0 48 49.5 104t96.5 56q56 0 56 -47q0 -49 -19 -72q-8 -9 -14 5q-17 40 -67 40q-36 0 -36 -34q0 -31 41 -61q38 -27 71 -27t108 16zM828 1h-96q-105 0 -152 78
q-26 44 -54 176q-32 -39 -64 -77q-35 -34 -93 -34q-51 0 -103 15q-70 20 -70 55q0 101 105 200q77 73 188 125q-2 46 -11 89l53 82q10 16 12 0q18 -149 38 -303q17 -132 25 -159q30 -106 97 -106h125v-141zM520 300l-17 151q-115 -23 -190 -126q57 -28 144 -28q30 0 63 3z
" />
    <glyph glyph-name="uFEF2" unicode="&#x6cc;" horiz-adv-x="1250" arabic-form="final" 
d="M1282 1h-139q-44 0 -116 -21q-89 -26 -89 -56q0 -10 19 -16l154 -30q120 -28 120 -60q0 -163 -260 -296q-227 -116 -408 -116q-156 0 -250 59q-114 71 -111 219q2 83 46 191q41 101 97 172q9 11 17 7q8 -5 2 -16q-94 -166 -94 -272q0 -129 106 -178q73 -34 225 -34
q185 0 373 80q162 69 162 102q0 7 -152.5 42t-152.5 77q0 59 97 166q109 121 213 121h141v-141z" />
    <glyph glyph-name="uFEF3" unicode="&#x6cc;" horiz-adv-x="434" arabic-form="initial" 
d="M333 265q0 -67 -33 -143q-22 -51 -37 -68q-46 -53 -184 -53h-110v141h81q236 0 236 49q0 46 -87 156l62 130q6 13 14 1q58 -96 58 -213zM437 -293q-28 -50 -72 -115q-59 50 -120 90q-25 -36 -70 -106q-43 31 -120 88q41 62 68 115l126 -89l73 98q75 -55 115 -81z" />
    <glyph glyph-name="uFEF4" unicode="&#x6cc;" horiz-adv-x="455" arabic-form="medial" 
d="M485 1h-71q-142 0 -188 142q-28 -59 -85 -99q-61 -43 -123 -43h-49v141h71q130 0 190 121q20 40 25 42q8 0 24 -53q32 -110 150 -110h56v-141zM417 -293q-28 -50 -73 -115q-58 50 -120 90q-25 -36 -69 -106q-43 31 -120 88q41 62 67 115l126 -89l73 98q75 -55 116 -81z
" />
    <glyph glyph-name="Hcircumflex" unicode="&#x622;" horiz-adv-x="623" arabic-form="final" 
d="M569 1512q-40 -110 -137 -138q-44 -13 -106 -16q-44 -2 -87 -3q-47 -7 -78 -36q-12 -11 -20 -16q-6 -2 -6 6t4 24q24 95 85 106q26 5 114 7q156 4 222 84q6 7 10 9q5 1 5 -4q0 -7 -6 -23zM652 1h-98q-130 0 -173 140q-22 73 -43 359l-41 567q32 35 74 84q19 23 20 9
q6 -128 24 -587q10 -258 34 -328q35 -103 149 -103h54v-141z" />
    <glyph glyph-name="uFE84" unicode="&#x623;" horiz-adv-x="569" arabic-form="final" 
d="M466 1413q-17 -43 -37 -83q-168 -27 -273 -68q3 13 11 30q40 48 85 64q-25 15 -51 31q-21 17 -21 46q0 48 50 104t97 56q55 0 55 -47q0 -50 -18 -72q-8 -10 -15 5q-18 40 -66 40q-36 0 -36 -34q0 -31 41 -60q38 -28 70 -28q33 0 108 16zM601 1h-98q-129 0 -173 140
q-22 71 -43 359l-41 567q44 48 73 84q20 25 21 9q6 -139 24 -587q10 -258 34 -328q35 -103 149 -103h54v-141z" />
    <glyph glyph-name="uFE86" unicode="&#x624;" horiz-adv-x="911" arabic-form="final" 
d="M812 799q-17 -43 -37 -83q-170 -27 -273 -69q3 13 11 31q40 48 85 63q-72 46 -72 77q0 48 50 104.5t97 56.5q55 0 55 -47q0 -51 -18 -73q-8 -10 -15 5q-18 40 -66 40q-36 0 -36 -34q0 -31 41 -61q38 -27 71 -27q32 0 107 17zM941 1h-135q-22 -156 -128 -306
q-143 -203 -349 -203q-88 0 -197 87q-61 49 -61 65q0 6 10 6q-16 0 -17 -2q0 -5 72 -20q105 -21 150 -21q174 0 320 141q117 113 134 207q3 17 1 49q-123 0 -160 12q-68 22 -68 99q0 72 58 183q65 124 129 124q46 0 83 -121q28 -91 32 -159h126v-141zM739 158q-1 43 -22 79
q-25 44 -64 44q-32 0 -55 -39q-20 -35 -20 -69q0 -9 3 -13q6 -12 62 -14q59 -2 96 12z" />
    <glyph glyph-name="uFE88" unicode="&#x625;" horiz-adv-x="582" arabic-form="final" 
d="M611 1h-98q-130 0 -173 140q-22 73 -43 359l-41 567q32 35 74 84q19 23 20 9q6 -128 24 -587q10 -258 34 -328q35 -103 149 -103h54v-141zM554 -287q-17 -43 -37 -83q-168 -27 -273 -68q3 13 11 30q40 48 85 64q-72 43 -72 77q0 48 50 104.5t97 56.5q55 0 55 -48
q0 -50 -18 -72q-8 -10 -15 5q-18 40 -66 40q-36 0 -36 -34q0 -31 41 -60q38 -28 70 -28q33 0 108 16z" />
    <glyph glyph-name="uFE8A" unicode="&#x626;" horiz-adv-x="1250" arabic-form="final" 
d="M1282 1h-139q-44 0 -116 -21q-89 -26 -89 -56q0 -10 19 -16l154 -30q120 -28 120 -60q0 -163 -260 -296q-227 -116 -408 -116q-156 0 -250 59q-114 71 -111 219q2 83 46 191q41 101 97 172q9 11 17 7q8 -5 2 -16q-94 -166 -94 -272q0 -129 106 -178q73 -34 225 -34
q185 0 373 80q162 69 162 102q0 7 -152.5 42t-152.5 77q0 59 97 166q109 121 213 121h141v-141zM567 340l-37 -83q-131 -23 -291 -88q12 24 28 50q45 51 85 64l-50 32q-20 17 -20 45q0 48 49 104.5t96 56.5q56 0 56 -47t-19 -73q-7 -10 -14 5q-18 40 -66 40q-36 0 -36 -34
q0 -32 39 -60t72 -28q18 0 108 16z" />
    <glyph glyph-name="uFE8B" unicode="&#x626;" horiz-adv-x="369" arabic-form="initial" 
d="M377 829q-17 -43 -37 -83q-176 -28 -273 -68q3 13 11 31q40 48 85 63q-25 16 -51 31q-21 17 -21 46q0 48 50 104.5t97 56.5q55 0 55 -47q0 -49 -19 -73q-7 -9 -14 5q-19 40 -66 40q-36 0 -36 -34q0 -31 41 -60q38 -28 70 -28q33 0 108 16zM333 265q0 -67 -33 -143
q-22 -51 -37 -68q-46 -53 -184 -53h-110v141h81q236 0 236 49q0 46 -87 156l62 130q6 13 14 1q58 -96 58 -213z" />
    <glyph glyph-name="uFE8C" unicode="&#x626;" horiz-adv-x="456" arabic-form="medial" 
d="M399 682l-37 -83q-131 -23 -291 -88q12 24 28 50q45 51 85 64l-50 32q-20 17 -20 45q0 48 49 104.5t96 56.5q56 0 56 -47t-19 -73q-7 -10 -14 5q-18 40 -66 40q-36 0 -36 -34q0 -32 39 -60t72 -28q18 0 108 16zM485 1h-71q-142 0 -188 142q-28 -59 -85 -99
q-61 -43 -123 -43h-49v141h71q130 0 190 121q20 40 25 42q8 0 24 -53q32 -110 150 -110h56v-141z" />
    <glyph glyph-name="uFE8E" unicode="&#x627;" horiz-adv-x="519" arabic-form="final" 
d="M550 1h-98q-130 0 -173 140q-22 73 -43 359l-41 567q44 48 73 84q20 25 21 9l23 -587q10 -257 34 -328q35 -103 150 -103h54v-141z" />
    <glyph glyph-name="uFE90" unicode="&#x628;" horiz-adv-x="1689" arabic-form="final" 
d="M1719 1h-80q-81 0 -119 47q-21 26 -36 87q-47 -81 -231 -138q-201 -62 -473 -62q-584 0 -584 337q0 166 76 246q9 9 16 6q8 -4 3 -13q-39 -74 -39 -157q0 -161 232 -228q144 -41 356 -41q180 0 344 27q182 30 244 81q35 29 50 83q4 14 14 14q11 -1 12 -11q8 -74 28 -97
q35 -40 148 -40h39v-141zM999 -396q-20 -43 -57 -133q-56 33 -127 69q6 13 56 137q46 -31 128 -73z" />
    <glyph glyph-name="uFE91" unicode="&#x628;" horiz-adv-x="333" arabic-form="initial" 
d="M333 265q0 -67 -33 -143q-22 -51 -37 -68q-46 -53 -184 -53h-110v141h81q236 0 236 49q0 46 -87 156l62 130q6 13 14 1q58 -96 58 -213zM319 -294q-20 -43 -57 -133q-56 33 -127 70q6 12 56 137q47 -32 128 -74z" />
    <glyph glyph-name="uFE92" unicode="&#x628;" horiz-adv-x="455" arabic-form="medial" 
d="M485 1h-71q-142 0 -188 142q-28 -59 -85 -99q-61 -43 -123 -43h-49v141h71q130 0 190 121q20 40 25 42q8 0 24 -53q32 -110 150 -110h56v-141zM319 -294q-20 -43 -57 -133q-56 33 -127 70q6 12 56 137q47 -32 128 -74z" />
    <glyph glyph-name="uFE96" unicode="&#x62a;" horiz-adv-x="1689" arabic-form="final" 
d="M1052 752q-29 -50 -73 -115q-58 49 -120 89q-25 -35 -69 -105q-44 31 -120 88q41 61 67 114l126 -89l73 99q75 -55 116 -81zM1719 1h-80q-81 0 -119 47q-21 26 -36 87q-47 -81 -231 -138q-201 -62 -473 -62q-584 0 -584 337q0 166 76 246q9 9 16 6q8 -4 3 -13
q-39 -74 -39 -157q0 -161 232 -228q144 -41 356 -41q180 0 344 27q182 30 244 81q35 29 50 83q4 14 14 14q11 -1 12 -11q8 -74 28 -97q35 -40 148 -40h39v-141z" />
    <glyph glyph-name="uFE97" unicode="&#x62a;" horiz-adv-x="426" arabic-form="initial" 
d="M422 869q-28 -49 -73 -114q-58 49 -120 89q-25 -36 -69 -106q-43 32 -120 88q41 62 68 115l125 -89l73 98q75 -54 116 -81zM333 265q0 -67 -33 -143q-22 -51 -37 -68q-46 -53 -184 -53h-110v141h81q236 0 236 49q0 46 -87 156l62 130q6 13 14 1q58 -96 58 -213z" />
    <glyph glyph-name="uFE98" unicode="&#x62a;" horiz-adv-x="455" arabic-form="medial" 
d="M422 685q-28 -50 -73 -115q-58 50 -120 89q-25 -35 -69 -105q-43 31 -120 88q41 61 68 115l125 -89l73 98q75 -55 116 -81zM485 1h-71q-142 0 -188 142q-28 -59 -85 -99q-61 -43 -123 -43h-49v141h71q130 0 190 121q20 40 25 42q8 0 24 -53q32 -110 150 -110h56v-141z
" />
    <glyph glyph-name="uFE9A" unicode="&#x62b;" horiz-adv-x="1689" arabic-form="final" 
d="M921 955q-18 -40 -60 -120l-115 69q32 61 57 121zM1064 735q-37 -59 -65 -108q-75 54 -119 80q-25 -33 -68 -98l-116 82q22 33 67 105q58 -41 125 -81l63 99zM1719 1h-80q-81 0 -119 47q-21 26 -36 87q-47 -81 -231 -138q-201 -62 -473 -62q-584 0 -584 337q0 166 76 246
q9 9 16 6q8 -4 3 -13q-39 -74 -39 -157q0 -161 232 -228q144 -41 356 -41q180 0 344 27q182 30 244 81q35 29 50 83q4 14 14 14q11 -1 12 -11q8 -74 28 -97q35 -40 148 -40h39v-141z" />
    <glyph glyph-name="uFE9B" unicode="&#x62b;" horiz-adv-x="333" arabic-form="initial" 
d="M265 1048q-17 -41 -59 -121l-115 69q32 62 56 121zM409 827q-38 -59 -65 -108q-75 55 -120 80q-24 -33 -67 -98l-116 82q22 33 67 105q58 -41 124 -81l64 99zM333 265q0 -67 -33 -143q-22 -51 -37 -68q-46 -53 -184 -53h-110v141h81q236 0 236 49q0 46 -87 156l62 130
q6 13 14 1q58 -96 58 -213z" />
    <glyph glyph-name="uFE9C" unicode="&#x62b;" horiz-adv-x="455" arabic-form="medial" 
d="M270 894q-17 -41 -59 -121q-40 24 -115 70q32 61 57 121zM414 674q-38 -59 -65 -109q-75 55 -120 80q-24 -32 -67 -97l-116 82q22 32 67 104q58 -40 125 -81l63 100zM485 1h-71q-142 0 -188 142q-28 -59 -85 -99q-61 -43 -123 -43h-49v141h71q130 0 190 121q20 40 25 42
q8 0 24 -53q32 -110 150 -110h56v-141z" />
    <glyph glyph-name="uFE9E" unicode="&#x62c;" horiz-adv-x="1237" arabic-form="final" 
d="M1411 -726q-254 -116 -319 -132q-95 -23 -245 -23q-284 0 -452 112q-199 132 -199 403q0 250 186 443q132 137 311 209q-203 36 -249 36q-116 0 -165 -61q-11 -13 -20 -9q-9 3 -4 15q33 86 59 120q59 76 157 76q85 0 253.5 -30t253.5 -30h168q14 0 11 -8l-49 -117
q-102 0 -186 -15q0 -93 60 -113q24 -8 153 -8h133v-141h-185q-214 0 -214 148q0 40 18 113q-262 -58 -425 -191q-190 -155 -190 -379q0 -438 654 -438q231 0 485 46q20 4 20 -7q0 -10 -20 -19zM856 -244q-20 -43 -57 -133q-56 33 -127 70q6 13 56 137q46 -32 128 -74z" />
    <glyph glyph-name="uFE9F" unicode="&#x62c;" horiz-adv-x="1094" arabic-form="initial" 
d="M1092 375l-35 -111h-222q-167 0 -317 -68q-4 -2 -255 -127q-136 -68 -229 -68h-65v141h62q96 0 271 62q216 76 299 95q26 6 27 10q-3 3 -26 10q-43 14 -194 62q-107 34 -142 34q-85 0 -133 -46q-15 -15 -25 -13q-11 1 -6 15q25 67 76 119q60 62 122 62q43 0 143 -43
q125 -54 208 -78q148 -43 297 -43h133q15 0 11 -13zM677 -177q-21 -43 -57 -133q-56 33 -127 69q5 13 56 138q46 -32 128 -74z" />
    <glyph glyph-name="uFEA0" unicode="&#x62c;" horiz-adv-x="1183" arabic-form="medial" 
d="M1213 1h-237q-170 0 -170 133q0 42 17 105q-171 0 -328 -62q-35 -14 -233 -114q-122 -62 -208 -62h-85v141h92q69 0 227 56q187 66 290 81q30 4 31 8q-4 5 -30 12q-56 15 -199 67q-101 37 -134 37q-81 0 -143 -50q-20 -16 -29 -16q-10 0 -4 16q70 193 186 193
q43 0 153 -46q154 -64 226 -86q154 -46 308 -46h133q12 0 8 -12l-43 -117h-171q0 -64 51 -84q33 -13 123 -13h169v-141zM595 -177q-21 -43 -57 -133q-56 33 -127 69q6 13 56 138q46 -32 128 -74z" />
    <glyph glyph-name="uFEA2" unicode="&#x62d;" horiz-adv-x="1237" arabic-form="final" 
d="M1411 -726q-254 -116 -319 -132q-95 -23 -245 -23q-284 0 -452 112q-199 132 -199 403q0 250 186 443q132 137 311 209q-203 36 -249 36q-116 0 -165 -61q-11 -13 -20 -9q-9 3 -4 15q33 86 59 120q59 76 157 76q85 0 253.5 -30t253.5 -30h168q14 0 11 -8l-49 -117
q-102 0 -186 -15q0 -93 60 -113q24 -8 153 -8h133v-141h-185q-214 0 -214 148q0 40 18 113q-262 -58 -425 -191q-190 -155 -190 -379q0 -438 654 -438q231 0 485 46q20 4 20 -7q0 -10 -20 -19z" />
    <glyph glyph-name="uFEA3" unicode="&#x62d;" horiz-adv-x="1094" arabic-form="initial" 
d="M1092 375l-35 -111h-222q-167 0 -317 -68q-4 -2 -255 -127q-136 -68 -229 -68h-65v141h62q96 0 271 62q216 76 299 95q26 6 27 10q-3 3 -26 10q-43 14 -194 62q-107 34 -142 34q-85 0 -133 -46q-15 -15 -25 -13q-11 1 -6 15q25 67 76 119q60 62 122 62q43 0 143 -43
q125 -54 208 -78q148 -43 297 -43h133q15 0 11 -13z" />
    <glyph glyph-name="uFEA4" unicode="&#x62d;" horiz-adv-x="1183" arabic-form="medial" 
d="M1213 1h-237q-170 0 -170 133q0 42 17 105q-171 0 -328 -62q-35 -14 -233 -114q-122 -62 -208 -62h-85v141h92q69 0 227 56q187 66 290 81q30 4 31 8q-4 5 -30 12q-56 15 -199 67q-101 37 -134 37q-81 0 -143 -50q-20 -16 -29 -16q-10 0 -4 16q70 193 186 193
q43 0 153 -46q154 -64 226 -86q154 -46 308 -46h133q12 0 8 -12l-43 -117h-171q0 -64 51 -84q33 -13 123 -13h169v-141z" />
    <glyph glyph-name="uFEA6" unicode="&#x62e;" horiz-adv-x="1237" arabic-form="final" 
d="M759 857q-21 -43 -58 -133q-55 33 -127 70q6 12 57 137q46 -32 128 -74zM1411 -726q-254 -116 -319 -132q-95 -23 -245 -23q-284 0 -452 112q-199 132 -199 403q0 250 186 443q132 137 311 209q-203 36 -249 36q-116 0 -165 -61q-11 -13 -20 -9q-9 3 -4 15q33 86 59 120
q59 76 157 76q85 0 253.5 -30t253.5 -30h168q14 0 11 -8l-49 -117q-102 0 -186 -15q0 -93 60 -113q24 -8 153 -8h133v-141h-185q-214 0 -214 148q0 40 18 113q-262 -58 -425 -191q-190 -155 -190 -379q0 -438 654 -438q231 0 485 46q20 4 20 -7q0 -10 -20 -19z" />
    <glyph glyph-name="uFEA7" unicode="&#x62e;" horiz-adv-x="1093" arabic-form="initial" 
d="M800 857q-21 -43 -58 -133q-55 33 -127 70q6 12 57 137q46 -32 128 -74zM1092 375l-35 -111h-222q-167 0 -317 -68q-4 -2 -255 -127q-136 -68 -229 -68h-65v141h62q96 0 271 62q216 76 299 95q26 6 27 10q-3 3 -26 10q-43 14 -194 62q-107 34 -142 34q-85 0 -133 -46
q-15 -15 -25 -13q-11 1 -6 15q25 67 76 119q60 62 122 62q43 0 143 -43q125 -54 208 -78q148 -43 297 -43h133q15 0 11 -13z" />
    <glyph glyph-name="uFEA8" unicode="&#x62e;" horiz-adv-x="1183" arabic-form="medial" 
d="M708 857q-21 -43 -58 -133q-56 33 -127 70q6 12 57 137q46 -32 128 -74zM1213 1h-237q-170 0 -170 133q0 42 17 105q-171 0 -328 -62q-35 -14 -233 -114q-122 -62 -208 -62h-85v141h92q69 0 227 56q187 66 290 81q30 4 31 8q-4 5 -30 12q-56 15 -199 67q-101 37 -134 37
q-81 0 -143 -50q-20 -16 -29 -16q-10 0 -4 16q70 193 186 193q43 0 153 -46q154 -64 226 -86q154 -46 308 -46h133q12 0 8 -12l-43 -117h-171q0 -64 51 -84q33 -13 123 -13h169v-141z" />
    <glyph glyph-name="uFEAA" unicode="&#x62f;" horiz-adv-x="994" arabic-form="final" 
d="M1025 1h-91q-83 0 -132 83q-34 58 -65 187q-99 -271 -325 -271q-216 0 -216 80q0 69 30 167q3 10 9 9q5 -1 6 -10q9 -103 187 -103q279 0 279 195q0 199 -70 455l91 97q7 8 9 -1q23 -106 51 -346q24 -206 49 -283q38 -118 113 -118h75v-141z" />
    <glyph glyph-name="uFEAC" unicode="&#x630;" horiz-adv-x="995" arabic-form="final" 
d="M713 1144q-21 -43 -58 -133q-55 33 -127 69q6 13 57 138q46 -32 128 -74zM1025 1h-91q-83 0 -132 83q-34 58 -65 187q-99 -271 -325 -271q-216 0 -216 80q0 69 30 167q3 10 9 9q5 -1 6 -10q9 -103 187 -103q279 0 279 195q0 199 -70 455l91 97q7 8 9 -1q23 -106 51 -346
q24 -206 49 -283q38 -118 113 -118h75v-141z" />
    <glyph glyph-name="uFEAE" unicode="&#x631;" horiz-adv-x="841" arabic-form="final" 
d="M871 1h-97q-34 0 -43 -53q-25 -152 -134 -304q-132 -184 -283 -184q-79 0 -214 97q-20 14 -20 23t26 3q82 -19 144 -19q133 0 273 134q45 43 100 124q65 96 65 139q0 54 -121 163q34 75 63 129q106 -111 142 -111h99v-141z" />
    <glyph glyph-name="uFEB0" unicode="&#x632;" horiz-adv-x="841" arabic-form="final" 
d="M652 556q-20 -43 -57 -133q-56 33 -127 70q6 12 56 137q46 -32 128 -74zM871 1h-97q-34 0 -43 -53q-25 -152 -134 -304q-132 -184 -283 -184q-79 0 -214 97q-20 14 -20 23t26 3q82 -19 144 -19q133 0 273 134q45 43 100 124q65 96 65 139q0 54 -121 163q34 75 63 129
q106 -111 142 -111h99v-141z" />
    <glyph glyph-name="uFEB2" unicode="&#x633;" horiz-adv-x="1921" arabic-form="final" 
d="M1952 1h-66q-54 0 -88 39q-19 22 -56 99q-39 -70 -58 -91q-38 -42 -92 -42q-99 0 -138 144q-59 -109 -129 -133q-46 -16 -228 -16q-27 -288 -149 -423q-136 -149 -417 -149q-146 0 -238 79q-97 84 -97 228q0 71 37 163q34 87 82 147q7 9 14 6q7 -4 4 -11
q-78 -178 -78 -246q0 -220 343 -220q96 0 212 36q138 43 182 106q36 52 36 197q0 79 -25 132q-21 44 -71 108l72 112q7 11 24 -15q44 -67 59 -79q38 -31 117 -31q106 0 154 16q61 21 102 104q13 26 24 26q12 0 15 -35q3 -45 19 -65q27 -35 97 -35q48 0 76 34q17 21 34 64
q13 35 22 35q12 0 20 -37q11 -48 26 -69q27 -37 85 -37h74v-141z" />
    <glyph glyph-name="uFEB3" unicode="&#x633;" horiz-adv-x="1010" arabic-form="initial" 
d="M1010 313q0 -93 -29 -160q-39 -90 -121 -90q-90 0 -166 91q-53 -78 -100 -109q-65 -43 -166 -43q-132 0 -195 124q-74 -125 -200 -125h-64v141h82q141 0 183 105q15 37 23 37q11 0 20 -38q25 -107 160 -107q188 0 260 163q25 56 31 56q14 0 17 -32q4 -44 17 -65
q47 -77 149 -77q39 0 39 35q0 40 -52 109q41 68 76 122q3 4 7 -4q29 -54 29 -133z" />
    <glyph glyph-name="uFEB4" unicode="&#x633;" horiz-adv-x="1152" arabic-form="medial" 
d="M1184 1h-107q-100 0 -149 130q-57 -125 -145 -125q-97 0 -130 139q-51 -96 -113 -126q-37 -18 -116 -18q-138 0 -186 127q-77 -127 -195 -127h-73v141h97q73 0 117 38q26 22 47 69q17 37 28 37t20 -38q24 -107 168 -107q142 0 201 108q21 38 29 38q9 0 13 -35
q6 -44 22 -65q28 -35 94 -35q50 0 95 67q38 56 38 64q0 2 -1 2q9 0 17 -37q23 -106 104 -106h125v-141z" />
    <glyph glyph-name="uFEB6" unicode="&#x634;" horiz-adv-x="1921" arabic-form="final" 
d="M1530 976q-18 -41 -60 -121l-114 70q31 61 56 121zM1673 756q-37 -59 -64 -109q-76 55 -120 80q-25 -32 -68 -97q-41 28 -115 82q22 32 66 104q59 -41 125 -81l64 100zM1952 1h-66q-54 0 -88 39q-19 22 -56 99q-39 -70 -58 -91q-38 -42 -92 -42q-99 0 -138 144
q-59 -109 -129 -133q-46 -16 -228 -16q-27 -288 -149 -423q-136 -149 -417 -149q-146 0 -238 79q-97 84 -97 228q0 71 37 163q34 87 82 147q7 9 14 6q7 -4 4 -11q-78 -178 -78 -246q0 -220 343 -220q96 0 212 36q138 43 182 106q36 52 36 197q0 79 -25 132q-21 44 -71 108
l72 112q7 11 24 -15q44 -67 59 -79q38 -31 117 -31q106 0 154 16q61 21 102 104q13 26 24 26q12 0 15 -35q3 -45 19 -65q27 -35 97 -35q48 0 76 34q17 21 34 64q13 35 22 35q12 0 20 -37q11 -48 26 -69q27 -37 85 -37h74v-141z" />
    <glyph glyph-name="uFEB7" unicode="&#x634;" horiz-adv-x="1010" arabic-form="initial" 
d="M762 976q-18 -41 -60 -121l-114 70q31 61 56 121zM905 756q-37 -59 -64 -109q-76 55 -120 80q-25 -32 -68 -97q-41 28 -115 82q22 32 66 104q59 -41 125 -81l64 100zM1010 313q0 -93 -29 -160q-39 -90 -121 -90q-90 0 -166 91q-53 -78 -100 -109q-65 -43 -166 -43
q-132 0 -195 124q-74 -125 -200 -125h-64v141h82q141 0 183 105q15 37 23 37q11 0 20 -38q25 -107 160 -107q188 0 260 163q25 56 31 56q14 0 17 -32q4 -44 17 -65q47 -77 149 -77q39 0 39 35q0 40 -52 109q41 68 76 122q3 4 7 -4q29 -54 29 -133z" />
    <glyph glyph-name="uFEB8" unicode="&#x634;" horiz-adv-x="1152" arabic-form="medial" 
d="M710 976q-18 -41 -60 -121q-40 24 -114 70q31 61 56 121zM853 756q-37 -59 -65 -109q-75 55 -119 80q-25 -32 -68 -97q-41 28 -116 82q22 32 67 104q58 -41 125 -81l63 100zM1184 1h-107q-100 0 -149 130q-57 -125 -145 -125q-97 0 -130 139q-51 -96 -113 -126
q-37 -18 -116 -18q-138 0 -186 127q-77 -127 -195 -127h-73v141h97q73 0 117 38q26 22 47 69q17 37 28 37t20 -38q24 -107 168 -107q142 0 201 108q21 38 29 38q9 0 13 -35q6 -44 22 -65q28 -35 94 -35q50 0 95 67q38 56 38 64q0 2 -1 2q9 0 17 -37q23 -106 104 -106h125
v-141z" />
    <glyph glyph-name="uFEBA" unicode="&#x635;" horiz-adv-x="2249" arabic-form="final" 
d="M2279 1h-153q-87 0 -229 7l-142 7q-33 2 -180 -7q-120 -7 -180 -7q-30 -58 -76 -130q-12 5 -12 19q0 13 36 111h-246q-27 -288 -149 -423q-136 -149 -417 -149q-146 0 -238 79q-97 84 -97 228q0 70 37 163q35 87 82 147q8 10 15 7t3 -12q-78 -173 -78 -246
q0 -220 343 -220q96 0 212 36q138 43 182 106q36 52 36 197q0 79 -25 132q-21 44 -71 108l72 112q8 12 24 -15q37 -63 57 -79q38 -30 119 -30h143q53 0 70 20q27 32 98 115q96 108 206 185q140 97 259 97q166 0 166 -173q0 -160 -204 -265q-39 -20 -41 -24q0 -1 3 -1
q10 0 48 10q135 36 243 36h84v-141zM2044 321q0 25 -46 56q-54 36 -121 36q-175 0 -412 -268q231 4 422 78q157 61 157 98z" />
    <glyph glyph-name="uFEBB" unicode="&#x635;" horiz-adv-x="1294" arabic-form="initial" 
d="M1294 386q0 -202 -270 -306q-205 -79 -479 -79q-30 -58 -76 -130q-12 5 -12 19q0 13 37 111q-125 0 -168 14q-74 24 -126 110q-73 -124 -182 -124h-49v141h71q122 0 171 107q17 38 22 38q8 0 12 -18l7 -31q36 -99 177 -99q119 0 138 23q33 41 123 144q76 85 172 151
q139 96 260 96q79 0 125.5 -44.5t46.5 -122.5zM1184 295q0 27 -46 59q-54 38 -126 38q-179 0 -397 -255q231 4 417 69q152 53 152 89z" />
    <glyph glyph-name="uFEBC" unicode="&#x635;" horiz-adv-x="1403" arabic-form="medial" 
d="M1437 1h-141q-88 0 -229 7l-141 7q-32 2 -180 -7q-121 -7 -181 -7q-29 -58 -76 -130q-11 5 -11 19q0 13 36 111q-130 2 -179 16q-84 24 -135 108q-73 -124 -182 -124h-49v141h71q122 0 171 107q17 38 22 38q8 0 12 -18l7 -31q36 -99 177 -99q139 0 159 23q27 32 98 115
q97 110 205 185q140 97 260 97q78 0 122 -47t44 -126q0 -160 -205 -265q-39 -20 -40 -24q0 -1 2 -1q10 0 48 10q135 36 244 36h71v-141zM1214 321q0 38 -67 67q-57 25 -99 25q-176 0 -412 -268q230 4 421 78q157 61 157 98z" />
    <glyph glyph-name="uFEBE" unicode="&#x636;" horiz-adv-x="2243" arabic-form="final" 
d="M1875 934q-21 -43 -57 -133q-56 33 -127 69q6 13 56 138q46 -32 128 -74zM2279 1h-153q-87 0 -229 7l-142 7q-33 2 -180 -7q-120 -7 -180 -7q-30 -58 -76 -130q-12 5 -12 19q0 13 36 111h-246q-27 -288 -149 -423q-136 -149 -417 -149q-146 0 -238 79q-97 84 -97 228
q0 70 37 163q35 87 82 147q8 10 15 7t3 -12q-78 -173 -78 -246q0 -220 343 -220q96 0 212 36q138 43 182 106q36 52 36 197q0 79 -25 132q-21 44 -71 108l72 112q8 12 24 -15q37 -63 57 -79q38 -30 119 -30h143q53 0 70 20q27 32 98 115q96 108 206 185q140 97 259 97
q166 0 166 -173q0 -160 -204 -265q-39 -20 -41 -24q0 -1 3 -1q10 0 48 10q135 36 243 36h84v-141zM2044 321q0 25 -46 56q-54 36 -121 36q-175 0 -412 -268q231 4 422 78q157 61 157 98z" />
    <glyph glyph-name="uFEBF" unicode="&#x636;" horiz-adv-x="1299" arabic-form="initial" 
d="M1046 934q-21 -43 -58 -133q-56 33 -127 69q6 13 57 138q46 -32 128 -74zM1294 386q0 -202 -270 -306q-205 -79 -479 -79q-30 -58 -76 -130q-12 5 -12 19q0 13 37 111q-125 0 -168 14q-74 24 -126 110q-73 -124 -182 -124h-49v141h71q122 0 171 107q17 38 22 38
q8 0 12 -18l7 -31q36 -99 177 -99q119 0 138 23q33 41 123 144q76 85 172 151q139 96 260 96q79 0 125.5 -44.5t46.5 -122.5zM1184 295q0 27 -46 59q-54 38 -126 38q-179 0 -397 -255q231 4 417 69q152 53 152 89z" />
    <glyph glyph-name="uFEC0" unicode="&#x636;" horiz-adv-x="1403" arabic-form="medial" 
d="M1046 934q-21 -43 -58 -133q-56 33 -127 69q6 13 57 138q46 -32 128 -74zM1437 1h-141q-88 0 -229 7l-141 7q-32 2 -180 -7q-121 -7 -181 -7q-29 -58 -76 -130q-11 5 -11 19q0 13 36 111q-130 2 -179 16q-84 24 -135 108q-73 -124 -182 -124h-49v141h71q122 0 171 107
q17 38 22 38q8 0 12 -18l7 -31q36 -99 177 -99q139 0 159 23q27 32 98 115q97 110 205 185q140 97 260 97q78 0 122 -47t44 -126q0 -160 -205 -265q-39 -20 -40 -24q0 -1 2 -1q10 0 48 10q135 36 244 36h71v-141zM1214 321q0 38 -67 67q-57 25 -99 25q-176 0 -412 -268
q230 4 421 78q157 61 157 98z" />
    <glyph glyph-name="uFEC2" unicode="&#x637;" horiz-adv-x="1358" arabic-form="final" 
d="M1388 1h-161q-58 0 -174 11t-174 11q-60 0 -180.5 -11t-180.5 -11h-158q-31 0 -83 45q-41 36 -66 70q-11 15 -11 21q0 5 24 5h185q129 0 171 79q29 55 29 213q0 157 -31 365q-34 229 -79 306l87 123q6 9 11 1q35 -74 89 -152q-62 -71 -62 -130q0 28 2 29q4 -8 10 -56
q33 -275 33 -424q0 -107 -11 -214q253 281 427 281q197 0 197 -172q0 -107 -69 -182q-45 -49 -96 -67h271v-141zM1199 322q0 40 -69 68q-58 24 -103 24q-173 0 -418 -262q208 1 413 73q177 62 177 97z" />
    <glyph glyph-name="uFEC3" unicode="&#x637;" horiz-adv-x="896" arabic-form="initial" 
d="M895 391q0 -132 -109 -217q-76 -60 -229 -108q-206 -65 -424 -65h-164v141h55q127 0 169 87q27 56 27 205q0 157 -31 365q-34 229 -79 306l87 123q6 8 11 0q32 -67 89 -151q-63 -78 -63 -130q0 29 2 30q4 -8 10 -56q34 -272 34 -430q0 -100 -9 -205q98 109 209 186
q131 91 220 91q195 0 195 -172zM813 322q0 39 -66 68q-55 24 -100 24q-172 0 -429 -262q223 0 425 74q170 62 170 96z" />
    <glyph glyph-name="uFEC4" unicode="&#x637;" horiz-adv-x="973" arabic-form="medial" 
d="M1002 1h-160q-58 0 -174 11t-174 11q-60 0 -180.5 -11t-180.5 -11h-164v141h55q128 0 169 86q27 56 27 205q0 158 -31 366q-34 229 -79 306l89 125q5 8 11 -3q50 -97 87 -151q-63 -73 -63 -128q0 29 2 30q4 -8 10 -56q34 -272 34 -432q0 -100 -9 -204q98 109 209 186
q131 91 220 91q197 0 197 -172q0 -104 -68 -180q-48 -53 -98 -69h271v-141zM813 322q0 39 -66 68q-55 24 -100 24q-175 0 -427 -262q215 0 418 73q175 63 175 97z" />
    <glyph glyph-name="uFEC6" unicode="&#x638;" horiz-adv-x="1358" arabic-form="final" 
d="M1090 973q-21 -43 -58 -133q-56 33 -127 69q6 13 57 138q46 -32 128 -74zM1388 1h-161q-58 0 -174 11t-174 11q-60 0 -180.5 -11t-180.5 -11h-158q-31 0 -83 45q-41 36 -66 70q-11 15 -11 21q0 5 24 5h185q129 0 171 79q29 55 29 213q0 157 -31 365q-34 229 -79 306
l87 123q6 9 11 1q35 -74 89 -152q-62 -71 -62 -130q0 28 2 29q4 -8 10 -56q33 -275 33 -424q0 -107 -11 -214q253 281 427 281q197 0 197 -172q0 -107 -69 -182q-45 -49 -96 -67h271v-141zM1199 322q0 40 -69 68q-58 24 -103 24q-173 0 -418 -262q208 1 413 73
q177 62 177 97z" />
    <glyph glyph-name="uFEC7" unicode="&#x638;" horiz-adv-x="897" arabic-form="initial" 
d="M697 985q-20 -43 -57 -133q-56 33 -127 70q6 12 56 137q46 -32 128 -74zM895 391q0 -132 -109 -217q-76 -60 -229 -108q-206 -65 -424 -65h-164v141h55q127 0 169 87q27 56 27 205q0 157 -31 365q-34 229 -79 306l87 123q6 8 11 0q32 -67 89 -151q-63 -78 -63 -130
q0 29 2 30q4 -8 10 -56q34 -272 34 -430q0 -100 -9 -205q98 109 209 186q131 91 220 91q195 0 195 -172zM813 322q0 39 -66 68q-55 24 -100 24q-172 0 -429 -262q223 0 425 74q170 62 170 96z" />
    <glyph glyph-name="uFEC8" unicode="&#x638;" horiz-adv-x="974" arabic-form="medial" 
d="M697 985q-20 -43 -57 -133q-56 33 -127 70q6 12 56 137q46 -32 128 -74zM1002 1h-160q-58 0 -174 11t-174 11q-60 0 -180.5 -11t-180.5 -11h-164v141h55q128 0 169 86q27 56 27 205q0 158 -31 366q-34 229 -79 306l89 125q5 8 11 -3q50 -97 87 -151q-63 -73 -63 -128
q0 29 2 30q4 -8 10 -56q34 -272 34 -432q0 -100 -9 -204q98 109 209 186q131 91 220 91q197 0 197 -172q0 -104 -68 -180q-48 -53 -98 -69h271v-141zM813 322q0 39 -66 68q-55 24 -100 24q-175 0 -427 -262q215 0 418 73q175 63 175 97z" />
    <glyph glyph-name="uFECA" unicode="&#x639;" horiz-adv-x="1028" arabic-form="final" 
d="M1288 -732q15 3 29 3q20 0 20 -8q0 -16 -52 -36l-184 -71q-122 -47 -340 -47q-565 0 -565 494q0 356 372 624q-83 63 -171 66q18 83 88 132q66 47 153 47q83 0 141 -27q77 -36 77 -109q0 -57 -137 -116q89 -78 205 -78h133v-141h-141q-140 0 -245 122q-37 43 -44 43
q-38 0 -122 -65q-247 -191 -247 -448q0 -379 514 -418q66 -5 137 -5q192 0 379 38z" />
    <glyph glyph-name="uFECB" unicode="&#x639;" horiz-adv-x="785" arabic-form="initial" 
d="M784 418q0 -126 -18 -136q-529 -281 -742 -281h-55v141h57q126 0 197 39q-96 64 -96 160q0 79 103 199q111 130 213 130q105 0 190 -88q18 -19 18 -29q0 -7 -10 -7q-6 0 -16 3q-44 14 -110 14q-72 0 -157 -31q-105 -38 -156 -103q69 -128 226 -155q47 -2 106 22
q71 29 243 126q7 4 7 -4z" />
    <glyph glyph-name="uFECC" unicode="&#x639;" horiz-adv-x="750" arabic-form="medial" 
d="M780 1h-89q-102 0 -187 53l-140 110l-185 -114q-80 -49 -161 -49h-49v141h80q135 0 248 91q-108 83 -186 90q18 82 93 132q70 48 157 48q77 0 147 -31q88 -39 88 -106q0 -65 -142 -137q100 -87 214 -87h112v-141z" />
    <glyph glyph-name="uFECE" unicode="&#x63a;" horiz-adv-x="1028" arabic-form="final" 
d="M697 862q-20 -43 -57 -133q-56 33 -127 70q6 13 56 137q46 -32 128 -74zM1288 -732q15 3 29 3q20 0 20 -8q0 -16 -52 -36l-184 -71q-122 -47 -340 -47q-565 0 -565 494q0 356 372 624q-83 63 -171 66q18 83 88 132q66 47 153 47q83 0 141 -27q77 -36 77 -109
q0 -57 -137 -116q89 -78 205 -78h133v-141h-141q-140 0 -245 122q-37 43 -44 43q-38 0 -122 -65q-247 -191 -247 -448q0 -379 514 -418q66 -5 137 -5q192 0 379 38z" />
    <glyph glyph-name="uFECF" unicode="&#x63a;" horiz-adv-x="786" arabic-form="initial" 
d="M446 1031q-20 -43 -57 -133q-56 33 -127 70q6 12 56 137q47 -32 128 -74zM784 418q0 -126 -18 -136q-529 -281 -742 -281h-55v141h57q126 0 197 39q-96 64 -96 160q0 79 103 199q111 130 213 130q105 0 190 -88q18 -19 18 -29q0 -7 -10 -7q-6 0 -16 3q-44 14 -110 14
q-72 0 -157 -31q-105 -38 -156 -103q69 -128 226 -155q47 -2 106 22q71 29 243 126q7 4 7 -4z" />
    <glyph glyph-name="uFED0" unicode="&#x63a;" horiz-adv-x="750" arabic-form="medial" 
d="M446 908q-20 -43 -57 -133q-56 33 -127 70q6 13 56 137q47 -32 128 -74zM780 1h-89q-102 0 -187 53l-140 110l-185 -114q-80 -49 -161 -49h-49v141h80q135 0 248 91q-108 83 -186 90q18 82 93 132q70 48 157 48q77 0 147 -31q88 -39 88 -106q0 -65 -142 -137
q100 -87 214 -87h112v-141z" />
    <glyph glyph-name="uFED2" unicode="&#x641;" horiz-adv-x="1823" arabic-form="final" 
d="M1660 990q-21 -43 -57 -133q-56 33 -127 70q5 13 56 137q46 -32 128 -74zM1852 1h-83q-181 0 -313 105q-208 -105 -489 -105h-212q-255 0 -367 40q-192 69 -192 273q0 64 41 151q31 65 54 91q9 10 17 6q8 -5 2 -14q-56 -93 -56 -160q0 -120 86 -173q118 -73 442 -73h185
q266 0 396 54q-19 32 -23 84q-3 45 8 74q32 81 124 182q102 111 166 111q35 0 60 -80q20 -64 20 -108q0 -74 -37 -154q-40 -88 -98 -121q51 -42 193 -42h76v-141zM1640 352q0 29 -26.5 65t-54.5 36q-40 0 -89 -29q-55 -32 -55 -69q0 -21 33.5 -59t54.5 -38q26 0 78 30
q59 34 59 64z" />
    <glyph glyph-name="uFED3" unicode="&#x641;" horiz-adv-x="498" arabic-form="initial" 
d="M359 990q-20 -43 -57 -133q-56 33 -127 70q6 13 56 137q46 -32 128 -74zM496 346q0 -154 -58 -229q-43 -56 -175 -89q-107 -27 -200 -27h-94v140h133q152 0 255 46q90 40 90 86q0 59 -31 89q-63 -79 -154 -79q-118 0 -118 110q0 81 50 187q55 116 113 116q40 0 107 -96
q82 -117 82 -254zM371 446q-8 28 -37 68q-34 47 -55 47q-22 0 -45 -49q-21 -44 -21 -70q0 -41 66 -41q67 0 92 45z" />
    <glyph glyph-name="uFED4" unicode="&#x641;" horiz-adv-x="647" arabic-form="medial" 
d="M503 990q-21 -43 -58 -133q-55 33 -127 70q6 13 57 137q46 -32 128 -74zM677 1h-73q-175 0 -307 101q-35 -32 -129 -66.5t-143 -34.5h-56v141h48q97 0 181 45q-20 35 -26 85q-5 49 5 75q29 73 125 176q105 113 167 113q76 0 76 -175q0 -76 -30 -154q-35 -90 -91 -123
q51 -42 186 -42h67v-141zM466 348q0 30 -22.5 65.5t-51.5 35.5q-39 0 -87 -28q-55 -31 -55 -66q0 -21 33.5 -59t54.5 -38q22 0 71 28q57 32 57 62z" />
    <glyph glyph-name="uFED6" unicode="&#x642;" horiz-adv-x="1196" arabic-form="final" 
d="M1103 818q-28 -50 -73 -115q-58 50 -120 90q-25 -36 -69 -106q-43 31 -120 88q41 62 67 115l126 -89l73 98q75 -55 116 -81zM1226 1h-146q-24 -142 -87 -222q-59 -76 -191 -142q-147 -73 -294 -73q-148 0 -230 79.5t-82 227.5q0 79 48 179q42 87 94 143q4 4 12 4
q9 0 9 -6q-2 -5 -4 -8q-36 -53 -66 -124q-36 -85 -36 -137q0 -119 101 -177q82 -47 210 -47q115 0 242 48q222 84 222 255q-120 0 -160 13q-83 27 -83 120q0 63 60 155q64 99 122 99q53 0 95 -99q36 -84 36 -147h128v-141zM1025 145q-38 114 -99 114q-25 0 -50.5 -23.5
t-25.5 -48.5q0 -47 110 -47q30 0 65 5z" />
    <glyph glyph-name="uFED7" unicode="&#x642;" horiz-adv-x="498" arabic-form="initial" 
d="M463 1013q-28 -50 -73 -115q-58 50 -120 89q-25 -35 -69 -105q-43 31 -120 88q41 61 67 114l126 -89l73 99q75 -55 116 -81zM496 346q0 -154 -58 -229q-43 -56 -175 -89q-107 -27 -200 -27h-94v140h133q152 0 255 46q90 40 90 86q0 61 -35 101q-66 -84 -155 -84
q-47 0 -80 28.5t-33 74.5q0 68 52 180q57 123 111 123q40 0 107 -96q82 -117 82 -254zM362 445q-7 27 -33 65q-30 44 -51 44q-24 0 -47 -45q-21 -40 -21 -68q0 -34 72 -34q59 0 80 38z" />
    <glyph glyph-name="uFED8" unicode="&#x642;" horiz-adv-x="648" arabic-form="medial" 
d="M586 1013q-29 -50 -73 -115q-58 50 -120 89q-25 -35 -69 -105q-43 31 -120 88q41 61 67 114l126 -89l73 99q75 -55 116 -81zM677 1h-73q-175 0 -307 101q-35 -32 -129 -66.5t-143 -34.5h-56v141h48q97 0 181 45q-20 35 -26 85q-5 49 5 75q29 73 125 176q105 113 167 113
q76 0 76 -175q0 -76 -30 -154q-35 -90 -91 -123q51 -42 186 -42h67v-141zM466 348q0 30 -22.5 65.5t-51.5 35.5q-39 0 -87 -28q-55 -31 -55 -66q0 -21 33.5 -59t54.5 -38q22 0 71 28q57 32 57 62z" />
    <glyph glyph-name="uFEDE" unicode="&#x644;" horiz-adv-x="1194" arabic-form="final" 
d="M1225 1h-68q-101 0 -150 152q-3 10 -7 8q-4 -1 -5 -14q20 -442 -23 -550q-35 -88 -133 -151q-133 -86 -335 -86q-146 0 -227 79t-81 225q0 166 139 356q8 11 19 8t2 -19q-103 -183 -103 -293q0 -104 91 -160q77 -48 187 -48q172 0 305 73q117 64 114 126l-23 535
q0 11 -51 808l62 129q8 17 13 17q4 -3 5 -19q4 -123 14 -262q31 -441 58 -580q37 -193 128 -193h69v-141z" />
    <glyph glyph-name="uFEDF" unicode="&#x644;" horiz-adv-x="301" arabic-form="initial" 
d="M295 367q3 -23 3 -54q0 -170 -109 -264q-55 -48 -156 -48h-64v141h103q164 0 164 107q0 7 -2 15l-47 407q-32 233 -78 401q-6 23 -10 34q34 44 91 124q50 -72 102 -152q-81 -80 -72 -146z" />
    <glyph glyph-name="uFEE0" unicode="&#x644;" horiz-adv-x="518" arabic-form="medial" 
d="M549 1h-99q-63 0 -113 48q-45 43 -63 107q-16 56 -18 60q-4 -7 -20 -56q-22 -68 -82 -113.5t-130 -45.5h-55v141h85q166 0 166 174v116q0 266 -52 663l72 94q13 17 14 -3q14 -300 30 -558q16 -250 49 -353q43 -133 140 -133h76v-141z" />
    <glyph glyph-name="uFEE2" unicode="&#x645;" horiz-adv-x="1016" arabic-form="final" 
d="M1047 1h-93q-186 0 -252 59q6 -46 6 -84q0 -148 -77 -148q-111 0 -135 264q-95 0 -175 -56q-69 -48 -65 -77q46 -304 85 -648q4 -35 4 -99q0 -98 -14 -98q-10 0 -28 107q-30 176 -105 634q-5 32 -5 63q0 240 307 353q6 22 21 58q9 13 20 4q136 -110 155 -121
q119 -70 265 -70h86v-141z" />
    <glyph glyph-name="uFEE3" unicode="&#x645;" horiz-adv-x="575" arabic-form="initial" 
d="M569 164q-2 -15 -50.5 -51.5t-65.5 -36.5q-32 0 -123.5 44t-98.5 44q-36 0 -94 -84q-54 -79 -107 -79h-61v141h56q73 0 131 60q42 43 96 146q89 168 180 168q49 0 74 -18q17 -12 39 -76q29 -84 29 -183q0 -34 -5 -75zM479 254q0 59 -41 105q-35 39 -64 39
q-18 0 -38 -27.5t-20 -46.5q0 -51 114 -91q49 -17 49 21z" />
    <glyph glyph-name="uFEE4" unicode="&#x645;" horiz-adv-x="882" arabic-form="medial" 
d="M912 1h-58q-95 0 -241 109q-6 -95 -12 -115q-12 -40 -48 -40q-71 0 -205 102q-108 82 -121 82q57 0 -61.5 -69t-150.5 -69h-46v141h55q89 0 133 27q36 22 105 110q107 135 156 135t117 -71q118 -123 127 -130q85 -71 174 -71h76v-141zM504 122q2 65 -13 121
q-22 81 -73 81q-41 0 -102 -97q65 -53 188 -105z" />
    <glyph glyph-name="uFEE6" unicode="&#x646;" horiz-adv-x="1247" arabic-form="final" 
d="M708 560q-21 -43 -58 -133q-56 33 -127 70q6 12 57 137q46 -32 128 -74zM1278 1h-181q-27 -288 -149 -423q-136 -149 -417 -149q-146 0 -238 79q-97 84 -97 228q0 70 37 163q35 87 82 147q10 0 18 -5q-78 -180 -78 -246q0 -220 343 -220q96 0 212 36q138 43 182 106
q36 52 36 197q0 79 -25 132q-21 44 -71 108l72 112q7 11 24 -15q38 -57 68 -79q42 -30 108 -30h74v-141z" />
    <glyph glyph-name="uFEE7" unicode="&#x646;" horiz-adv-x="344" arabic-form="initial" 
d="M303 939q-20 -43 -57 -133q-56 33 -127 70q6 12 56 137q46 -32 128 -74zM333 265q0 -67 -33 -143q-22 -51 -37 -68q-46 -53 -184 -53h-110v141h81q236 0 236 49q0 46 -87 156l62 130q6 13 14 1q58 -96 58 -213z" />
    <glyph glyph-name="uFEE8" unicode="&#x646;" horiz-adv-x="455" arabic-form="medial" 
d="M247 734q-21 -43 -58 -133q-55 33 -127 70q6 13 57 137q46 -32 128 -74zM485 1h-71q-142 0 -188 142q-28 -59 -85 -99q-61 -43 -123 -43h-49v141h71q130 0 190 121q20 40 25 42q8 0 24 -53q32 -110 150 -110h56v-141z" />
    <glyph glyph-name="uFEEA" unicode="&#x647;" horiz-adv-x="798" arabic-form="final" 
d="M828 1h-96q-105 0 -152 78q-26 44 -54 176q-32 -39 -64 -77q-35 -34 -93 -34q-51 0 -103 15q-70 20 -70 55q0 101 105 200q77 73 188 125q-2 46 -11 89l53 82q10 16 12 0q18 -149 38 -303q17 -132 25 -159q30 -106 97 -106h125v-141zM520 300l-17 151q-115 -23 -190 -126
q57 -28 144 -28q30 0 63 3z" />
    <glyph glyph-name="uFEEB" unicode="&#x647;" horiz-adv-x="796" arabic-form="initial" 
d="M795 252q0 -182 -103 -182q-45 0 -151 40t-146 40q-42 0 -137 -58q-27 -17 -97 -60q-52 -31 -109 -31h-83v141h127q104 0 156 48q-45 31 -45 92q0 115 146 228q-33 22 -60 31q58 155 86 155q58 0 202 -127q80 -71 141 -154q73 -100 73 -163zM567 396q-16 13 -21 13
q-6 -1 -5 -21q2 -59 -56 -131q113 -51 224 -75q22 -5 22 10q0 7 -3 15q-30 84 -161 189zM477 349q0 36 -17 65q-20 35 -53 35q-55 0 -100 -47q-34 -35 -43 -66q16 -21 55.5 -39t67.5 -18q90 0 90 70z" />
    <glyph glyph-name="uFEEC" unicode="&#x647;" horiz-adv-x="746" arabic-form="medial" 
d="M776 1h-66q-117 0 -200 -23q76 -69 76 -161q0 -83 -41 -153q-48 -82 -126 -82q-98 0 -159 146q-48 115 -52 241h-53v53q-65 -21 -136 -21h-50v141h54q135 0 200 38q7 80 116 243q115 171 184 171q31 0 36 -48v-95q0 -155 -66 -242q-13 -17 -114 -100l8 -19q204 52 302 52
h87v-141zM516 340q0 27 -22.5 55.5t-49.5 28.5q-41 0 -101 -94q-44 -69 -68 -130q66 20 137 54q104 50 104 86zM543 -209q0 58 -112 114q-98 48 -165 51q4 -64 54 -145q56 -90 114 -90q33 0 68 19q41 21 41 51z" />
    <glyph glyph-name="uFEEE" unicode="&#x648;" horiz-adv-x="911" arabic-form="final" 
d="M941 1h-135q-22 -156 -128 -306q-143 -203 -349 -203q-88 0 -197 87q-61 49 -61 65q0 6 10 6q-16 0 -17 -2q0 -5 72 -20q105 -21 150 -21q174 0 320 141q117 113 134 207q3 17 1 49q-123 0 -160 12q-68 22 -68 99q0 72 58 183q65 124 129 124q46 0 83 -121
q28 -91 32 -159h126v-141zM739 158q-1 43 -22 79q-25 44 -64 44q-32 0 -55 -39q-20 -35 -20 -69q0 -9 3 -13q6 -12 62 -14q59 -2 96 12z" />
    <glyph glyph-name="uFEF0" unicode="&#x649;" horiz-adv-x="1250" arabic-form="final" 
d="M1282 1h-139q-44 0 -116 -21q-89 -26 -89 -56q0 -10 19 -16l154 -30q120 -28 120 -60q0 -163 -260 -296q-227 -116 -408 -116q-156 0 -250 59q-114 71 -111 219q2 83 46 191q41 101 97 172q9 11 17 7q8 -5 2 -16q-94 -166 -94 -272q0 -129 106 -178q73 -34 225 -34
q185 0 373 80q162 69 162 102q0 7 -152.5 42t-152.5 77q0 59 97 166q109 121 213 121h141v-141z" />
    <glyph glyph-name=".notdef" horiz-adv-x="1024" 
d="M128 0v1222h768v-1222h-768zM256 128h512v966h-512v-966z" />
    <glyph glyph-name=".null" 
 />
    <glyph glyph-name="nonmarkingreturn" horiz-adv-x="512" 
 />
    <glyph glyph-name="space" unicode=" " horiz-adv-x="512" 
 />
    <glyph glyph-name="exclam" unicode="!" horiz-adv-x="375" 
d="M373 920q0 -70 -24 -226q-30 -194 -33 -256l-12 -242h-34q-4 77 -15 241q-5 75 -34 262q-25 163 -25 223q0 217 89 217q88 0 88 -219zM375 22q0 -36 -25 -60.5t-61 -24.5t-61 24.5t-25 60.5t25 61t61 25q35 0 60.5 -25.5t25.5 -60.5z" />
    <glyph glyph-name="percent" unicode="%" horiz-adv-x="882" 
d="M233 1026q0 -33 -23 -56t-56 -23q-80 0 -80 79q0 33 23.5 56.5t56.5 23.5t56 -23.5t23 -56.5zM711 1196l-457 -1299l-55 20l458 1300zM814 86q0 -33 -23.5 -56t-56.5 -23t-56.5 23t-23.5 56t23.5 56.5t56.5 23.5t56.5 -23.5t23.5 -56.5z" />
    <glyph glyph-name="parenleft" unicode="(" horiz-adv-x="621" 
d="M616 1189q-15 -18 -83 -102q-237 -292 -237 -575q0 -306 236 -591q82 -99 82 -94q0 -28 -26 -28q-18 0 -111 101q-113 123 -185 256q-97 180 -97 343q0 203 99 387q74 137 188 244q90 84 111 84q23 0 23 -25z" />
    <glyph glyph-name="parenright" unicode=")" horiz-adv-x="618" 
d="M615 499q0 -163 -97 -343q-72 -133 -185 -256q-93 -101 -111 -101q-26 0 -26 28q0 -5 82 94q236 285 236 591q0 284 -237 575l-83 102q0 25 23 25q21 0 111 -84q114 -107 188 -244q99 -184 99 -387z" />
    <glyph glyph-name="asterisk" unicode="*" horiz-adv-x="1115" 
d="M914 623q-76 -45 -149 -63q-12 -3 -14 0q-3 3 0 14q38 140 112 213q25 24 57 24q35 0 59.5 -25t24.5 -60t-19 -53.5t-71 -49.5zM740 843q0 -113 -75 -235q-5 -9 -11 -10q-5 1 -10 10q-71 124 -71 231q0 81 85 81q30 0 56 -23.5t26 -53.5zM1113 461q0 -30 -23.5 -56
t-53.5 -26q-110 0 -234 76q-10 6 -10 10q1 5 10 10q124 71 230 71q81 0 81 -85zM740 463q0 -35 -24.5 -59t-59.5 -24q-34 0 -58.5 24.5t-24.5 58.5t24.5 58.5t58.5 24.5q35 0 59.5 -24t24.5 -59zM981 256q24 -24 24 -57q0 -35 -25 -59t-60 -24q-51 0 -103 89q-45 77 -63 149
q-1 6 -1 10t1 5q3 3 14 0q140 -39 213 -113zM559 557q-3 -3 -14 0q-139 38 -213 113q-24 24 -24 56q0 35 25 59.5t60 24.5q36 0 63 -29q11 -12 40 -61q45 -76 63 -149q3 -11 0 -14zM521 461q-1 -5 -10 -10q-125 -71 -230 -71q-81 0 -81 85q0 31 23 56.5t53 25.5
q111 0 235 -76q10 -6 10 -10zM739 87q0 -81 -85 -81q-29 0 -55.5 24t-26.5 53q0 110 76 234q6 10 10 11q5 0 11 -11q70 -124 70 -230zM562 351q-38 -140 -112 -213q-24 -24 -57 -24q-35 0 -59.5 25t-24.5 60q0 51 90 104q79 47 149 63q10 2 14 0q3 -4 0 -15z" />
    <glyph glyph-name="plus" unicode="+" horiz-adv-x="907" 
d="M842 352h-340v-340h-90v340h-341v90h341v341h90v-341h340v-90z" />
    <glyph glyph-name="comma" unicode="," horiz-adv-x="449" 
d="M200 127q13 77 97 77q70 0 115 -73q38 -63 38 -138q0 -28 -5 -56q-29 -165 -194 -244q-11 -5 -13 4q-2 8 9 14q107 63 129 188q10 59 -17 124q-33 -18 -68 -18q-94 0 -94 93q0 11 3 29z" />
    <glyph glyph-name="hyphen" unicode="-" horiz-adv-x="907" 
d="M842 352h-771v90h771v-90z" />
    <glyph glyph-name="period" unicode="." horiz-adv-x="390" 
d="M378 50q0 -35 -26 -60.5t-61 -25.5q-36 0 -61.5 25t-25.5 61t25.5 61.5t61.5 25.5t61.5 -25.5t25.5 -61.5z" />
    <glyph glyph-name="slash" unicode="/" horiz-adv-x="522" 
d="M476 1008l-384 -1091l-50 21l384 1089z" />
    <glyph glyph-name="zero" unicode="0" horiz-adv-x="881" 
d="M573 554l-86 -281q-74 68 -213 161q27 81 80 294q113 -98 219 -174z" />
    <glyph glyph-name="zero" unicode="&#x6f0;" horiz-adv-x="881" 
d="M573 554l-86 -281q-74 68 -213 161q27 81 80 294q113 -98 219 -174z" />
    <glyph glyph-name="zero" unicode="&#x660;" horiz-adv-x="881" 
d="M573 554l-86 -281q-74 68 -213 161q27 81 80 294q113 -98 219 -174z" />
    <glyph glyph-name="one" unicode="1" horiz-adv-x="881" 
d="M545 17q-8 -30 -15 -30t-9 32q-16 325 -87 550q-63 199 -189 381q42 109 66 164q11 24 15 25q5 0 24 -27q105 -152 166 -414q53 -231 53 -447q0 -143 -24 -234z" />
    <glyph glyph-name="one" unicode="&#x6f1;" horiz-adv-x="881" 
d="M545 17q-8 -30 -15 -30t-9 32q-16 325 -87 550q-63 199 -189 381q42 109 66 164q11 24 15 25q5 0 24 -27q105 -152 166 -414q53 -231 53 -447q0 -143 -24 -234z" />
    <glyph glyph-name="one" unicode="&#x661;" horiz-adv-x="881" 
d="M545 17q-8 -30 -15 -30t-9 32q-16 325 -87 550q-63 199 -189 381q42 109 66 164q11 24 15 25q5 0 24 -27q105 -152 166 -414q53 -231 53 -447q0 -143 -24 -234z" />
    <glyph glyph-name="two" unicode="2" horiz-adv-x="881" 
d="M717 1020q0 -145 -75 -203q-65 -51 -214 -51q102 -333 102 -562q0 -123 -33 -192q-6 -12 -12 -13q-7 -2 -7 9q-13 318 -106 572q-79 213 -237 431q17 26 70 116q2 1 5 -2q57 -64 127 -140q43 -46 134 -46q104 0 155 51q30 30 47 94q13 51 29 51q15 0 16 -47q-1 65 -1 -68
z" />
    <glyph glyph-name="two" unicode="&#x6f2;" horiz-adv-x="881" 
d="M717 1020q0 -145 -75 -203q-65 -51 -214 -51q102 -333 102 -562q0 -123 -33 -192q-6 -12 -12 -13q-7 -2 -7 9q-13 318 -106 572q-79 213 -237 431q17 26 70 116q2 1 5 -2q57 -64 127 -140q43 -46 134 -46q104 0 155 51q30 30 47 94q13 51 29 51q15 0 16 -47q-1 65 -1 -68
z" />
    <glyph glyph-name="two" unicode="&#x662;" horiz-adv-x="881" 
d="M717 1020q0 -145 -75 -203q-65 -51 -214 -51q102 -333 102 -562q0 -123 -33 -192q-6 -12 -12 -13q-7 -2 -7 9q-13 318 -106 572q-79 213 -237 431q17 26 70 116q2 1 5 -2q57 -64 127 -140q43 -46 134 -46q104 0 155 51q30 30 47 94q13 51 29 51q15 0 16 -47q-1 65 -1 -68
z" />
    <glyph glyph-name="three" unicode="3" horiz-adv-x="881" 
d="M859 1060q0 -97 -39 -175q-48 -97 -136 -97q-83 0 -189 91q-25 -51 -82.5 -90.5t-113.5 -39.5q76 -196 76 -482q0 -162 -40 -259q-5 -13 -10 -14q-6 -1 -6 10q-19 635 -311 977q32 68 72 144q5 9 11 2q56 -62 137 -148q35 -37 114 -37q115 0 179 137q37 78 46 78
q24 0 8 -76q-1 -5 -1 -12q0 -46 58 -73q45 -21 97 -21q45 0 77.5 75t33.5 75q19 0 19 -65z" />
    <glyph glyph-name="three" unicode="&#x6f3;" horiz-adv-x="881" 
d="M859 1060q0 -97 -39 -175q-48 -97 -136 -97q-83 0 -189 91q-25 -51 -82.5 -90.5t-113.5 -39.5q76 -196 76 -482q0 -162 -40 -259q-5 -13 -10 -14q-6 -1 -6 10q-19 635 -311 977q32 68 72 144q5 9 11 2q56 -62 137 -148q35 -37 114 -37q115 0 179 137q37 78 46 78
q24 0 8 -76q-1 -5 -1 -12q0 -46 58 -73q45 -21 97 -21q45 0 77.5 75t33.5 75q19 0 19 -65z" />
    <glyph glyph-name="three" unicode="&#x663;" horiz-adv-x="881" 
d="M859 1060q0 -97 -39 -175q-48 -97 -136 -97q-83 0 -189 91q-25 -51 -82.5 -90.5t-113.5 -39.5q76 -196 76 -482q0 -162 -40 -259q-5 -13 -10 -14q-6 -1 -6 10q-19 635 -311 977q32 68 72 144q5 9 11 2q56 -62 137 -148q35 -37 114 -37q115 0 179 137q37 78 46 78
q24 0 8 -76q-1 -5 -1 -12q0 -46 58 -73q45 -21 97 -21q45 0 77.5 75t33.5 75q19 0 19 -65z" />
    <glyph glyph-name="four" unicode="4" horiz-adv-x="881" 
d="M787 834q-61 -165 -250 -165q-55 0 -120 15q15 -53 51 -192q38 -148 38 -280q0 -124 -40 -208q-6 -13 -13 -14q-3 5 -7 10q3 256 -109 552q-102 269 -243 436l77 128q4 7 9 2q72 -69 164 -230q84 247 248 247q70 0 143 -65q12 -11 10 -20t-12 -6q-43 15 -82 15
q-61 0 -105 -37.5t-44 -97.5q0 -47 27 -84q29 -41 75 -41q103 0 181 88q6 7 11 7q13 0 -9 -60z" />
    <glyph glyph-name="four" unicode="&#x6f4;" horiz-adv-x="881" 
d="M787 834q-61 -165 -250 -165q-55 0 -120 15q15 -53 51 -192q38 -148 38 -280q0 -124 -40 -208q-6 -13 -13 -14q-3 5 -7 10q3 256 -109 552q-102 269 -243 436l77 128q4 7 9 2q72 -69 164 -230q84 247 248 247q70 0 143 -65q12 -11 10 -20t-12 -6q-43 15 -82 15
q-61 0 -105 -37.5t-44 -97.5q0 -47 27 -84q29 -41 75 -41q103 0 181 88q6 7 11 7q13 0 -9 -60z" />
    <glyph glyph-name="four" unicode="&#x664;" horiz-adv-x="881" 
d="M787 834q-61 -165 -250 -165q-55 0 -120 15q15 -53 51 -192q38 -148 38 -280q0 -124 -40 -208q-6 -13 -13 -14q-3 5 -7 10q3 256 -109 552q-102 269 -243 436l77 128q4 7 9 2q72 -69 164 -230q84 247 248 247q70 0 143 -65q12 -11 10 -20t-12 -6q-43 15 -82 15
q-61 0 -105 -37.5t-44 -97.5q0 -47 27 -84q29 -41 75 -41q103 0 181 88q6 7 11 7q13 0 -9 -60z" />
    <glyph glyph-name="five" unicode="5" horiz-adv-x="881" 
d="M817 424q0 -144 -58 -267q-68 -145 -177 -145q-46 0 -77 24q-9 7 -48 51q-71 -107 -161 -107q-117 0 -179 115q-50 93 -50 221q0 177 100 373q40 79 160 255l-51 42l75 144q466 -347 466 -706zM741 397q0 132 -149 306q-104 122 -219 205q-223 -295 -223 -547
q0 -75 34 -134q41 -69 111 -69q99 0 146 135q6 16 13 16q8 0 16 -17q40 -85 124 -85q73 0 113 61q34 52 34 129z" />
    <glyph glyph-name="five" unicode="&#x6f5;" horiz-adv-x="881" 
d="M817 424q0 -144 -58 -267q-68 -145 -177 -145q-46 0 -77 24q-9 7 -48 51q-71 -107 -161 -107q-117 0 -179 115q-50 93 -50 221q0 177 100 373q40 79 160 255l-51 42l75 144q466 -347 466 -706zM741 397q0 132 -149 306q-104 122 -219 205q-223 -295 -223 -547
q0 -75 34 -134q41 -69 111 -69q99 0 146 135q6 16 13 16q8 0 16 -17q40 -85 124 -85q73 0 113 61q34 52 34 129z" />
    <glyph glyph-name="five" unicode="&#x665;" horiz-adv-x="881" 
d="M817 424q0 -144 -58 -267q-68 -145 -177 -145q-46 0 -77 24q-9 7 -48 51q-71 -107 -161 -107q-117 0 -179 115q-50 93 -50 221q0 177 100 373q40 79 160 255l-51 42l75 144q466 -347 466 -706zM741 397q0 132 -149 306q-104 122 -219 205q-223 -295 -223 -547
q0 -75 34 -134q41 -69 111 -69q99 0 146 135q6 16 13 16q8 0 16 -17q40 -85 124 -85q73 0 113 61q34 52 34 129z" />
    <glyph glyph-name="six" unicode="6" horiz-adv-x="881" 
d="M786 779q-26 -89 -57 -168q-227 -79 -349 -230q-174 -216 -255 -386q-6 -12 -11 -12q-13 0 -6 29q69 281 281 535q-82 11 -157 55q-94 55 -94 127q0 90 120 239q129 160 238 160t169 -136q9 -20 9 -34q0 -19 -16 -19q-11 0 -28 9q-107 58 -175 58q-76 0 -150 -72
q-66 -64 -69 -111q9 -44 55 -83q62 -52 153 -52q83 0 159 33q59 26 178 100q6 4 12 6q7 0 -7 -48z" />
    <glyph glyph-name="six" unicode="&#x6f6;" horiz-adv-x="881" 
d="M786 779q-26 -89 -57 -168q-227 -79 -349 -230q-174 -216 -255 -386q-6 -12 -11 -12q-13 0 -6 29q69 281 281 535q-82 11 -157 55q-94 55 -94 127q0 90 120 239q129 160 238 160t169 -136q9 -20 9 -34q0 -19 -16 -19q-11 0 -28 9q-107 58 -175 58q-76 0 -150 -72
q-66 -64 -69 -111q9 -44 55 -83q62 -52 153 -52q83 0 159 33q59 26 178 100q6 4 12 6q7 0 -7 -48z" />
    <glyph glyph-name="six" unicode="&#x666;" horiz-adv-x="881" 
d="M786 779q-26 -89 -57 -168q-227 -79 -349 -230q-174 -216 -255 -386q-6 -12 -11 -12q-13 0 -6 29q69 281 281 535q-82 11 -157 55q-94 55 -94 127q0 90 120 239q129 160 238 160t169 -136q9 -20 9 -34q0 -19 -16 -19q-11 0 -28 9q-107 58 -175 58q-76 0 -150 -72
q-66 -64 -69 -111q9 -44 55 -83q62 -52 153 -52q83 0 159 33q59 26 178 100q6 4 12 6q7 0 -7 -48z" />
    <glyph glyph-name="seven" unicode="7" horiz-adv-x="881" 
d="M844 931q-225 -281 -388 -848q-17 -58 -22 -58t-20 58q-141 532 -378 818q17 60 57 169q8 21 22 2q116 -150 206 -368q86 -205 123 -405q5 -28 10 -30q5 4 11 30q39 166 124 377q118 293 239 426q12 13 14 -42v-66z" />
    <glyph glyph-name="seven" unicode="&#x6f7;" horiz-adv-x="881" 
d="M844 931q-225 -281 -388 -848q-17 -58 -22 -58t-20 58q-141 532 -378 818q17 60 57 169q8 21 22 2q116 -150 206 -368q86 -205 123 -405q5 -28 10 -30q5 4 11 30q39 166 124 377q118 293 239 426q12 13 14 -42v-66z" />
    <glyph glyph-name="seven" unicode="&#x667;" horiz-adv-x="881" 
d="M844 931q-225 -281 -388 -848q-17 -58 -22 -58t-20 58q-141 532 -378 818q17 60 57 169q8 21 22 2q116 -150 206 -368q86 -205 123 -405q5 -28 10 -30q5 4 11 30q39 166 124 377q118 293 239 426q12 13 14 -42v-66z" />
    <glyph glyph-name="eight" unicode="8" horiz-adv-x="881" 
d="M847 211q-17 -60 -57 -169q-8 -21 -22 -2q-116 151 -207 368q-86 206 -123 405q-5 29 -9 30q-5 -4 -11 -30q-40 -168 -124 -377q-117 -290 -240 -426q-8 -9 -10 35l-5 136q226 283 388 848q17 58 22 58t20 -58q141 -532 378 -818z" />
    <glyph glyph-name="eight" unicode="&#x6f8;" horiz-adv-x="881" 
d="M847 211q-17 -60 -57 -169q-8 -21 -22 -2q-116 151 -207 368q-86 206 -123 405q-5 29 -9 30q-5 -4 -11 -30q-40 -168 -124 -377q-117 -290 -240 -426q-8 -9 -10 35l-5 136q226 283 388 848q17 58 22 58t20 -58q141 -532 378 -818z" />
    <glyph glyph-name="eight" unicode="&#x668;" horiz-adv-x="881" 
d="M847 211q-17 -60 -57 -169q-8 -21 -22 -2q-116 151 -207 368q-86 206 -123 405q-5 29 -9 30q-5 -4 -11 -30q-40 -168 -124 -377q-117 -290 -240 -426q-8 -9 -10 35l-5 136q226 283 388 848q17 58 22 58t20 -58q141 -532 378 -818z" />
    <glyph glyph-name="nine" unicode="9" horiz-adv-x="881" 
d="M766 129q-20 -70 -64 -184l-1 -2q-147 174 -179 544q-60 -22 -128 -22q-109 0 -187 53q-89 60 -89 164q0 105 101 275q107 180 192 180q97 0 148 -209q35 -142 35 -282q0 -295 172 -517zM497 633q-16 149 -37 210q-33 95 -101 95q-80 0 -145 -225q57 -85 227 -85
q29 0 56 5z" />
    <glyph glyph-name="nine" unicode="&#x6f9;" horiz-adv-x="881" 
d="M766 129q-20 -70 -64 -184l-1 -2q-147 174 -179 544q-60 -22 -128 -22q-109 0 -187 53q-89 60 -89 164q0 105 101 275q107 180 192 180q97 0 148 -209q35 -142 35 -282q0 -295 172 -517zM497 633q-16 149 -37 210q-33 95 -101 95q-80 0 -145 -225q57 -85 227 -85
q29 0 56 5z" />
    <glyph glyph-name="nine" unicode="&#x669;" horiz-adv-x="881" 
d="M766 129q-20 -70 -64 -184l-1 -2q-147 174 -179 544q-60 -22 -128 -22q-109 0 -187 53q-89 60 -89 164q0 105 101 275q107 180 192 180q97 0 148 -209q35 -142 35 -282q0 -295 172 -517zM497 633q-16 149 -37 210q-33 95 -101 95q-80 0 -145 -225q57 -85 227 -85
q29 0 56 5z" />
    <glyph glyph-name="colon" unicode=":" horiz-adv-x="371" 
d="M369 624q0 -36 -25.5 -61t-61.5 -25t-61.5 25t-25.5 61t25.5 61.5t61.5 25.5t61.5 -25.5t25.5 -61.5zM369 50q0 -35 -26 -60.5t-61 -25.5q-36 0 -61.5 25t-25.5 61t25.5 61.5t61.5 25.5t61.5 -25.5t25.5 -61.5z" />
    <glyph glyph-name="equal" unicode="=" horiz-adv-x="903" 
d="M840 481h-771v90h771v-90zM840 214h-771v90h771v-90z" />
    <glyph glyph-name="bracketleft" unicode="[" horiz-adv-x="583" 
d="M571 -274h-406v1441h406v-50h-296v-1341h296v-50z" />
    <glyph glyph-name="bracketright" unicode="]" horiz-adv-x="583" 
d="M578 -274h-403v50h295v1341h-295v50h403v-1441z" />
    <glyph glyph-name="braceleft" unicode="{" horiz-adv-x="981" 
d="M832 -320q-152 27 -249 129q-103 107 -103 257q0 61 26 177q19 85 19 112q0 97 -72 163q-67 62 -166 73v38q239 52 239 219q0 47 -16 122q-27 126 -27 188q0 151 101 257q96 102 248 127v-40q-94 -14 -155 -73q-67 -64 -67 -155q0 -46 13 -115q30 -160 30 -210
q0 -224 -286 -336q283 -116 283 -350q0 -49 -27 -179q-17 -82 -17 -135q0 -180 226 -233v-36z" />
    <glyph glyph-name="braceright" unicode="}" horiz-adv-x="981" 
d="M695 593q-239 -52 -239 -220q0 -52 15 -122q28 -131 28 -187q0 -151 -101 -257q-96 -102 -248 -127v40q94 14 155 73q66 63 66 155q0 48 -12 114q-30 164 -30 211q0 223 285 336q-282 116 -282 349q0 55 26 180q18 87 18 135q0 180 -226 233v36q152 -28 249 -129
q103 -106 103 -257q0 -57 -27 -177q-18 -80 -18 -113q0 -97 73 -162q64 -58 165 -74v-37z" />
    <glyph glyph-name="guillemotleft" unicode="&#xab;" horiz-adv-x="569" 
d="M562 -2q4 -7 4 -12q0 -18 -25 5q-150 135 -150 388q0 108 53 226q46 102 102 154q12 11 18 11q3 -1 3 -4q0 -10 -11 -30q-85 -151 -85 -360q0 -217 91 -378zM368 -2q4 -7 4 -12q0 -18 -26 5q-149 135 -149 388q0 111 52 226q45 98 102 154q11 11 18 11q4 -1 4 -4
q0 -9 -12 -30q-85 -150 -85 -360q0 -217 92 -378z" />
    <glyph glyph-name="periodcentered" unicode="&#xb7;" horiz-adv-x="405" 
d="M326 768q0 -50 -35.5 -85t-85.5 -35q-49 0 -84.5 35.5t-35.5 84.5t34.5 85t83.5 36q51 0 87 -35t36 -86z" />
    <glyph glyph-name="periodcentered" unicode="&#x2219;" horiz-adv-x="405" 
d="M326 768q0 -50 -35.5 -85t-85.5 -35q-49 0 -84.5 35.5t-35.5 84.5t34.5 85t83.5 36q51 0 87 -35t36 -86z" />
    <glyph glyph-name="periodcentered" unicode="&#x2d9;" horiz-adv-x="405" 
d="M326 768q0 -50 -35.5 -85t-85.5 -35q-49 0 -84.5 35.5t-35.5 84.5t34.5 85t83.5 36q51 0 87 -35t36 -86z" />
    <glyph glyph-name="guillemotright" unicode="&#xbb;" horiz-adv-x="569" 
d="M566 379q0 -253 -149 -388q-26 -23 -26 -5q0 5 4 12q91 161 91 378q0 209 -85 360q-11 20 -11 30q1 4 4 4q6 0 18 -11q56 -52 102 -154q52 -116 52 -226zM372 379q0 -253 -150 -388q-25 -23 -25 -5q0 5 4 12q91 161 91 378q0 210 -85 360q-12 21 -12 30q1 4 4 4
q7 0 18 -11q57 -55 102 -154q53 -116 53 -226z" />
    <glyph glyph-name="multiply" unicode="&#xd7;" horiz-adv-x="896" 
d="M824 77l-66 -66l-302 302l-304 -303l-66 66l303 303l-301 302l65 65l302 -302l301 304l66 -67l-300 -301z" />
    <glyph glyph-name="divide" unicode="&#xf7;" horiz-adv-x="675" 
d="M622 301h-574v67h574v-67zM337 636q33 0 56.5 -23.5t23.5 -56.5t-23.5 -56.5t-56.5 -23.5t-56.5 23.5t-23.5 56.5t23.5 56.5t56.5 23.5zM337 212q33 0 56.5 -23.5t23.5 -56.5t-23.5 -56.5t-56.5 -23.5t-56.5 23.5t-23.5 56.5t23.5 56.5t56.5 23.5z" />
    <glyph glyph-name="u060C" unicode="&#x60c;" horiz-adv-x="449" 
d="M445 37q-13 -77 -97 -77q-70 0 -115 73q-38 63 -38 138q0 28 5 56q29 165 194 244q11 5 13 -4q2 -8 -9 -14q-107 -63 -129 -188q-10 -59 17 -124q33 18 68 18q94 0 94 -93q0 -11 -3 -29z" />
    <glyph glyph-name="u061B" unicode="&#x61b;" horiz-adv-x="451" 
d="M445 406q-13 -77 -97 -77q-70 0 -115 73q-38 63 -38 138q0 27 5 56q29 165 194 244q11 5 13 -4t-9 -15q-108 -63 -129 -187q-10 -60 17 -124q33 17 68 17q94 0 94 -92q0 -11 -3 -29zM409 50q0 -35 -26 -60.5t-61 -25.5q-36 0 -62 25t-26 61q0 37 25.5 62t62.5 25
q36 0 61.5 -25.5t25.5 -61.5z" />
    <glyph glyph-name="u061F" unicode="&#x61f;" horiz-adv-x="774" 
d="M770 901q0 -60 -32 -111q-36 -59 -93 -59q-92 0 -92 86q0 105 102 105q37 0 77 -22q8 45 -53 106q-68 68 -158 68q-81 0 -134 -49t-53 -130q0 -71 117 -256t117 -279q0 -22 -3 -44l-15 -112l-45 2l6 96q4 65 -77 138q-139 124 -154 143q-83 102 -83 236q0 125 90.5 222.5
t214.5 97.5q103 0 183 -66q85 -71 85 -172zM602 14q0 -35 -24.5 -59t-59.5 -24t-59.5 24t-24.5 59t24.5 59.5t59.5 24.5t59.5 -24.5t24.5 -59.5z" />
    <glyph glyph-name="u0621" unicode="&#x621;" horiz-adv-x="703" 
d="M701 178q-38 -79 -58 -105q-237 -43 -453 -129q7 23 13 46q34 41 138 82q-33 21 -66 43q-31 26 -31 67q0 71 87 153.5t158 82.5q69 0 69 -63t-30 -105q-11 -15 -20 3q-30 60 -90 60q-66 0 -66 -47q0 -50 54 -88q49 -36 101 -36q30 0 194 36z" />
    <glyph glyph-name="u0640" unicode="&#x640;" horiz-adv-x="645" 
d="M672 1h-703v141h703v-141z" />
    <glyph glyph-name="u064B" unicode="&#x64b;" 
d="M453 1660l-35 -90l-348 -171l34 84zM443 1512l-34 -90l-349 -171l35 84z" />
    <glyph glyph-name="u064C" unicode="&#x64c;" 
d="M453 1547q0 -89 -61 -148q5 -3 50 -22l-10 -81q-53 9 -98 52q-115 -94 -233 -113l-48 32q66 44 70 99q3 33 -6 40q-21 15 -75 -14l-1 28q50 54 89 54q55 0 55 -57q0 -50 -34 -109q108 44 129 77q-38 40 -38 91q0 41 53 97t93 56q65 0 65 -82zM371 1552q-16 0 -41.5 -18.5
t-25.5 -34.5t15.5 -39.5t30.5 -23.5q19 0 31 35q10 28 10 52q0 29 -20 29z" />
    <glyph glyph-name="u064D" unicode="&#x64d;" 
d="M587 -976l-35 -90l-349 -170l36 84zM578 -1123l-35 -90l-349 -170l35 84z" />
    <glyph glyph-name="u064E" unicode="&#x64e;" 
d="M434 1492l-33 -89l-342 -167l34 82z" />
    <glyph glyph-name="u064F" unicode="&#x64f;" 
d="M440 1543q0 -86 -60 -144q16 -10 47 -25l-6 -78q-65 19 -104 55q-115 -99 -242 -119q-40 7 -42 36q169 57 237 117q-43 43 -43 88q0 42 53.5 97t94.5 55q65 0 65 -82zM358 1548q-18 0 -43 -17.5t-25 -34.5t14 -39q15 -25 31 -25q19 0 32 36q9 28 9 52q0 28 -18 28z" />
    <glyph glyph-name="u0650" unicode="&#x650;" 
d="M570 -952l-34 -88l-341 -167l33 82z" />
    <glyph glyph-name="u0651" unicode="&#x651;" 
d="M416 1466q0 -40 -25 -81q-31 -50 -78 -50q-19 0 -39 8q-51 -93 -123 -93q-61 0 -61 86q0 51 34 113q6 11 14 12q4 -5 7 -10q-3 -25 -3 -46q0 -65 30 -65q42 0 72 92t32 92q8 0 15.5 -48.5t33.5 -48.5q30 0 45 76.5t19 76.5q27 0 27 -114z" />
    <glyph glyph-name="u0652" unicode="&#x652;" 
d="M396 1385q0 -64 -48 -104t-113 -40q-60 0 -96 35.5t-36 95.5q0 42 38 105q46 76 105 76q69 0 111 -50q39 -48 39 -118zM329 1382q0 29 -41.5 58t-71.5 29q-21 0 -38 -29t-17 -50q0 -54 92 -54q23 0 47 11q29 14 29 35z" />
    <glyph glyph-name="zeronojoin" unicode="&#x200c;" horiz-adv-x="32" 
 />
    <glyph glyph-name="zerojoin" unicode="&#x200d;" horiz-adv-x="32" 
 />
    <glyph glyph-name="lefttoright" unicode="&#x200e;" horiz-adv-x="32" 
d="M213 1132l-95 -96l-24 20l63 62h-125v-1118h-32v1148h153l-59 58l24 22z" />
    <glyph glyph-name="righttoleft" unicode="&#x200f;" horiz-adv-x="32" 
d="M32 0h-32v1118h-124l60 -62l-20 -20l-99 96l99 96l20 -22l-58 -58h154v-1148z" />
    <glyph glyph-name="quoteleft" unicode="&#x2018;" horiz-adv-x="491" 
d="M467 1486q-89 -59 -154 -145q-76 -101 -76 -193q0 -55 32 -98q39 47 90 47q102 0 102 -100q0 -59 -48 -92q-43 -30 -104 -30q-82 0 -133 50.5t-51 132.5q0 141 108 283q97 127 234 200v-55z" />
    <glyph glyph-name="quoteright" unicode="&#x2019;" horiz-adv-x="491" 
d="M444 1353q0 -143 -107 -281q-91 -118 -232 -200v56q228 162 228 338q0 62 -33 101q-33 -49 -95 -49q-41 0 -69.5 28t-28.5 69q0 58 49 93q43 31 104 31q86 0 135 -50t49 -136z" />
    <glyph glyph-name="quotedblleft" unicode="&#x201c;" horiz-adv-x="650" 
d="M572 1146q-13 -6 -41 -26q-52 -51 -52 -95q82 -22 82 -112q0 -45 -31.5 -78t-76.5 -33q-52 0 -84 42q-29 38 -29 92q0 201 203 359q0 -83 1 -93q4 -40 28 -56zM302 1146q-13 -6 -41 -26q-52 -51 -52 -95q82 -22 82 -112q0 -45 -31.5 -78t-76.5 -33q-52 0 -84 42
q-29 38 -29 92q0 201 203 359q0 -83 1 -93q4 -40 28 -56z" />
    <glyph glyph-name="quotedblright" unicode="&#x201d;" horiz-adv-x="650" 
d="M580 1151q0 -201 -203 -359q0 83 -1 93q-4 40 -28 56q13 6 41 26q52 51 52 95q-82 22 -82 112q0 46 31 78.5t77 32.5q54 0 85 -41q28 -37 28 -93zM310 1151q0 -201 -203 -359q0 83 -1 93q-4 40 -28 56q13 6 41 26q52 51 52 95q-82 22 -82 112q0 46 31 78.5t77 32.5
q54 0 85 -41q28 -37 28 -93z" />
    <glyph glyph-name="guilsinglleft" unicode="&#x2039;" horiz-adv-x="512" 
d="M457 966l-228 -382l222 -380v-75l-383 455l389 457v-75z" />
    <glyph glyph-name="guilsinglright" unicode="&#x203a;" horiz-adv-x="512" 
d="M457 586l-393 -457v75l231 382l-222 381v77z" />
    <glyph glyph-name="uE820" unicode="&#xe820;" 
d="M394 964l-33 -89l-342 -167l34 82z" />
    <glyph glyph-name="uE821" unicode="&#xe821;" 
d="M440 997q0 -86 -60 -144q16 -10 47 -25l-6 -78q-65 19 -104 55q-115 -99 -242 -119q-40 7 -42 36q169 57 237 117q-43 43 -43 88q0 42 53.5 97t94.5 55q65 0 65 -82zM358 1002q-18 0 -43 -17.5t-25 -34.5t14 -39q15 -25 31 -25q19 0 32 36q9 28 9 52q0 28 -18 28z" />
    <glyph glyph-name="uE822" unicode="&#xe822;" 
d="M347 861q0 -64 -48 -104t-113 -40q-60 0 -96 35.5t-36 95.5q0 42 38 105q46 76 105 76q69 0 111 -50q39 -48 39 -118zM280 858q0 29 -41.5 58t-71.5 29q-21 0 -38 -29t-17 -50q0 -54 92 -54q23 0 47 11q29 14 29 35z" />
    <glyph glyph-name="uE823" unicode="&#xe823;" 
d="M402 1092l-35 -90l-348 -171l34 84zM392 944l-34 -90l-349 -171l35 84z" />
    <glyph glyph-name="uE824" unicode="&#xe824;" 
d="M405 1017q0 -89 -61 -148q5 -3 50 -22l-10 -81q-53 9 -98 52q-115 -94 -233 -113l-48 32q66 44 70 99q3 33 -6 40q-21 15 -75 -14l-1 28q50 54 89 54q55 0 55 -57q0 -50 -34 -109q108 44 129 77q-38 40 -38 91q0 41 53 97t93 56q65 0 65 -82zM323 1022q-16 0 -41.5 -18.5
t-25.5 -34.5t15.5 -39.5t30.5 -23.5q19 0 31 35q10 28 10 52q0 29 -20 29z" />
    <glyph glyph-name="uE825" unicode="&#xe825;" 
d="M384 933q0 -40 -25 -81q-31 -50 -78 -50q-19 0 -39 8q-51 -93 -123 -93q-61 0 -61 86q0 51 34 113q6 11 14 12q4 -5 7 -10q-3 -25 -3 -46q0 -65 30 -65q42 0 72 92t32 92q8 0 15.5 -48.5t33.5 -48.5q30 0 45 76.5t19 76.5q27 0 27 -114z" />
    <glyph glyph-name="uE826" unicode="&#xe826;" 
d="M484 -294l-34 -88l-341 -167l33 82z" />
    <glyph glyph-name="uE827" unicode="&#xe827;" 
d="M497 -316l-35 -90l-349 -170l36 84zM488 -463l-35 -90l-349 -170l35 84z" />
    <glyph glyph-name="uE828" unicode="&#xe828;" 
d="M357 1016q0 -40 -25 -81q-31 -50 -78 -50q-19 0 -39 8q-51 -93 -123 -93q-61 0 -61 86q0 51 34 113q6 11 14 12q4 -5 7 -10q-3 -25 -3 -46q0 -65 30 -65q42 0 72 92t32 92q8 0 15.5 -48.5t33.5 -48.5q30 0 45 76.5t19 76.5q27 0 27 -114zM388 1321l-33 -89l-342 -167
l34 82z" />
    <glyph glyph-name="uE829" unicode="&#xe829;" 
d="M369 983q0 -40 -25 -81q-31 -50 -78 -50q-19 0 -39 8q-51 -93 -123 -93q-61 0 -61 86q0 51 34 113q6 11 14 12q4 -5 7 -10q-3 -25 -3 -46q0 -65 30 -65q42 0 72 92t32 92q8 0 15.5 -48.5t33.5 -48.5q30 0 45 76.5t19 76.5q27 0 27 -114zM411 1395q0 -86 -60 -144
q16 -10 47 -25l-6 -78q-65 19 -104 55q-115 -99 -242 -119q-40 7 -42 36q169 57 237 117q-43 43 -43 88q0 42 53.5 97t94.5 55q65 0 65 -82zM329 1400q-18 0 -43 -17.5t-25 -34.5t14 -39q15 -25 31 -25q19 0 32 36q9 28 9 52q0 28 -18 28z" />
    <glyph glyph-name="uE82A" unicode="&#xe82a;" 
d="M361 979q0 -40 -25 -81q-31 -50 -78 -50q-19 0 -39 8q-51 -93 -123 -93q-61 0 -61 86q0 51 34 113q6 11 14 12q4 -5 7 -10q-3 -25 -3 -46q0 -65 30 -65q42 0 72 92t32 92q8 0 15.5 -48.5t33.5 -48.5q30 0 45 76.5t19 76.5q27 0 27 -114zM413 1440l-35 -90l-348 -171
l34 84zM403 1292l-34 -90l-349 -171l35 84z" />
    <glyph glyph-name="uE82B" unicode="&#xe82b;" 
d="M374 970q0 -40 -25 -81q-31 -50 -78 -50q-19 0 -39 8q-51 -93 -123 -93q-61 0 -61 86q0 51 34 113q6 11 14 12q4 -5 7 -10q-3 -25 -3 -46q0 -65 30 -65q42 0 72 92t32 92q8 0 15.5 -48.5t33.5 -48.5q30 0 45 76.5t19 76.5q27 0 27 -114zM421 1378q0 -89 -61 -148
q5 -3 50 -22l-10 -81q-53 9 -98 52q-115 -94 -233 -113l-48 32q66 44 70 99q3 33 -6 40q-21 15 -75 -14l-1 28q50 54 89 54q55 0 55 -57q0 -50 -34 -109q108 44 129 77q-38 40 -38 91q0 41 53 97t93 56q65 0 65 -82zM339 1383q-16 0 -41.5 -18.5t-25.5 -34.5t15.5 -39.5
t30.5 -23.5q19 0 31 35q10 28 10 52q0 29 -20 29z" />
    <glyph glyph-name="uE82C" unicode="&#xe82c;" 
d="M370 1118q0 -40 -25 -81q-31 -50 -78 -50q-19 0 -39 8q-51 -93 -123 -93q-61 0 -61 86q0 51 34 113q6 11 14 12q4 -5 7 -10q-3 -25 -3 -46q0 -65 30 -65q42 0 72 92t32 92q8 0 15.5 -48.5t33.5 -48.5q30 0 45 76.5t19 76.5q27 0 27 -114zM391 947l-34 -88l-341 -167
l33 82z" />
    <glyph glyph-name="uE82D" unicode="&#xe82d;" 
d="M376 1289q0 -40 -25 -81q-31 -50 -78 -50q-19 0 -39 8q-51 -93 -123 -93q-61 0 -61 86q0 51 34 113q6 11 14 12q4 -5 7 -10q-3 -25 -3 -46q0 -65 30 -65q42 0 72 92t32 92q8 0 15.5 -48.5t33.5 -48.5q30 0 45 76.5t19 76.5q27 0 27 -114zM401 1095l-35 -90l-349 -170
l36 84zM392 948l-35 -90l-349 -170l35 84z" />
    <glyph glyph-name="glyph218" horiz-adv-x="1" 
d="M598 470q1 -5 1 -12q0 -37 -23 -57q-3 -3 -8 -2q-4 0 -4 4q1 42 -16 121q-22 105 -24 123q16 14 41 34l6 3q2 -3 1 -15t-1 -15q0 -20 27 -184z" />
  </font>
</defs>
</svg>
