<?xml version="1.0" standalone="no"?>
<!DOCTYPE svg PUBLIC "-//W3C//DTD SVG 1.1//EN" "http://www.w3.org/Graphics/SVG/1.1/DTD/svg11.dtd" >
<svg xmlns="http://www.w3.org/2000/svg" xmlns:xlink="http://www.w3.org/1999/xlink" version="1.1">
<metadata>
Created by FontForge 20170731 at Tue May  1 17:46:53 2018
 By Aleksey,,,
(c) 2011 Adobe Systems Incorporated. All rights reserved.
</metadata>
<defs>
<font id="AdobeNaskh-Medium" horiz-adv-x="0" >
  <font-face 
    font-family="Adobe Naskh Medium"
    font-weight="500"
    font-stretch="normal"
    units-per-em="2048"
    panose-1="1 1 1 1 1 1 1 1 1 1"
    ascent="1200"
    descent="-848"
    x-height="614"
    cap-height="940"
    bbox="-894 -1185.55 4711 2099"
    underline-thickness="100"
    underline-position="-900"
    unicode-range="U+000D-FDFA"
  />
<missing-glyph horiz-adv-x="770" 
d="M0 1079h770v-1079h-770v1079zM647 1001h-524l262 -393zM694 145v787l-262 -391zM647 78l-262 393l-262 -393h524zM78 145l262 396l-262 391v-787z" />
    <glyph glyph-name="uni0622.f" unicode="&#x622;" horiz-adv-x="401" arabic-form="final" 
d="M390 0q-36 0 -67 7.5t-56 27.5q-39 32 -61 90t-33 136q-8 60 -13.5 127.5t-8.5 144.5q-2 56 -5 123.5t-7.5 135.5t-10.5 132t-14 113q-2 10 -2 18q0 5 1.5 11.5t9.5 17.5q17 26 29 45.5t23 41.5q8 16 12 20t9 4t10 -11t10 -37q12 -96 15 -207.5t4.5 -221t6 -209.5
t19.5 -174q4 -19 7 -32t6 -24t6.5 -20.5t8.5 -21.5q28 -65 105 -70q86 0 88 -80q0 -50 -21.5 -68.5t-56.5 -18.5h-14zM104 1290q-27 0 -62 -16.5t-72 -63.5q-8 -11 -16 -11t-8 8.5t2 13.5q20 74 70 129q53 56 127 56q42 0 112 -19q42 -11 59.5 -14t31.5 -3q17 0 36 6.5
t35 19.5t24.5 23.5t16.5 19.5q8 10 15 10q8 0 7 -8t-3 -13q-72 -169 -204 -169q-31 0 -94 16q-26 7 -42.5 11t-34.5 4z" />
    <glyph glyph-name="uni0623.f" unicode="&#x623;" horiz-adv-x="401" arabic-form="final" 
d="M390 0q-36 0 -67 7.5t-56 27.5q-39 32 -61 90t-33 136q-8 60 -13.5 127.5t-8.5 144.5q-2 56 -5 123.5t-7.5 135.5t-10.5 132t-14 113q-2 10 -2 18q0 5 1.5 11.5t9.5 17.5q17 26 29 45.5t23 41.5q8 16 12 20t9 4t10 -11t10 -37q12 -96 15 -207.5t4.5 -221t6 -209.5
t19.5 -174q4 -19 7 -32t6 -24t6.5 -20.5t8.5 -21.5q28 -65 105 -70q86 0 88 -80q0 -50 -21.5 -68.5t-56.5 -18.5h-14zM370 1414q-14 -34 -24 -44.5t-20 -16.5q-23 -12 -57.5 -32t-74 -44.5t-81.5 -52.5t-81 -57q-6 -3 -8 -3q-4 0 -4 6q0 13 15 50q4 10 23 30t38 35
q2 2 4.5 3.5t2.5 3.5q0 4 -10 8q-32 14 -48 25.5t-20 42.5q-1 4 -1 12q0 26 12 55.5t31 58.5t43.5 55.5t48.5 45.5q37 29 75 29q58 0 58 -53q0 -27 -17 -70q-11 -28 -19 -28q-7 0 -21 12q-8 8 -16.5 13.5t-25.5 5.5q-21 0 -38.5 -5.5t-29.5 -13.5t-19 -16.5t-7 -15.5
q0 -9 15.5 -20t36.5 -20t43.5 -15.5t37.5 -6.5q7 0 10 1q7 2 21 7t30 11.5t31.5 14t25.5 14.5q10 6 15 9.5t9 3.5q5 0 5 -7q0 -5 -2.5 -13t-6.5 -18z" />
    <glyph glyph-name="uni0624.f" unicode="&#x624;" horiz-adv-x="735" arabic-form="final" 
d="M329 -513q-27 0 -62.5 6t-74 16t-78.5 24t-77 31q-18 8 -24 16t-6 13q0 12 28 12q7 0 21.5 -2t32.5 -4.5t39 -4.5t40 -2q35 0 69 9.5t83 35.5q66 34 119 74t90.5 80.5t57.5 79.5t20 72q0 10 -1.5 20.5t-5.5 27.5h-54q-15 0 -35 1.5t-41 5.5t-42.5 10t-39.5 16
q-38 21 -54.5 49.5t-16.5 62.5q0 32 12.5 75.5t31.5 85.5q15 35 32 64t34.5 51t35.5 34t35 12q39 0 72.5 -24t56.5 -60q26 -41 38 -96.5t16 -110.5h71q69 0 69 -76q0 -88 -66 -91l-77 -4q-4 -96 -23 -175t-55 -142t-91.5 -109t-133.5 -76q-9 -3 -20.5 -5t-25.5 -2zM556 170
q0 7 -5 20t-14 27.5t-20.5 29t-23.5 24.5q-8 6 -17 11.5t-24 5.5q-13 0 -23.5 -6t-17.5 -15t-10.5 -18.5t-3.5 -16.5q0 -28 57 -50q23 -9 46 -13.5t38 -4.5q18 0 18 6zM649 692q-14 -34 -24 -44.5t-20 -16.5q-23 -12 -57.5 -32t-74 -44.5t-81.5 -52.5t-81 -57q-6 -3 -8 -3
q-4 0 -4 6q0 13 15 50q4 10 23 30t38 35q2 2 4.5 3.5t2.5 3.5q0 4 -10 8q-32 14 -48 25.5t-20 42.5q-1 4 -1 12q0 26 12 55.5t31 58.5t43.5 55.5t48.5 45.5q37 29 75 29q58 0 58 -53q0 -27 -17 -70q-11 -28 -19 -28q-7 0 -21 12q-8 8 -16.5 13.5t-25.5 5.5q-21 0 -38.5 -5.5
t-29.5 -13.5t-19 -16.5t-7 -15.5q0 -9 15.5 -20t36.5 -20t43.5 -15.5t37.5 -6.5q7 0 10 1q7 2 21 7t30 11.5t31.5 14t25.5 14.5q10 6 15 9.5t9 3.5q5 0 5 -7q0 -5 -2.5 -13t-6.5 -18z" />
    <glyph glyph-name="uni0625.f" unicode="&#x625;" horiz-adv-x="401" arabic-form="final" 
d="M390 0q-36 0 -67 7.5t-56 27.5q-39 32 -61 90t-33 136q-8 60 -13.5 127.5t-8.5 144.5q-2 56 -5 123.5t-7.5 135.5t-10.5 132t-14 113q-2 10 -2 18q0 5 1.5 11.5t9.5 17.5q17 26 29 45.5t23 41.5q8 16 12 20t9 4t10 -11t10 -37q12 -96 15 -207.5t4.5 -221t6 -209.5
t19.5 -174q4 -19 7 -32t6 -24t6.5 -20.5t8.5 -21.5q28 -65 105 -70q86 0 88 -80q0 -50 -21.5 -68.5t-56.5 -18.5h-14zM413 -297q-14 -34 -24 -44.5t-20 -16.5q-23 -12 -57.5 -32t-74 -44.5t-81.5 -53t-81 -56.5q-6 -3 -8 -3q-4 0 -4 6q0 12 15 50q4 10 23 30t38 35
q2 2 4.5 3.5t2.5 3.5q0 4 -10 8q-32 13 -48 25t-20 43q-1 4 -1 12q0 25 12 55t31 59t43.5 55.5t48.5 45.5q37 29 75 29q58 0 58 -53q0 -27 -17 -70q-11 -28 -19 -28q-7 0 -21 12q-8 8 -16.5 13.5t-25.5 5.5q-21 0 -38.5 -5.5t-29.5 -13.5t-19 -16.5t-7 -15.5q0 -9 15.5 -20
t36.5 -20t43.5 -15.5t37.5 -6.5q7 0 10 1q7 2 21 7t30 11.5t31.5 14t25.5 14.5q10 6 15 9.5t9 3.5q5 0 5 -7q0 -5 -2.5 -13t-6.5 -18z" />
    <glyph glyph-name="uni0626.i" unicode="&#x626;" horiz-adv-x="375" arabic-form="initial" 
d="M328 286q0 -46 -8 -94t-38 -89q-24 -33 -68.5 -60t-120.5 -38q-21 -3 -49 -4t-55 -1q-35 0 -52.5 25.5t-17.5 57.5t17.5 58t52.5 26h39q28 0 62 1t67 5.5t61.5 13.5t44.5 24q-2 25 -11.5 51.5t-21.5 50.5t-24 44.5t-21 32.5q-1 1 -1 5q0 11 7.5 33t17 44.5t17.5 40.5
t9 20q3 9 9 9q9 0 23.5 -20.5t28 -55.5t23 -81.5t9.5 -98.5zM372 891q-14 -34 -24 -44.5t-20 -16.5q-23 -12 -57.5 -32t-74 -44.5t-81.5 -52.5t-81 -57q-6 -3 -8 -3q-4 0 -4 6q0 13 15 50q4 10 23 30t38 35q2 2 4.5 3.5t2.5 3.5q0 4 -10 8q-32 14 -48 25.5t-20 42.5
q-1 4 -1 12q0 26 12 55.5t31 58.5t43.5 55.5t48.5 45.5q37 29 75 29q58 0 58 -53q0 -27 -17 -70q-11 -28 -19 -28q-7 0 -21 12q-8 8 -16.5 13.5t-25.5 5.5q-21 0 -38.5 -5.5t-29.5 -13.5t-19 -16.5t-7 -15.5q0 -9 15.5 -20t36.5 -20t43.5 -15.5t37.5 -6.5q7 0 10 1q7 2 21 7
t30 11.5t31.5 14t25.5 14.5q10 6 15 9.5t9 3.5q5 0 5 -7q0 -5 -2.5 -13t-6.5 -18z" />
    <glyph glyph-name="uni0626.m" unicode="&#x626;" horiz-adv-x="488" arabic-form="medial" 
d="M326 321q8 0 13 -12t5 -41q0 -16 8 -32t21.5 -29.5t31.5 -23.5t38 -14q11 -2 19 -2h16h10q24 0 36.5 -8.5t18.5 -20t7 -24.5t1 -22q0 -8 -1 -23.5t-6.5 -30.5t-18 -26.5t-35.5 -11.5h-13h-18t-24 2q-42 4 -71 22t-48 38.5t-28.5 38.5t-11.5 22q-7 -17 -27 -38.5t-54 -40
t-81 -31.5t-107 -13h-7q-35 0 -52.5 25.5t-17.5 57.5t17.5 58t53.5 26h50q27 0 59 3.5t64.5 15.5t62.5 35t53 63q14 25 22 31t14 6zM421 704q-14 -34 -24 -44.5t-20 -16.5q-23 -12 -57.5 -32t-74 -44.5t-81.5 -52.5t-81 -57q-6 -3 -8 -3q-4 0 -4 6q0 13 15 50q4 10 23 30
t38 35q2 2 4.5 3.5t2.5 3.5q0 4 -10 8q-32 14 -48 25.5t-20 42.5q-1 4 -1 12q0 26 12 55.5t31 58.5t43.5 55.5t48.5 45.5q37 29 75 29q58 0 58 -53q0 -27 -17 -70q-11 -28 -19 -28q-7 0 -21 12q-8 8 -16.5 13.5t-25.5 5.5q-21 0 -38.5 -5.5t-29.5 -13.5t-19 -16.5t-7 -15.5
q0 -9 15.5 -20t36.5 -20t43.5 -15.5t37.5 -6.5q7 0 10 1q7 2 21 7t30 11.5t31.5 14t25.5 14.5q10 6 15 9.5t9 3.5q5 0 5 -7q0 -5 -2.5 -13t-6.5 -18z" />
    <glyph glyph-name="uni0626.f" unicode="&#x626;" horiz-adv-x="1043" arabic-form="final" 
d="M125 -76q0 -74 31 -126t81 -86t113.5 -49.5t129.5 -15.5q48 0 104 11t113.5 29t111.5 40t98.5 44.5t74.5 42.5t39 33q-1 13 -14.5 25.5t-34 24.5t-44 23t-46.5 21q-24 11 -51 20t-58 18q-21 6 -26.5 14.5t-5.5 18.5q0 3 7.5 20.5t17.5 38.5t21.5 40.5t18.5 26.5q4 4 7 6
t8 3l210 20h31q80 0 80 -81q0 -86 -108 -86q32 -11 55.5 -41t23.5 -64q0 -26 -9 -52.5t-24 -50.5q-26 -42 -70 -81.5t-98 -74.5t-115 -64t-123 -49.5t-120.5 -32t-107.5 -11.5q-79 0 -150.5 19t-125.5 59.5t-85.5 103t-31.5 148.5q0 51 8.5 104t23.5 103.5t34.5 95.5
t41.5 81q15 25 28 36t21 11q9 0 9 -10q0 -9 -5.5 -23.5t-13.5 -29.5q-38 -75 -56.5 -134.5t-18.5 -118.5zM408 478q-14 -34 -24 -44.5t-20 -16.5q-23 -12 -57.5 -32t-74 -44.5t-81.5 -52.5t-81 -57q-6 -3 -8 -3q-4 0 -4 6q0 13 15 50q4 10 23 30t38 35q2 2 4.5 3.5t2.5 3.5
q0 4 -10 8q-32 14 -48 25.5t-20 42.5q-1 4 -1 12q0 26 12 55.5t31 58.5t43.5 55.5t48.5 45.5q37 29 75 29q58 0 58 -53q0 -27 -17 -70q-11 -28 -19 -28q-7 0 -21 12q-8 8 -16.5 13.5t-25.5 5.5q-21 0 -38.5 -5.5t-29.5 -13.5t-19 -16.5t-7 -15.5q0 -9 15.5 -20t36.5 -20
t43.5 -15.5t37.5 -6.5q7 0 10 1q7 2 21 7t30 11.5t31.5 14t25.5 14.5q10 6 15 9.5t9 3.5q5 0 5 -7q0 -5 -2.5 -13t-6.5 -18z" />
    <glyph glyph-name="uni0627.f" unicode="&#x627;" horiz-adv-x="401" arabic-form="final" 
d="M390 0q-36 0 -67 7.5t-56 27.5q-39 32 -61 90t-33 136q-8 60 -13.5 127.5t-8.5 144.5q-2 56 -5 123.5t-7.5 135.5t-10.5 132t-14 113q-2 10 -2 18q0 5 1.5 11.5t9.5 17.5q17 26 29 45.5t23 41.5q8 16 12 20t9 4t10 -11t10 -37q12 -96 15 -207.5t4.5 -221t6 -209.5
t19.5 -174q4 -19 7 -32t6 -24t6.5 -20.5t8.5 -21.5q28 -65 105 -70q86 0 88 -80q0 -50 -21.5 -68.5t-56.5 -18.5h-14z" />
    <glyph glyph-name="uni0628.i" unicode="&#x628;" horiz-adv-x="375" arabic-form="initial" 
d="M328 286q0 -46 -8 -94t-38 -89q-24 -33 -68.5 -60t-120.5 -38q-21 -3 -49 -4t-55 -1q-35 0 -52.5 25.5t-17.5 57.5t17.5 58t52.5 26h39q28 0 62 1t67 5.5t61.5 13.5t44.5 24q-2 25 -11.5 51.5t-21.5 50.5t-24 44.5t-21 32.5q-1 1 -1 5q0 11 7.5 33t17 44.5t17.5 40.5
t9 20q3 9 9 9q9 0 23.5 -20.5t28 -55.5t23 -81.5t9.5 -98.5zM234 -74q21 -23 57.5 -54t74.5 -56q8 -5 -1 -14q-7 -9 -20 -24.5t-28.5 -33.5t-30.5 -35t-25 -29q-5 -5 -8 -5.5t-9 3.5q-13 7 -31.5 20.5t-37.5 28.5t-35 30.5t-23 26.5q-4 6 -4 8.5t4 9.5q18 28 45.5 60
t49.5 54q11 11 14.5 12.5t7.5 -2.5z" />
    <glyph glyph-name="uni0628.m" unicode="&#x628;" horiz-adv-x="488" arabic-form="medial" 
d="M326 321q8 0 13 -12t5 -41q0 -16 8 -32t21.5 -29.5t31.5 -23.5t38 -14q11 -2 19 -2h16h10q24 0 36.5 -8.5t18.5 -20t7 -24.5t1 -22q0 -8 -1 -23.5t-6.5 -30.5t-18 -26.5t-35.5 -11.5h-13h-18t-24 2q-42 4 -71 22t-48 38.5t-28.5 38.5t-11.5 22q-7 -17 -27 -38.5t-54 -40
t-81 -31.5t-107 -13h-7q-35 0 -52.5 25.5t-17.5 57.5t17.5 58t53.5 26h50q27 0 59 3.5t64.5 15.5t62.5 35t53 63q14 25 22 31t14 6zM292 -196q21 -23 57.5 -54t74.5 -56q8 -5 -1 -14q-7 -9 -20 -24.5t-28.5 -33.5t-30.5 -35t-25 -29q-5 -5 -8 -5.5t-9 3.5q-13 7 -31.5 20.5
t-37.5 28.5t-35 30.5t-23 26.5q-4 6 -4 8.5t4 9.5q18 28 45.5 60t49.5 54q11 11 14.5 12.5t7.5 -2.5z" />
    <glyph glyph-name="uni0628.f" unicode="&#x628;" horiz-adv-x="1546" arabic-form="final" 
d="M146 344q0 -15 6 -34t21 -39t41 -40.5t65 -39.5q53 -25 137.5 -37.5t196.5 -12.5q158 0 281 19t208 44q56 17 98.5 30.5t77.5 28t64.5 31t60.5 38.5q3 2 9 6.5t10 4.5q5 0 8.5 -6.5t3.5 -26.5q0 -34 9 -60.5t23.5 -45t33.5 -28t40 -9.5h24q68 0 68 -80q0 -87 -67 -87h-30
q-156 0 -189 165q-58 -29 -129 -62.5t-140 -54.5q-109 -32 -228 -55t-259 -23q-114 0 -206.5 14.5t-154.5 40.5q-80 32 -119 83.5t-39 135.5q0 36 6.5 70.5t16 64.5t20 54t19.5 38q11 18 23.5 31t23.5 13q8 0 8 -11q0 -8 -4 -20t-10 -27q-11 -26 -19 -56t-9 -57zM722 -237
q21 -23 57.5 -54t74.5 -56q8 -5 -1 -14q-7 -9 -20 -24.5t-28.5 -33.5t-30.5 -35t-25 -29q-5 -5 -8 -5.5t-9 3.5q-13 7 -31.5 20.5t-37.5 28.5t-35 30.5t-23 26.5q-4 6 -4 8.5t4 9.5q18 28 45.5 60t49.5 54q11 11 14.5 12.5t7.5 -2.5z" />
    <glyph glyph-name="uni0629.f" unicode="&#x629;" horiz-adv-x="664" arabic-form="final" 
d="M461 358q11 -48 39 -88t70 -69q52 -34 87 -34h25q77 0 77 -77q0 -90 -80 -90h-23q-86 0 -165 67t-100 221q-12 -20 -24.5 -38.5t-36.5 -35.5q-35 -24 -85.5 -34.5t-105.5 -10.5q-40 0 -70.5 9.5t-30.5 38.5q9 62 18 100t22.5 63.5t33 45t49.5 43.5q13 10 35.5 25t48 31.5
t49 32t38.5 26.5q-3 23 -3 39q0 29 7 47.5t20 41.5q8 15 15.5 25.5t14.5 10.5q5 0 9.5 -9t8.5 -31q19 -113 31 -203t26 -147zM372 381q-3 17 -5 29.5t-4.5 25l-5.5 27.5t-7 36q-26 -16 -58 -36.5t-60.5 -40t-49 -36t-22.5 -24.5q0 -8 15 -12.5t39 -4.5q35 0 79 9t79 27z
M273 1019q8 10 19 22.5t22.5 25.5t21.5 24t17 17q10 10 15 12t10 -4q26 -28 55 -56t58 -48q9 -6 9 -10t-9 -13q-26 -27 -50 -54.5t-48 -56.5q-6 -8 -10 -8t-12 6q-21 16 -49.5 39.5t-55.5 49.5q-8 -9 -19.5 -22t-23.5 -25.5t-22.5 -23t-17.5 -15.5t-12 -7.5t-16 4.5
q-28 17 -59.5 44.5t-53.5 56.5q-5 7 -5 11.5t7 12.5q20 25 47 55t54 57q6 6 10.5 5t12.5 -9q10 -11 23.5 -24.5t28 -26t28.5 -23t25 -16.5z" />
    <glyph glyph-name="uni062A.i" unicode="&#x62a;" horiz-adv-x="375" arabic-form="initial" 
d="M328 286q0 -46 -8 -94t-38 -89q-24 -33 -68.5 -60t-120.5 -38q-21 -3 -49 -4t-55 -1q-35 0 -52.5 25.5t-17.5 57.5t17.5 58t52.5 26h39q28 0 62 1t67 5.5t61.5 13.5t44.5 24q-2 25 -11.5 51.5t-21.5 50.5t-24 44.5t-21 32.5q-1 1 -1 5q0 11 7.5 33t17 44.5t17.5 40.5
t9 20q3 9 9 9q9 0 23.5 -20.5t28 -55.5t23 -81.5t9.5 -98.5zM195 849q8 10 19 22.5t22.5 25.5t21.5 24t17 17q10 10 15 12t10 -4q26 -28 55 -56t58 -48q9 -6 9 -10t-9 -13q-26 -27 -50 -54.5t-48 -56.5q-6 -8 -10 -8t-12 6q-21 16 -49.5 39.5t-55.5 49.5q-8 -9 -19.5 -22
t-23.5 -25.5t-22.5 -23t-17.5 -15.5t-12 -7.5t-16 4.5q-28 17 -59.5 44.5t-53.5 56.5q-5 7 -5 11.5t7 12.5q20 25 47 55t54 57q6 6 10.5 5t12.5 -9q10 -11 23.5 -24.5t28 -26t28.5 -23t25 -16.5z" />
    <glyph glyph-name="uni062A.m" unicode="&#x62a;" horiz-adv-x="488" arabic-form="medial" 
d="M326 321q8 0 13 -12t5 -41q0 -16 8 -32t21.5 -29.5t31.5 -23.5t38 -14q11 -2 19 -2h16h10q24 0 36.5 -8.5t18.5 -20t7 -24.5t1 -22q0 -8 -1 -23.5t-6.5 -30.5t-18 -26.5t-35.5 -11.5h-13h-18t-24 2q-42 4 -71 22t-48 38.5t-28.5 38.5t-11.5 22q-7 -17 -27 -38.5t-54 -40
t-81 -31.5t-107 -13h-7q-35 0 -52.5 25.5t-17.5 57.5t17.5 58t53.5 26h50q27 0 59 3.5t64.5 15.5t62.5 35t53 63q14 25 22 31t14 6zM247 679q8 10 19 22.5t22.5 25.5t21.5 24t17 17q10 10 15 12t10 -4q26 -28 55 -56t58 -48q9 -6 9 -10t-9 -13q-26 -27 -50 -54.5t-48 -56.5
q-6 -8 -10 -8t-12 6q-21 16 -49.5 39.5t-55.5 49.5q-8 -9 -19.5 -22t-23.5 -25.5t-22.5 -23t-17.5 -15.5t-12 -7.5t-16 4.5q-28 17 -59.5 44.5t-53.5 56.5q-5 7 -5 11.5t7 12.5q20 25 47 55t54 57q6 6 10.5 5t12.5 -9q10 -11 23.5 -24.5t28 -26t28.5 -23t25 -16.5z" />
    <glyph glyph-name="uni062A.f" unicode="&#x62a;" horiz-adv-x="1546" arabic-form="final" 
d="M146 344q0 -15 6 -34t21 -39t41 -40.5t65 -39.5q53 -25 137.5 -37.5t196.5 -12.5q158 0 281 19t208 44q56 17 98.5 30.5t77.5 28t64.5 31t60.5 38.5q3 2 9 6.5t10 4.5q5 0 8.5 -6.5t3.5 -26.5q0 -34 9 -60.5t23.5 -45t33.5 -28t40 -9.5h24q68 0 68 -80q0 -87 -67 -87h-30
q-156 0 -189 165q-58 -29 -129 -62.5t-140 -54.5q-109 -32 -228 -55t-259 -23q-114 0 -206.5 14.5t-154.5 40.5q-80 32 -119 83.5t-39 135.5q0 36 6.5 70.5t16 64.5t20 54t19.5 38q11 18 23.5 31t23.5 13q8 0 8 -11q0 -8 -4 -20t-10 -27q-11 -26 -19 -56t-9 -57zM766 666
q8 10 19 22.5t22.5 25.5t21.5 24t17 17q10 10 15 12t10 -4q26 -28 55 -56t58 -48q9 -6 9 -10t-9 -13q-26 -27 -50 -54.5t-48 -56.5q-6 -8 -10 -8t-12 6q-21 16 -49.5 39.5t-55.5 49.5q-8 -9 -19.5 -22t-23.5 -25.5t-22.5 -23t-17.5 -15.5t-12 -7.5t-16 4.5
q-28 17 -59.5 44.5t-53.5 56.5q-5 7 -5 11.5t7 12.5q20 25 47 55t54 57q6 6 10.5 5t12.5 -9q10 -11 23.5 -24.5t28 -26t28.5 -23t25 -16.5z" />
    <glyph glyph-name="uni062B.i" unicode="&#x62b;" horiz-adv-x="375" arabic-form="initial" 
d="M328 286q0 -46 -8 -94t-38 -89q-24 -33 -68.5 -60t-120.5 -38q-21 -3 -49 -4t-55 -1q-35 0 -52.5 25.5t-17.5 57.5t17.5 58t52.5 26h39q28 0 62 1t67 5.5t61.5 13.5t44.5 24q-2 25 -11.5 51.5t-21.5 50.5t-24 44.5t-21 32.5q-1 1 -1 5q0 11 7.5 33t17 44.5t17.5 40.5
t9 20q3 9 9 9q9 0 23.5 -20.5t28 -55.5t23 -81.5t9.5 -98.5zM178 1353q21 -23 57.5 -54t74.5 -56q8 -5 -1 -14q-7 -9 -20 -24.5t-28.5 -33.5t-30.5 -35t-25 -29q-5 -5 -8 -5.5t-9 3.5q-13 8 -31.5 21t-37.5 28t-35 30.5t-23 26.5q-4 6 -4 8.5t4 9.5q18 28 45.5 60t49.5 54
q11 11 14.5 12.5t7.5 -2.5zM204 913q8 10 19 22.5t22.5 25.5t21.5 24t17 17q10 10 15 12t10 -4q26 -28 55 -56t58 -48q9 -6 9 -10t-9 -13q-26 -27 -50 -54.5t-48 -56.5q-6 -8 -10 -8t-12 6q-21 16 -49.5 39.5t-55.5 49.5q-8 -9 -19.5 -22t-23.5 -25.5t-22.5 -23t-17.5 -15.5
t-12 -7.5t-16 4.5q-28 17 -59.5 44.5t-53.5 56.5q-5 7 -5 11.5t7 12.5q20 25 47 55t54 57q6 6 10.5 5t12.5 -9q10 -11 23.5 -24.5t28 -26t28.5 -23t25 -16.5z" />
    <glyph glyph-name="uni062B.m" unicode="&#x62b;" horiz-adv-x="488" arabic-form="medial" 
d="M326 321q8 0 13 -12t5 -41q0 -16 8 -32t21.5 -29.5t31.5 -23.5t38 -14q11 -2 19 -2h16h10q24 0 36.5 -8.5t18.5 -20t7 -24.5t1 -22q0 -8 -1 -23.5t-6.5 -30.5t-18 -26.5t-35.5 -11.5h-13h-18t-24 2q-42 4 -71 22t-48 38.5t-28.5 38.5t-11.5 22q-7 -17 -27 -38.5t-54 -40
t-81 -31.5t-107 -13h-7q-35 0 -52.5 25.5t-17.5 57.5t17.5 58t53.5 26h50q27 0 59 3.5t64.5 15.5t62.5 35t53 63q14 25 22 31t14 6zM223 1093q21 -23 57.5 -54t74.5 -56q8 -5 -1 -14q-7 -9 -20 -24.5t-28.5 -33.5t-30.5 -35t-25 -29q-5 -5 -8 -5.5t-9 3.5q-13 8 -31.5 21
t-37.5 28t-35 30.5t-23 26.5q-4 6 -4 8.5t4 9.5q18 28 45.5 60t49.5 54q11 11 14.5 12.5t7.5 -2.5zM249 653q8 10 19 22.5t22.5 25.5t21.5 24t17 17q10 10 15 12t10 -4q26 -28 55 -56t58 -48q9 -6 9 -10t-9 -13q-26 -27 -50 -54.5t-48 -56.5q-6 -8 -10 -8t-12 6
q-21 16 -49.5 39.5t-55.5 49.5q-8 -9 -19.5 -22t-23.5 -25.5t-22.5 -23t-17.5 -15.5t-12 -7.5t-16 4.5q-28 17 -59.5 44.5t-53.5 56.5q-5 7 -5 11.5t7 12.5q20 25 47 55t54 57q6 6 10.5 5t12.5 -9q10 -11 23.5 -24.5t28 -26t28.5 -23t25 -16.5z" />
    <glyph glyph-name="uni062B.f" unicode="&#x62b;" horiz-adv-x="1546" arabic-form="final" 
d="M146 344q0 -15 6 -34t21 -39t41 -40.5t65 -39.5q53 -25 137.5 -37.5t196.5 -12.5q158 0 281 19t208 44q56 17 98.5 30.5t77.5 28t64.5 31t60.5 38.5q3 2 9 6.5t10 4.5q5 0 8.5 -6.5t3.5 -26.5q0 -34 9 -60.5t23.5 -45t33.5 -28t40 -9.5h24q68 0 68 -80q0 -87 -67 -87h-30
q-156 0 -189 165q-58 -29 -129 -62.5t-140 -54.5q-109 -32 -228 -55t-259 -23q-114 0 -206.5 14.5t-154.5 40.5q-80 32 -119 83.5t-39 135.5q0 36 6.5 70.5t16 64.5t20 54t19.5 38q11 18 23.5 31t23.5 13q8 0 8 -11q0 -8 -4 -20t-10 -27q-11 -26 -19 -56t-9 -57zM760 1125
q21 -23 57.5 -54t74.5 -56q8 -5 -1 -14q-7 -9 -20 -24.5t-28.5 -33.5t-30.5 -35t-25 -29q-5 -5 -8 -5.5t-9 3.5q-13 8 -31.5 21t-37.5 28t-35 30.5t-23 26.5q-4 6 -4 8.5t4 9.5q18 28 45.5 60t49.5 54q11 11 14.5 12.5t7.5 -2.5zM786 685q8 10 19 22.5t22.5 25.5t21.5 24
t17 17q10 10 15 12t10 -4q26 -28 55 -56t58 -48q9 -6 9 -10t-9 -13q-26 -27 -50 -54.5t-48 -56.5q-6 -8 -10 -8t-12 6q-21 16 -49.5 39.5t-55.5 49.5q-8 -9 -19.5 -22t-23.5 -25.5t-22.5 -23t-17.5 -15.5t-12 -7.5t-16 4.5q-28 17 -59.5 44.5t-53.5 56.5q-5 7 -5 11.5
t7 12.5q20 25 47 55t54 57q6 6 10.5 5t12.5 -9q10 -11 23.5 -24.5t28 -26t28.5 -23t25 -16.5z" />
    <glyph glyph-name="uni062C.i" unicode="&#x62c;" horiz-adv-x="1101" arabic-form="initial" 
d="M553 304q-54 15 -102.5 30t-91.5 27t-79.5 19.5t-65.5 7.5q-30 0 -47 -8q-11 -5 -28.5 -13.5t-30.5 -8.5q-8 0 -11 5t-3 12q0 12 7.5 29t19.5 35.5t28 36.5t33 32q27 23 53 32.5t50 9.5q9 0 17.5 -1t16.5 -3q50 -11 105.5 -29t112.5 -37t112.5 -36t105.5 -26
q69 -15 135.5 -21t114.5 -6h18t16 1q5 0 5 -6q0 -10 -8 -29t-20 -40t-26 -39.5t-26 -29.5q-5 -5 -15.5 -5.5t-25.5 -0.5q-13 0 -33.5 1t-41.5 2t-39 2t-25 1q-48 0 -88 -4.5t-75 -15.5q-23 -8 -65 -25.5t-103 -45.5q-91 -47 -156 -77.5t-107 -44.5q-84 -32 -182 -35h-19
q-81 0 -81 88q0 79 81 79h20q152 0 252 31q52 14 125 40.5t167 65.5zM582 5q21 -23 57.5 -54t74.5 -56q8 -5 -1 -14q-7 -9 -20 -24.5t-28.5 -33.5t-30.5 -35t-25 -29q-5 -5 -8 -5.5t-9 3.5q-13 7 -31.5 20.5t-37.5 28.5t-35 30.5t-23 26.5q-4 6 -4 8.5t4 9.5q18 28 45.5 60
t49.5 54q11 11 14.5 12.5t7.5 -2.5z" />
    <glyph glyph-name="uni062C.m" unicode="&#x62c;" horiz-adv-x="1084" arabic-form="medial" 
d="M1044 384q0 -10 -8 -28.5t-20 -39t-26 -39t-26 -29.5q-2 -2 -3.5 -3t-6.5 -2q-9 -1 -16.5 -1h-14.5q-15 0 -27 0.5t-24.5 1t-26 2t-31.5 2.5q1 -39 65 -59t137 -22h82q83 0 83 -79q0 -88 -83 -88h-70q-146 1 -201 61q-51 56 -53 188q-36 0 -61 -2t-44.5 -5.5t-36 -8.5
t-33.5 -12q-12 -4 -24.5 -9.5t-29.5 -12.5t-39 -17t-52 -25q-90 -45 -152.5 -75.5t-104.5 -44.5q-42 -16 -90 -25.5t-97 -11.5h-24q-78 0 -78 86q0 81 78 81h24q151 0 251 31q54 14 124.5 40t158.5 64q-51 14 -98.5 29.5t-90 28t-78.5 20.5t-65 8q-24 0 -45 -8
q-11 -5 -28.5 -13.5t-30.5 -8.5q-14 0 -14 15q0 23 22.5 59t65.5 76q26 24 52.5 33t50.5 9q9 0 17.5 -1t16.5 -3q50 -11 105.5 -29t112.5 -37t112.5 -36t105.5 -26q69 -15 135.5 -21t114.5 -6h16.5t16.5 1q6 0 6 -8zM596 -3q21 -23 57.5 -54t74.5 -56q8 -5 -1 -14
q-7 -9 -20 -24.5t-28.5 -33.5t-30.5 -35t-25 -29q-5 -5 -8 -5.5t-9 3.5q-13 7 -31.5 20.5t-37.5 28.5t-35 30.5t-23 26.5q-4 6 -4 8.5t4 9.5q18 28 45.5 60t49.5 54q11 11 14.5 12.5t7.5 -2.5z" />
    <glyph glyph-name="uni062C.f" unicode="&#x62c;" horiz-adv-x="1024" arabic-form="final" 
d="M814 -737q127 0 203.5 8t101.5 8q16 0 21 -2.5t5 -7.5t-6.5 -11t-16 -12t-21 -12t-22.5 -10q-41 -18 -93.5 -39t-112.5 -39t-126 -30t-135 -12q-121 0 -223 32t-176.5 96t-116 161t-41.5 227q0 120 30 231t82.5 202.5t125 158.5t156.5 98q-47 10 -85.5 14t-70.5 4
q-60 0 -101 -11.5t-73 -25.5q-25 -11 -34.5 -12.5t-16.5 -1.5q-11 0 -11 12q0 8 5.5 25t15 36.5t21.5 38.5t25 31q41 38 94 51.5t115 13.5q57 0 114.5 -8.5t115.5 -18t116.5 -18t118.5 -8.5q51 0 89 2.5t64 2.5q20 0 24.5 -2t4.5 -8q0 -14 -11 -38t-26.5 -47t-31 -40.5
t-24.5 -18.5q-27 0 -53.5 -1.5t-53.5 -3.5q0 -26 9 -48t26 -36q33 -27 163 -27h60q76 0 76 -79q0 -88 -76 -88h-108q-102 0 -153 58q-39 45 -39 144q0 15 1 33t3 38q-44 -6 -87.5 -16t-88.5 -25q-122 -42 -205.5 -107.5t-135 -138.5t-74 -145.5t-22.5 -127.5
q0 -59 11.5 -115.5t40.5 -106.5t79 -91.5t126 -72t181.5 -47.5t246.5 -17zM590 -132q21 -23 57.5 -54t74.5 -56q8 -5 -1 -14q-7 -9 -20 -24.5t-28.5 -33.5t-30.5 -35t-25 -29q-5 -5 -8 -5.5t-9 3.5q-13 7 -31.5 20.5t-37.5 28.5t-35 30.5t-23 26.5q-4 6 -4 8.5t4 9.5
q18 28 45.5 60t49.5 54q11 11 14.5 12.5t7.5 -2.5z" />
    <glyph glyph-name="uni062D.i" unicode="&#x62d;" horiz-adv-x="1101" arabic-form="initial" 
d="M553 304q-54 15 -102.5 30t-91.5 27t-79.5 19.5t-65.5 7.5q-30 0 -47 -8q-11 -5 -28.5 -13.5t-30.5 -8.5q-8 0 -11 5t-3 12q0 12 7.5 29t19.5 35.5t28 36.5t33 32q27 23 53 32.5t50 9.5q9 0 17.5 -1t16.5 -3q50 -11 105.5 -29t112.5 -37t112.5 -36t105.5 -26
q69 -15 135.5 -21t114.5 -6h18t16 1q5 0 5 -6q0 -10 -8 -29t-20 -40t-26 -39.5t-26 -29.5q-5 -5 -15.5 -5.5t-25.5 -0.5q-13 0 -33.5 1t-41.5 2t-39 2t-25 1q-48 0 -88 -4.5t-75 -15.5q-23 -8 -65 -25.5t-103 -45.5q-91 -47 -156 -77.5t-107 -44.5q-84 -32 -182 -35h-19
q-81 0 -81 88q0 79 81 79h20q152 0 252 31q52 14 125 40.5t167 65.5z" />
    <glyph glyph-name="uni062D.m" unicode="&#x62d;" horiz-adv-x="1084" arabic-form="medial" 
d="M1044 384q0 -10 -8 -28.5t-20 -39t-26 -39t-26 -29.5q-2 -2 -3.5 -3t-6.5 -2q-9 -1 -16.5 -1h-14.5q-15 0 -27 0.5t-24.5 1t-26 2t-31.5 2.5q1 -39 65 -59t137 -22h82q83 0 83 -79q0 -88 -83 -88h-70q-146 1 -201 61q-51 56 -53 188q-36 0 -61 -2t-44.5 -5.5t-36 -8.5
t-33.5 -12q-12 -4 -24.5 -9.5t-29.5 -12.5t-39 -17t-52 -25q-90 -45 -152.5 -75.5t-104.5 -44.5q-42 -16 -90 -25.5t-97 -11.5h-24q-78 0 -78 86q0 81 78 81h24q151 0 251 31q54 14 124.5 40t158.5 64q-51 14 -98.5 29.5t-90 28t-78.5 20.5t-65 8q-24 0 -45 -8
q-11 -5 -28.5 -13.5t-30.5 -8.5q-14 0 -14 15q0 23 22.5 59t65.5 76q26 24 52.5 33t50.5 9q9 0 17.5 -1t16.5 -3q50 -11 105.5 -29t112.5 -37t112.5 -36t105.5 -26q69 -15 135.5 -21t114.5 -6h16.5t16.5 1q6 0 6 -8z" />
    <glyph glyph-name="uni062D.f" unicode="&#x62d;" horiz-adv-x="1024" arabic-form="final" 
d="M814 -737q127 0 203.5 8t101.5 8q16 0 21 -2.5t5 -7.5t-6.5 -11t-16 -12t-21 -12t-22.5 -10q-41 -18 -93.5 -39t-112.5 -39t-126 -30t-135 -12q-121 0 -223 32t-176.5 96t-116 161t-41.5 227q0 120 30 231t82.5 202.5t125 158.5t156.5 98q-47 10 -85.5 14t-70.5 4
q-60 0 -101 -11.5t-73 -25.5q-25 -11 -34.5 -12.5t-16.5 -1.5q-11 0 -11 12q0 8 5.5 25t15 36.5t21.5 38.5t25 31q41 38 94 51.5t115 13.5q57 0 114.5 -8.5t115.5 -18t116.5 -18t118.5 -8.5q51 0 89 2.5t64 2.5q20 0 24.5 -2t4.5 -8q0 -14 -11 -38t-26.5 -47t-31 -40.5
t-24.5 -18.5q-27 0 -53.5 -1.5t-53.5 -3.5q0 -26 9 -48t26 -36q33 -27 163 -27h60q76 0 76 -79q0 -88 -76 -88h-108q-102 0 -153 58q-39 45 -39 144q0 15 1 33t3 38q-44 -6 -87.5 -16t-88.5 -25q-122 -42 -205.5 -107.5t-135 -138.5t-74 -145.5t-22.5 -127.5
q0 -59 11.5 -115.5t40.5 -106.5t79 -91.5t126 -72t181.5 -47.5t246.5 -17z" />
    <glyph glyph-name="uni062E.i" unicode="&#x62e;" horiz-adv-x="1101" arabic-form="initial" 
d="M553 304q-54 15 -102.5 30t-91.5 27t-79.5 19.5t-65.5 7.5q-30 0 -47 -8q-11 -5 -28.5 -13.5t-30.5 -8.5q-8 0 -11 5t-3 12q0 12 7.5 29t19.5 35.5t28 36.5t33 32q27 23 53 32.5t50 9.5q9 0 17.5 -1t16.5 -3q50 -11 105.5 -29t112.5 -37t112.5 -36t105.5 -26
q69 -15 135.5 -21t114.5 -6h18t16 1q5 0 5 -6q0 -10 -8 -29t-20 -40t-26 -39.5t-26 -29.5q-5 -5 -15.5 -5.5t-25.5 -0.5q-13 0 -33.5 1t-41.5 2t-39 2t-25 1q-48 0 -88 -4.5t-75 -15.5q-23 -8 -65 -25.5t-103 -45.5q-91 -47 -156 -77.5t-107 -44.5q-84 -32 -182 -35h-19
q-81 0 -81 88q0 79 81 79h20q152 0 252 31q52 14 125 40.5t167 65.5zM576 934q21 -23 57.5 -54t74.5 -56q8 -5 -1 -14q-7 -9 -20 -24.5t-28.5 -33.5t-30.5 -35t-25 -29q-5 -5 -8 -5.5t-9 3.5q-13 8 -31.5 21t-37.5 28t-35 30.5t-23 26.5q-4 6 -4 8.5t4 9.5q18 28 45.5 60
t49.5 54q11 11 14.5 12.5t7.5 -2.5z" />
    <glyph glyph-name="uni062E.m" unicode="&#x62e;" horiz-adv-x="1084" arabic-form="medial" 
d="M1044 384q0 -10 -8 -28.5t-20 -39t-26 -39t-26 -29.5q-2 -2 -3.5 -3t-6.5 -2q-9 -1 -16.5 -1h-14.5q-15 0 -27 0.5t-24.5 1t-26 2t-31.5 2.5q1 -39 65 -59t137 -22h82q83 0 83 -79q0 -88 -83 -88h-70q-146 1 -201 61q-51 56 -53 188q-36 0 -61 -2t-44.5 -5.5t-36 -8.5
t-33.5 -12q-12 -4 -24.5 -9.5t-29.5 -12.5t-39 -17t-52 -25q-90 -45 -152.5 -75.5t-104.5 -44.5q-42 -16 -90 -25.5t-97 -11.5h-24q-78 0 -78 86q0 81 78 81h24q151 0 251 31q54 14 124.5 40t158.5 64q-51 14 -98.5 29.5t-90 28t-78.5 20.5t-65 8q-24 0 -45 -8
q-11 -5 -28.5 -13.5t-30.5 -8.5q-14 0 -14 15q0 23 22.5 59t65.5 76q26 24 52.5 33t50.5 9q9 0 17.5 -1t16.5 -3q50 -11 105.5 -29t112.5 -37t112.5 -36t105.5 -26q69 -15 135.5 -21t114.5 -6h16.5t16.5 1q6 0 6 -8zM623 932q21 -23 57.5 -54t74.5 -56q8 -5 -1 -14
q-7 -9 -20 -24.5t-28.5 -33.5t-30.5 -35t-25 -29q-5 -5 -8 -5.5t-9 3.5q-13 8 -31.5 21t-37.5 28t-35 30.5t-23 26.5q-4 6 -4 8.5t4 9.5q18 28 45.5 60t49.5 54q11 11 14.5 12.5t7.5 -2.5z" />
    <glyph glyph-name="uni062E.f" unicode="&#x62e;" horiz-adv-x="1024" arabic-form="final" 
d="M814 -737q127 0 203.5 8t101.5 8q16 0 21 -2.5t5 -7.5t-6.5 -11t-16 -12t-21 -12t-22.5 -10q-41 -18 -93.5 -39t-112.5 -39t-126 -30t-135 -12q-121 0 -223 32t-176.5 96t-116 161t-41.5 227q0 120 30 231t82.5 202.5t125 158.5t156.5 98q-47 10 -85.5 14t-70.5 4
q-60 0 -101 -11.5t-73 -25.5q-25 -11 -34.5 -12.5t-16.5 -1.5q-11 0 -11 12q0 8 5.5 25t15 36.5t21.5 38.5t25 31q41 38 94 51.5t115 13.5q57 0 114.5 -8.5t115.5 -18t116.5 -18t118.5 -8.5q51 0 89 2.5t64 2.5q20 0 24.5 -2t4.5 -8q0 -14 -11 -38t-26.5 -47t-31 -40.5
t-24.5 -18.5q-27 0 -53.5 -1.5t-53.5 -3.5q0 -26 9 -48t26 -36q33 -27 163 -27h60q76 0 76 -79q0 -88 -76 -88h-108q-102 0 -153 58q-39 45 -39 144q0 15 1 33t3 38q-44 -6 -87.5 -16t-88.5 -25q-122 -42 -205.5 -107.5t-135 -138.5t-74 -145.5t-22.5 -127.5
q0 -59 11.5 -115.5t40.5 -106.5t79 -91.5t126 -72t181.5 -47.5t246.5 -17zM495 909q21 -23 57.5 -54t74.5 -56q8 -5 -1 -14q-7 -9 -20 -24.5t-28.5 -33.5t-30.5 -35t-25 -29q-5 -5 -8 -5.5t-9 3.5q-13 8 -31.5 21t-37.5 28t-35 30.5t-23 26.5q-4 6 -4 8.5t4 9.5
q18 28 45.5 60t49.5 54q11 11 14.5 12.5t7.5 -2.5z" />
    <glyph glyph-name="uni062F.f" unicode="&#x62f;" horiz-adv-x="817" arabic-form="final" 
d="M720 215q44 -46 90 -48h24q73 0 73 -81q0 -86 -76 -86h-22q-85 5 -128 48q-50 41 -82 142q-9 -43 -38.5 -78.5t-73.5 -61t-101 -39.5t-122 -14q-38 0 -78.5 6.5t-75.5 29.5q-23 15 -35.5 34t-12.5 45q0 29 7.5 67.5t22.5 71.5q5 11 10.5 17.5t13.5 6.5t11.5 -6.5
t7.5 -18.5q6 -19 21.5 -33t38 -22t50.5 -12t59 -4q116 0 177.5 25t86.5 68q2 11 3 23.5t1 26.5q0 35 -5 74t-13 81t-17 85t-18 85q-4 19 -4 33q0 3 1 9t5 17.5t11.5 30.5t19.5 49q8 20 15 33t13 13q10 0 20 -44q21 -91 33 -168.5t21 -141t16 -114t17 -86.5q11 -39 33 -63z
" />
    <glyph glyph-name="uni0630.f" unicode="&#x630;" horiz-adv-x="817" arabic-form="final" 
d="M720 215q44 -46 90 -48h24q73 0 73 -81q0 -86 -76 -86h-22q-85 5 -128 48q-50 41 -82 142q-9 -43 -38.5 -78.5t-73.5 -61t-101 -39.5t-122 -14q-38 0 -78.5 6.5t-75.5 29.5q-23 15 -35.5 34t-12.5 45q0 29 7.5 67.5t22.5 71.5q5 11 10.5 17.5t13.5 6.5t11.5 -6.5
t7.5 -18.5q6 -19 21.5 -33t38 -22t50.5 -12t59 -4q116 0 177.5 25t86.5 68q2 11 3 23.5t1 26.5q0 35 -5 74t-13 81t-17 85t-18 85q-4 19 -4 33q0 3 1 9t5 17.5t11.5 30.5t19.5 49q8 20 15 33t13 13q10 0 20 -44q21 -91 33 -168.5t21 -141t16 -114t17 -86.5q11 -39 33 -63z
M538 1301q21 -23 57.5 -54t74.5 -56q8 -5 -1 -14q-7 -9 -20 -24.5t-28.5 -33.5t-30.5 -35t-25 -29q-5 -5 -8 -5.5t-9 3.5q-13 8 -31.5 21t-37.5 28t-35 30.5t-23 26.5q-4 6 -4 8.5t4 9.5q18 28 45.5 60t49.5 54q11 11 14.5 12.5t7.5 -2.5z" />
    <glyph glyph-name="uni0631.f" unicode="&#x631;" horiz-adv-x="701" arabic-form="final" 
d="M715 167q81 0 81 -82q0 -85 -81 -85h-17q-68 0 -96 7q0 -6 0.5 -12.5t0.5 -12.5q0 -41 -6.5 -80t-20.5 -72q-15 -34 -34 -77t-48.5 -87t-73 -84.5t-106.5 -69.5q-43 -20 -89 -20q-25 0 -56 6.5t-65 17t-69 24t-67 28.5q-19 9 -25 16t-6 13q0 15 28 15q17 0 42.5 -2.5
t51.5 -2.5q86 0 168.5 34t149 87t111.5 117t55 125q0 15 -12.5 35.5t-28.5 41t-31.5 37.5t-21.5 24q-4 5 -4 19t4.5 34t11 39.5t13.5 36t13 25.5q11 16 20 16t18.5 -11t24.5 -37q20 -34 52 -48.5t83 -14.5h30z" />
    <glyph glyph-name="uni0632.f" unicode="&#x632;" horiz-adv-x="701" arabic-form="final" 
d="M715 167q81 0 81 -82q0 -85 -81 -85h-17q-68 0 -96 7q0 -6 0.5 -12.5t0.5 -12.5q0 -41 -6.5 -80t-20.5 -72q-15 -34 -34 -77t-48.5 -87t-73 -84.5t-106.5 -69.5q-43 -20 -89 -20q-25 0 -56 6.5t-65 17t-69 24t-67 28.5q-19 9 -25 16t-6 13q0 15 28 15q17 0 42.5 -2.5
t51.5 -2.5q86 0 168.5 34t149 87t111.5 117t55 125q0 15 -12.5 35.5t-28.5 41t-31.5 37.5t-21.5 24q-4 5 -4 19t4.5 34t11 39.5t13.5 36t13 25.5q11 16 20 16t18.5 -11t24.5 -37q20 -34 52 -48.5t83 -14.5h30zM448 731q21 -23 57.5 -54t74.5 -56q8 -5 -1 -14
q-7 -9 -20 -24.5t-28.5 -33.5t-30.5 -35t-25 -29q-5 -5 -8 -5.5t-9 3.5q-13 8 -31.5 21t-37.5 28t-35 30.5t-23 26.5q-4 6 -4 8.5t4 9.5q18 28 45.5 60t49.5 54q11 11 14.5 12.5t7.5 -2.5z" />
    <glyph glyph-name="uni0633.i" unicode="&#x633;" horiz-adv-x="1018" arabic-form="initial" 
d="M271 180q-24 -32 -45 -57t-48 -50q-35 -32 -73.5 -52.5t-97.5 -20.5h-19q-75 0 -75 87q0 80 76 80h18q94 0 157 33q41 21 69 54.5t57 81.5q5 8 11.5 12t11.5 4q10 0 13.5 -12t6.5 -40q3 -23 9.5 -43t19.5 -35t32.5 -23.5t48.5 -8.5q30 0 59.5 12t55 32.5t45.5 47.5t31 56
q25 65 46 65q12 0 12 -20q0 -12 -2.5 -24.5t-2.5 -29.5q0 -34 13.5 -59t33.5 -40.5t43.5 -23t43.5 -7.5q6 0 14.5 1t16 4.5t13 10t5.5 16.5q0 15 -8.5 32.5t-22.5 40.5q-3 5 -3 10q0 8 8.5 25.5t20 37.5t24 39t20.5 30q2 3 6.5 7t9.5 4q6 0 16 -18q11 -23 15 -50.5t4 -65.5
q0 -34 -11.5 -83t-35.5 -93.5t-60 -76t-85 -31.5q-58 0 -98.5 30.5t-56.5 87.5q-22 -39 -46.5 -65t-49.5 -42.5t-50 -23.5t-47 -7q-58 0 -96.5 36.5t-52.5 124.5z" />
    <glyph glyph-name="uni0633.m" unicode="&#x633;" horiz-adv-x="1040" arabic-form="medial" 
d="M613 307q5 8 11.5 17t14.5 9t10.5 -8t2.5 -28q0 -7 -0.5 -15t-0.5 -19q0 -39 25.5 -61t60.5 -22q28 0 49 12t38 31t30 43t25 47q2 5 8.5 15.5t15.5 10.5q6 0 10.5 -8.5t6.5 -37.5q5 -58 34.5 -90t78.5 -36h21q79 0 79 -75q0 -92 -79 -92h-21q-72 0 -109.5 35t-48.5 107
q-9 -26 -24.5 -51.5t-37 -46t-47.5 -33t-56 -12.5q-29 0 -51 11.5t-37.5 31t-24.5 45.5t-12 54q-11 -31 -31.5 -56.5t-46.5 -44t-56.5 -28.5t-61.5 -10q-67 0 -109 26t-60 89q-16 -46 -60 -82q-43 -35 -154 -35h-17q-76 0 -76 87q0 80 75 80h21q174 0 232 125q2 7 8.5 15.5
t14.5 8.5q14 0 17 -39q2 -48 39 -72.5t91 -24.5q69 0 117.5 30.5t84.5 96.5z" />
    <glyph glyph-name="uni0633.f" unicode="&#x633;" horiz-adv-x="1722" arabic-form="final" 
d="M1031 175q41 0 71.5 8t55.5 24t45 40t40 56q11 19 20 29.5t18 10.5q12 0 12 -15q0 -16 -5.5 -30t-5.5 -43q0 -32 27 -52t65 -20q30 0 51.5 11t37.5 29.5t29 43t25 52.5q9 20 17 30t18 10q6 0 10 -5.5t4 -22.5q0 -3 -0.5 -9t-0.5 -10q3 -138 148 -145h23q79 0 79 -75
q0 -92 -77 -92h-29q-72 0 -127 34t-72 108q-9 -27 -24.5 -52.5t-36 -45.5t-47 -32t-58.5 -12q-35 0 -65 22q-26 20 -36.5 50t-15.5 68q-19 -33 -39.5 -59.5t-46 -45t-56.5 -29t-70 -10.5q-16 0 -33.5 2.5t-36.5 9.5q0 -72 -8 -129t-20 -90q-9 -25 -20 -48.5t-28 -46.5
t-42 -47t-62 -51q-72 -51 -168.5 -81t-232.5 -30q-70 0 -129 23t-102 65.5t-67 103t-24 135.5q0 40 9 81t23 78.5t30 69t31 51.5q11 17 24 29.5t23 12.5t10 -12q0 -17 -17 -49q-25 -48 -43.5 -95.5t-18.5 -101.5q0 -52 28 -92t71 -67.5t93.5 -41.5t96.5 -14q74 0 147.5 13
t137 37t111.5 58.5t72 77.5q2 3 4 10t2 18q-1 53 -6 91t-13.5 68t-20.5 56t-29 54q-4 8 -4 13q0 13 4.5 29.5t11.5 35t15.5 37t16.5 34.5q4 8 9.5 14t10.5 6t8 -6l5 -10q27 -66 66 -94t81 -28z" />
    <glyph glyph-name="uni0634.i" unicode="&#x634;" horiz-adv-x="1018" arabic-form="initial" 
d="M271 180q-24 -32 -45 -57t-48 -50q-35 -32 -73.5 -52.5t-97.5 -20.5h-19q-75 0 -75 87q0 80 76 80h18q94 0 157 33q41 21 69 54.5t57 81.5q5 8 11.5 12t11.5 4q10 0 13.5 -12t6.5 -40q3 -23 9.5 -43t19.5 -35t32.5 -23.5t48.5 -8.5q30 0 59.5 12t55 32.5t45.5 47.5t31 56
q25 65 46 65q12 0 12 -20q0 -12 -2.5 -24.5t-2.5 -29.5q0 -34 13.5 -59t33.5 -40.5t43.5 -23t43.5 -7.5q6 0 14.5 1t16 4.5t13 10t5.5 16.5q0 15 -8.5 32.5t-22.5 40.5q-3 5 -3 10q0 8 8.5 25.5t20 37.5t24 39t20.5 30q2 3 6.5 7t9.5 4q6 0 16 -18q11 -23 15 -50.5t4 -65.5
q0 -34 -11.5 -83t-35.5 -93.5t-60 -76t-85 -31.5q-58 0 -98.5 30.5t-56.5 87.5q-22 -39 -46.5 -65t-49.5 -42.5t-50 -23.5t-47 -7q-58 0 -96.5 36.5t-52.5 124.5zM633 1155q21 -23 57.5 -54t74.5 -56q8 -5 -1 -14q-7 -9 -20 -24.5t-28.5 -33.5t-30.5 -35t-25 -29
q-5 -5 -8 -5.5t-9 3.5q-13 8 -31.5 21t-37.5 28t-35 30.5t-23 26.5q-4 6 -4 8.5t4 9.5q18 28 45.5 60t49.5 54q11 11 14.5 12.5t7.5 -2.5zM659 715q8 10 19 22.5t22.5 25.5t21.5 24t17 17q10 10 15 12t10 -4q26 -28 55 -56t58 -48q9 -6 9 -10t-9 -13q-26 -27 -50 -54.5
t-48 -56.5q-6 -8 -10 -8t-12 6q-21 16 -49.5 39.5t-55.5 49.5q-8 -9 -19.5 -22t-23.5 -25.5t-22.5 -23t-17.5 -15.5t-12 -7.5t-16 4.5q-28 17 -59.5 44.5t-53.5 56.5q-5 7 -5 11.5t7 12.5q20 25 47 55t54 57q6 6 10.5 5t12.5 -9q10 -11 23.5 -24.5t28 -26t28.5 -23t25 -16.5
z" />
    <glyph glyph-name="uni0634.m" unicode="&#x634;" horiz-adv-x="1040" arabic-form="medial" 
d="M613 307q5 8 11.5 17t14.5 9t10.5 -8t2.5 -28q0 -7 -0.5 -15t-0.5 -19q0 -39 25.5 -61t60.5 -22q28 0 49 12t38 31t30 43t25 47q2 5 8.5 15.5t15.5 10.5q6 0 10.5 -8.5t6.5 -37.5q5 -58 34.5 -90t78.5 -36h21q79 0 79 -75q0 -92 -79 -92h-21q-72 0 -109.5 35t-48.5 107
q-9 -26 -24.5 -51.5t-37 -46t-47.5 -33t-56 -12.5q-29 0 -51 11.5t-37.5 31t-24.5 45.5t-12 54q-11 -31 -31.5 -56.5t-46.5 -44t-56.5 -28.5t-61.5 -10q-67 0 -109 26t-60 89q-16 -46 -60 -82q-43 -35 -154 -35h-17q-76 0 -76 87q0 80 75 80h21q174 0 232 125q2 7 8.5 15.5
t14.5 8.5q14 0 17 -39q2 -48 39 -72.5t91 -24.5q69 0 117.5 30.5t84.5 96.5zM592 1091q21 -23 57.5 -54t74.5 -56q8 -5 -1 -14q-7 -9 -20 -24.5t-28.5 -33.5t-30.5 -35t-25 -29q-5 -5 -8 -5.5t-9 3.5q-13 8 -31.5 21t-37.5 28t-35 30.5t-23 26.5q-4 6 -4 8.5t4 9.5
q18 28 45.5 60t49.5 54q11 11 14.5 12.5t7.5 -2.5zM618 651q8 10 19 22.5t22.5 25.5t21.5 24t17 17q10 10 15 12t10 -4q26 -28 55 -56t58 -48q9 -6 9 -10t-9 -13q-26 -27 -50 -54.5t-48 -56.5q-6 -8 -10 -8t-12 6q-21 16 -49.5 39.5t-55.5 49.5q-8 -9 -19.5 -22t-23.5 -25.5
t-22.5 -23t-17.5 -15.5t-12 -7.5t-16 4.5q-28 17 -59.5 44.5t-53.5 56.5q-5 7 -5 11.5t7 12.5q20 25 47 55t54 57q6 6 10.5 5t12.5 -9q10 -11 23.5 -24.5t28 -26t28.5 -23t25 -16.5z" />
    <glyph glyph-name="uni0634.f" unicode="&#x634;" horiz-adv-x="1743" arabic-form="final" 
d="M1052 175q41 0 71.5 8t55.5 24t45 40t40 56q11 19 20 29.5t18 10.5q12 0 12 -15q0 -16 -5.5 -30t-5.5 -43q0 -32 27 -52t65 -20q30 0 51.5 11t37.5 29.5t29 43t25 52.5q9 20 17 30t18 10q6 0 10 -5.5t4 -22.5q0 -3 -0.5 -9t-0.5 -10q3 -138 148 -145h23q79 0 79 -75
q0 -92 -77 -92h-29q-72 0 -127 34t-72 108q-9 -27 -24.5 -52.5t-36 -45.5t-47 -32t-58.5 -12q-35 0 -65 22q-26 20 -36.5 50t-15.5 68q-19 -33 -39.5 -59.5t-46 -45t-56.5 -29t-70 -10.5q-16 0 -33.5 2.5t-36.5 9.5q0 -72 -8 -129t-20 -90q-9 -25 -20 -48.5t-28 -46.5
t-42 -47t-62 -51q-72 -51 -168.5 -81t-232.5 -30q-70 0 -129 23t-102 65.5t-67 103t-24 135.5q0 40 9 81t23 78.5t30 69t31 51.5q11 17 24 29.5t23 12.5t10 -12q0 -17 -17 -49q-25 -48 -43.5 -95.5t-18.5 -101.5q0 -52 28 -92t71 -67.5t93.5 -41.5t96.5 -14q74 0 147.5 13
t137 37t111.5 58.5t72 77.5q2 3 4 10t2 18q-1 53 -6 91t-13.5 68t-20.5 56t-29 54q-4 8 -4 13q0 13 4.5 29.5t11.5 35t15.5 37t16.5 34.5q4 8 9.5 14t10.5 6t8 -6l5 -10q27 -66 66 -94t81 -28zM1252 1120q21 -23 57.5 -54t74.5 -56q8 -5 -1 -14q-7 -9 -20 -24.5t-28.5 -33.5
t-30.5 -35t-25 -29q-5 -5 -8 -5.5t-9 3.5q-13 8 -31.5 21t-37.5 28t-35 30.5t-23 26.5q-4 6 -4 8.5t4 9.5q18 28 45.5 60t49.5 54q11 11 14.5 12.5t7.5 -2.5zM1278 680q8 10 19 22.5t22.5 25.5t21.5 24t17 17q10 10 15 12t10 -4q26 -28 55 -56t58 -48q9 -6 9 -10t-9 -13
q-26 -27 -50 -54.5t-48 -56.5q-6 -8 -10 -8t-12 6q-21 16 -49.5 39.5t-55.5 49.5q-8 -9 -19.5 -22t-23.5 -25.5t-22.5 -23t-17.5 -15.5t-12 -7.5t-16 4.5q-28 17 -59.5 44.5t-53.5 56.5q-5 7 -5 11.5t7 12.5q20 25 47 55t54 57q6 6 10.5 5t12.5 -9q10 -11 23.5 -24.5t28 -26
t28.5 -23t25 -16.5z" />
    <glyph glyph-name="uni0635.i" unicode="&#x635;" horiz-adv-x="1241" arabic-form="initial" 
d="M353 -53q-7 -12 -15 -24t-19 -12q-10 1 -10 15q0 5 1 10.5t3 10.5q6 17 14 37t19 43q-113 41 -149 140q-83 -167 -191 -167h-16q-72 0 -72 83q1 84 72 84h17q138 1 203 168q28 67 45 67q23 0 23 -53q0 -22 7.5 -47t26 -48t51 -42t81.5 -28q36 46 81 93t94 91.5t99 83.5
t96.5 68t86.5 46t68 17q32 0 70.5 -12t70.5 -35q37 -26 52.5 -54t15.5 -56q0 -21 -5.5 -49.5t-16 -60t-25.5 -63t-33 -57.5q-21 -25 -55 -49t-77.5 -45t-94.5 -38t-105 -30q-63 -16 -125 -23t-116 -7q-39 0 -72 3.5t-58 9.5q-12 -17 -23 -36.5t-19 -33.5zM1078 298
q0 2 0.5 2.5t0.5 2.5q0 16 -19 35t-46.5 35.5t-59 27.5t-57.5 11q-40 0 -91 -22.5t-104 -57.5t-103.5 -77.5t-90.5 -83.5q12 -1 24 -1.5t24 -0.5q78 0 161 14.5t155.5 34.5t128 42.5t77.5 37.5z" />
    <glyph glyph-name="uni0635.m" unicode="&#x635;" horiz-adv-x="1223" arabic-form="medial" 
d="M1218 0q-81 0 -160.5 -3.5t-164.5 -16.5q-72 -11 -145 -20.5t-153 -9.5q-54 0 -107 5t-104 16q-11 -12 -21 -27.5t-21 -32.5t-19 -25.5t-16 -8.5q-11 0 -11 14q0 10 5 20q7 17 16 36t22 41q-121 40 -163 148q-31 -69 -75.5 -102.5t-95.5 -33.5h-15q-69 0 -69 83
q0 84 69 84h17q68 3 111.5 36t65.5 87q14 35 27.5 58t27.5 23q11 0 14.5 -14.5t3.5 -40.5q0 -35 15.5 -64t40.5 -51.5t57 -37t65 -21.5q30 37 71.5 79.5t88.5 84.5t97 81.5t97 69.5t88.5 48t71.5 18q28 0 61 -9.5t63 -26.5q32 -18 58.5 -48.5t26.5 -71.5q0 -20 -5.5 -47
t-14.5 -56t-21.5 -57.5t-26.5 -52.5q41 7 73 10t55 3h17q79 0 79 -82q0 -85 -79 -85h-17zM1058 223q1 1 1 5q0 17 -17 40.5t-42 40.5q-35 24 -68.5 33.5t-54.5 9.5q-45 0 -98 -22t-104.5 -55t-98 -72t-77.5 -74q13 -3 29 -5t32.5 -3.5t31.5 -2t25 -0.5q73 0 137.5 10.5
t120 26t101.5 34t82 34.5z" />
    <glyph glyph-name="uni0635.f" unicode="&#x635;" horiz-adv-x="1881" arabic-form="final" 
d="M1724 222q4 3 4 7q0 15 -15.5 38t-41.5 41q-35 25 -68.5 34.5t-56.5 9.5q-32 0 -77 -14.5t-96 -42.5t-104.5 -70t-101.5 -96q23 -5 54.5 -7.5t68.5 -2.5q62 0 123.5 8.5t118 23t106 33t86.5 38.5zM364 -515q-69 0 -128 23t-102 65t-67.5 102.5t-24.5 135.5q0 40 9 82
t23 79.5t30.5 68.5t31.5 51q11 17 24 29.5t23 12.5t10 -12q0 -17 -17 -49q-25 -48 -44 -95.5t-19 -101.5q0 -51 28 -91t70.5 -67.5t93.5 -42t96 -14.5q74 0 150.5 13.5t143 40t115.5 64.5t68 86q3 21 3 44q0 57 -14 114.5t-47 105.5q-3 5 -4.5 10.5t-1.5 13.5q0 23 7 50
t16 51t17 41t11 20q5 6 8 6q6 0 18 -25q22 -43 68 -82q46 -37 85 -52t62 -18q64 73 137 141.5t142.5 121t131 84.5t101.5 32q29 0 64.5 -10.5t67.5 -30.5q29 -18 53 -47.5t24 -67.5q0 -19 -5.5 -46t-14.5 -56.5t-21.5 -58t-26.5 -52.5q26 5 55 8.5t60 4.5h19q78 0 79 -81
q0 -86 -77 -86h-24q-58 -1 -98 -2.5t-78 -4.5t-83 -8.5t-114 -14.5q-66 -8 -133 -14t-139 -6t-141.5 14t-134.5 46q0 -56 -8 -116t-25 -105q-11 -30 -23.5 -55t-29.5 -47.5t-40.5 -44t-56.5 -45.5q-71 -51 -168.5 -81.5t-234.5 -30.5z" />
    <glyph glyph-name="uni0636.i" unicode="&#x636;" horiz-adv-x="1241" arabic-form="initial" 
d="M353 -53q-7 -12 -15 -24t-19 -12q-10 1 -10 15q0 5 1 10.5t3 10.5q6 17 14 37t19 43q-113 41 -149 140q-83 -167 -191 -167h-16q-72 0 -72 83q1 84 72 84h17q138 1 203 168q28 67 45 67q23 0 23 -53q0 -22 7.5 -47t26 -48t51 -42t81.5 -28q36 46 81 93t94 91.5t99 83.5
t96.5 68t86.5 46t68 17q32 0 70.5 -12t70.5 -35q37 -26 52.5 -54t15.5 -56q0 -21 -5.5 -49.5t-16 -60t-25.5 -63t-33 -57.5q-21 -25 -55 -49t-77.5 -45t-94.5 -38t-105 -30q-63 -16 -125 -23t-116 -7q-39 0 -72 3.5t-58 9.5q-12 -17 -23 -36.5t-19 -33.5zM1078 298
q0 2 0.5 2.5t0.5 2.5q0 16 -19 35t-46.5 35.5t-59 27.5t-57.5 11q-40 0 -91 -22.5t-104 -57.5t-103.5 -77.5t-90.5 -83.5q12 -1 24 -1.5t24 -0.5q78 0 161 14.5t155.5 34.5t128 42.5t77.5 37.5zM458 837q21 -23 57.5 -54t74.5 -56q8 -5 -1 -14q-7 -9 -20 -24.5t-28.5 -33.5
t-30.5 -35t-25 -29q-5 -5 -8 -5.5t-9 3.5q-13 8 -31.5 21t-37.5 28t-35 30.5t-23 26.5q-4 6 -4 8.5t4 9.5q18 28 45.5 60t49.5 54q11 11 14.5 12.5t7.5 -2.5z" />
    <glyph glyph-name="uni0636.m" unicode="&#x636;" horiz-adv-x="1223" arabic-form="medial" 
d="M1218 0q-81 0 -160.5 -3.5t-164.5 -16.5q-72 -11 -145 -20.5t-153 -9.5q-54 0 -107 5t-104 16q-11 -12 -21 -27.5t-21 -32.5t-19 -25.5t-16 -8.5q-11 0 -11 14q0 10 5 20q7 17 16 36t22 41q-121 40 -163 148q-31 -69 -75.5 -102.5t-95.5 -33.5h-15q-69 0 -69 83
q0 84 69 84h17q68 3 111.5 36t65.5 87q14 35 27.5 58t27.5 23q11 0 14.5 -14.5t3.5 -40.5q0 -35 15.5 -64t40.5 -51.5t57 -37t65 -21.5q30 37 71.5 79.5t88.5 84.5t97 81.5t97 69.5t88.5 48t71.5 18q28 0 61 -9.5t63 -26.5q32 -18 58.5 -48.5t26.5 -71.5q0 -20 -5.5 -47
t-14.5 -56t-21.5 -57.5t-26.5 -52.5q41 7 73 10t55 3h17q79 0 79 -82q0 -85 -79 -85h-17zM1058 223q1 1 1 5q0 17 -17 40.5t-42 40.5q-35 24 -68.5 33.5t-54.5 9.5q-45 0 -98 -22t-104.5 -55t-98 -72t-77.5 -74q13 -3 29 -5t32.5 -3.5t31.5 -2t25 -0.5q73 0 137.5 10.5
t120 26t101.5 34t82 34.5zM447 805q21 -23 57.5 -54t74.5 -56q8 -5 -1 -14q-7 -9 -20 -24.5t-28.5 -33.5t-30.5 -35t-25 -29q-5 -5 -8 -5.5t-9 3.5q-13 8 -31.5 21t-37.5 28t-35 30.5t-23 26.5q-4 6 -4 8.5t4 9.5q18 28 45.5 60t49.5 54q11 11 14.5 12.5t7.5 -2.5z" />
    <glyph glyph-name="uni0636.f" unicode="&#x636;" horiz-adv-x="1892" arabic-form="final" 
d="M1735 222q4 3 4 7q0 15 -15.5 38t-41.5 41q-35 25 -68.5 34.5t-56.5 9.5q-32 0 -77 -14.5t-96 -42.5t-104.5 -70t-101.5 -96q23 -5 54.5 -7.5t68.5 -2.5q62 0 123.5 8.5t118 23t106 33t86.5 38.5zM375 -515q-69 0 -128 23t-102 65t-67.5 102.5t-24.5 135.5q0 40 9 82
t23 79.5t30.5 68.5t31.5 51q11 17 24 29.5t23 12.5t10 -12q0 -17 -17 -49q-25 -48 -44 -95.5t-19 -101.5q0 -51 28 -91t70.5 -67.5t93.5 -42t96 -14.5q74 0 150.5 13.5t143 40t115.5 64.5t68 86q3 21 3 44q0 57 -14 114.5t-47 105.5q-3 5 -4.5 10.5t-1.5 13.5q0 23 7 50
t16 51t17 41t11 20q5 6 8 6q6 0 18 -25q22 -43 68 -82q46 -37 85 -52t62 -18q64 73 137 141.5t142.5 121t131 84.5t101.5 32q29 0 64.5 -10.5t67.5 -30.5q29 -18 53 -47.5t24 -67.5q0 -19 -5.5 -46t-14.5 -56.5t-21.5 -58t-26.5 -52.5q26 5 55 8.5t60 4.5h19q78 0 79 -81
q0 -86 -77 -86h-24q-58 -1 -98 -2.5t-78 -4.5t-83 -8.5t-114 -14.5q-66 -8 -133 -14t-139 -6t-141.5 14t-134.5 46q0 -56 -8 -116t-25 -105q-11 -30 -23.5 -55t-29.5 -47.5t-40.5 -44t-56.5 -45.5q-71 -51 -168.5 -81.5t-234.5 -30.5zM1102 730q21 -23 57.5 -54t74.5 -56
q8 -5 -1 -14q-7 -9 -20 -24.5t-28.5 -33.5t-30.5 -35t-25 -29q-5 -5 -8 -5.5t-9 3.5q-13 8 -31.5 21t-37.5 28t-35 30.5t-23 26.5q-4 6 -4 8.5t4 9.5q18 28 45.5 60t49.5 54q11 11 14.5 12.5t7.5 -2.5z" />
    <glyph glyph-name="uni0637.i" unicode="&#x637;" horiz-adv-x="888" arabic-form="initial" 
d="M738 294q-13 21 -34.5 39.5t-48 31.5t-55 20.5t-55.5 7.5q-52 0 -103 -18.5t-100.5 -49.5t-98 -72.5t-96.5 -88.5q94 6 183.5 17.5t167.5 28t140 37.5t100 47zM244 942q14 -112 27.5 -221t13.5 -203q0 -50 -5.5 -93t-18.5 -78q121 100 209 147.5t148 47.5q29 0 64.5 -6.5
t67.5 -20.5q45 -20 66.5 -45.5t21.5 -70.5q0 -63 -25 -117.5t-62 -104.5q-18 -24 -59.5 -46.5t-99.5 -42.5t-128 -36t-146.5 -27.5t-155.5 -18t-153 -6.5h-19q-79 0 -79 84q0 83 78 83h50t30 1l30 27.5t37.5 35.5t39 37.5t35.5 32.5q1 21 1.5 41.5t0.5 40.5q0 68 -5 132.5
t-12.5 128.5t-17 127.5t-18.5 130.5q-1 11 -4.5 27.5t-8 34.5t-9 35t-6.5 28q-1 4 -2 9t-1 10q0 3 2 11q2 7 7.5 21.5t19.5 41.5q7 14 14.5 27.5t15 24.5t14 18t10.5 7q7 0 13 -15q14 -52 29.5 -81.5t28.5 -49.5l4 -8t2 -7q0 -6 -3 -15q-2 -7 -7 -17.5t-11 -21.5t-12.5 -22
t-11.5 -18z" />
    <glyph glyph-name="uni0637.m" unicode="&#x637;" horiz-adv-x="897" arabic-form="medial" 
d="M738 294q-14 23 -36 41t-48 31t-54 20t-55 7q-52 0 -102.5 -18.5t-100 -49.5t-98.5 -72.5t-97 -88.5q94 6 183.5 17.5t167.5 28t140 37.5t100 47zM239 942q14 -116 27.5 -224.5t13.5 -203.5q0 -51 -5.5 -94t-18.5 -78q116 94 210 147t152 53q30 0 66.5 -7.5t69.5 -22.5
q45 -21 64.5 -46t19.5 -67q0 -33 -11 -72t-29 -75t-41 -66t-47 -45q95 26 181 26h19q74 0 74 -80q0 -87 -73 -87h-27q-122 -4 -212.5 -6.5t-155.5 -3.5t-106 -1h-64q-64 0 -146.5 2.5t-190.5 8.5h-20q-76 0 -76 84q0 83 76 83h80q23 23 60 59t77 72q1 20 1 44.5v42.5
q0 79 -5.5 153.5t-14 141t-17.5 123t-15 99.5q-1 11 -5 27.5t-8.5 34.5t-8.5 35t-6 28q-1 4 -2 9t-1 10q0 10 9.5 32t19.5 42q7 14 14.5 27.5t15 24.5t14 18t10.5 7q7 0 13 -15q14 -52 29.5 -81.5t28.5 -49.5l4 -8t2 -7q0 -6 -3 -15q-2 -7 -7 -17.5t-11 -21.5t-12.5 -22
t-11.5 -18z" />
    <glyph glyph-name="uni0637.f" unicode="&#x637;" horiz-adv-x="1285" arabic-form="final" 
d="M1127 296q-10 17 -37 32.5t-61 27.5t-68.5 19.5t-58.5 7.5q-39 0 -88 -20.5t-102 -54t-107.5 -76t-105.5 -87.5q95 7 190.5 21.5t180.5 34.5t152 44.5t105 50.5zM609 942q6 -53 13 -109t13 -110.5t10 -105t4 -93.5q0 -64 -7.5 -109.5t-21.5 -87.5q57 47 112.5 87
t104.5 69.5t89.5 46t68.5 16.5q29 0 64.5 -8t69.5 -23q54 -24 76.5 -52t22.5 -54q0 -24 -10 -59t-26.5 -72.5t-38.5 -72t-47 -55.5q65 17 171 17h23q77 0 77 -84q0 -83 -77 -83h-27q-45 0 -88.5 0.5t-86.5 0.5q-129 0 -250 -2t-236 -5q-54 -7 -102 -10t-87 -3
q-15 0 -28.5 0.5t-24.5 1.5q-16 1 -53.5 13.5t-82 32t-89 44.5t-74.5 50q-5 5 -10 12.5t-5 14.5q0 6 3 8.5t12 2.5q13 0 42.5 -4t67 -8.5t78.5 -8.5t76 -4q18 0 35.5 1t34.5 3q12 12 26.5 25.5t34.5 31.5t46.5 41t63.5 54q1 23 1.5 44t0.5 41q0 75 -6.5 155.5t-15 153.5
t-17.5 131t-14 87q-1 11 -4.5 27.5t-8 34t-9 34t-6.5 27.5q-1 4 -2 9t-1 10q0 3 2 11q2 7 7.5 21.5t19.5 41.5q7 14 14.5 27.5t15 24.5t14 18t10.5 7q7 0 13 -15q14 -52 29.5 -81.5t28.5 -49.5l4 -8t2 -7q0 -6 -3 -15q-2 -7 -7 -17.5t-11 -21.5t-12.5 -22t-11.5 -18z" />
    <glyph glyph-name="uni0638.i" unicode="&#x638;" horiz-adv-x="888" arabic-form="initial" 
d="M738 294q-13 21 -34.5 39.5t-48 31.5t-55 20.5t-55.5 7.5q-52 0 -103 -18.5t-100.5 -49.5t-98 -72.5t-96.5 -88.5q94 6 183.5 17.5t167.5 28t140 37.5t100 47zM244 942q14 -112 27.5 -221t13.5 -203q0 -50 -5.5 -93t-18.5 -78q121 100 209 147.5t148 47.5q29 0 64.5 -6.5
t67.5 -20.5q45 -20 66.5 -45.5t21.5 -70.5q0 -63 -25 -117.5t-62 -104.5q-18 -24 -59.5 -46.5t-99.5 -42.5t-128 -36t-146.5 -27.5t-155.5 -18t-153 -6.5h-19q-79 0 -79 84q0 83 78 83h50t30 1l30 27.5t37.5 35.5t39 37.5t35.5 32.5q1 21 1.5 41.5t0.5 40.5q0 68 -5 132.5
t-12.5 128.5t-17 127.5t-18.5 130.5q-1 11 -4.5 27.5t-8 34.5t-9 35t-6.5 28q-1 4 -2 9t-1 10q0 3 2 11q2 7 7.5 21.5t19.5 41.5q7 14 14.5 27.5t15 24.5t14 18t10.5 7q7 0 13 -15q14 -52 29.5 -81.5t28.5 -49.5l4 -8t2 -7q0 -6 -3 -15q-2 -7 -7 -17.5t-11 -21.5t-12.5 -22
t-11.5 -18zM602 995q21 -23 57.5 -54t74.5 -56q8 -5 -1 -14q-7 -9 -20 -24.5t-28.5 -33.5t-30.5 -35t-25 -29q-5 -5 -8 -5.5t-9 3.5q-13 8 -31.5 21t-37.5 28t-35 30.5t-23 26.5q-4 6 -4 8.5t4 9.5q18 28 45.5 60t49.5 54q11 11 14.5 12.5t7.5 -2.5z" />
    <glyph glyph-name="uni0638.m" unicode="&#x638;" horiz-adv-x="897" arabic-form="medial" 
d="M738 294q-14 23 -36 41t-48 31t-54 20t-55 7q-52 0 -102.5 -18.5t-100 -49.5t-98.5 -72.5t-97 -88.5q94 6 183.5 17.5t167.5 28t140 37.5t100 47zM239 942q14 -116 27.5 -224.5t13.5 -203.5q0 -51 -5.5 -94t-18.5 -78q116 94 210 147t152 53q30 0 66.5 -7.5t69.5 -22.5
q45 -21 64.5 -46t19.5 -67q0 -33 -11 -72t-29 -75t-41 -66t-47 -45q95 26 181 26h19q74 0 74 -80q0 -87 -73 -87h-27q-122 -4 -212.5 -6.5t-155.5 -3.5t-106 -1h-64q-64 0 -146.5 2.5t-190.5 8.5h-20q-76 0 -76 84q0 83 76 83h80q23 23 60 59t77 72q1 20 1 44.5v42.5
q0 79 -5.5 153.5t-14 141t-17.5 123t-15 99.5q-1 11 -5 27.5t-8.5 34.5t-8.5 35t-6 28q-1 4 -2 9t-1 10q0 10 9.5 32t19.5 42q7 14 14.5 27.5t15 24.5t14 18t10.5 7q7 0 13 -15q14 -52 29.5 -81.5t28.5 -49.5l4 -8t2 -7q0 -6 -3 -15q-2 -7 -7 -17.5t-11 -21.5t-12.5 -22
t-11.5 -18zM596 992q21 -23 57.5 -54t74.5 -56q8 -5 -1 -14q-7 -9 -20 -24.5t-28.5 -33.5t-30.5 -35t-25 -29q-5 -5 -8 -5.5t-9 3.5q-13 8 -31.5 21t-37.5 28t-35 30.5t-23 26.5q-4 6 -4 8.5t4 9.5q18 28 45.5 60t49.5 54q11 11 14.5 12.5t7.5 -2.5z" />
    <glyph glyph-name="uni0638.f" unicode="&#x638;" horiz-adv-x="1288" arabic-form="final" 
d="M1130 296q-10 17 -37 32.5t-61 27.5t-68.5 19.5t-58.5 7.5q-39 0 -88 -20.5t-102 -54t-107.5 -76t-105.5 -87.5q95 7 190.5 21.5t180.5 34.5t152 44.5t105 50.5zM612 942q6 -53 13 -109t13 -110.5t10 -105t4 -93.5q0 -64 -7.5 -109.5t-21.5 -87.5q57 47 112.5 87
t104.5 69.5t89.5 46t68.5 16.5q29 0 64.5 -8t69.5 -23q54 -24 76.5 -52t22.5 -54q0 -24 -10 -59t-26.5 -72.5t-38.5 -72t-47 -55.5q65 17 171 17h23q77 0 77 -84q0 -83 -77 -83h-27q-45 0 -88.5 0.5t-86.5 0.5q-129 0 -250 -2t-236 -5q-54 -7 -102 -10t-87 -3
q-15 0 -28.5 0.5t-24.5 1.5q-16 1 -53.5 13.5t-82 32t-89 44.5t-74.5 50q-5 5 -10 12.5t-5 14.5q0 6 3 8.5t12 2.5q13 0 42.5 -4t67 -8.5t78.5 -8.5t76 -4q18 0 35.5 1t34.5 3q12 12 26.5 25.5t34.5 31.5t46.5 41t63.5 54q1 23 1.5 44t0.5 41q0 75 -6.5 155.5t-15 153.5
t-17.5 131t-14 87q-1 11 -4.5 27.5t-8 34t-9 34t-6.5 27.5q-1 4 -2 9t-1 10q0 3 2 11q2 7 7.5 21.5t19.5 41.5q7 14 14.5 27.5t15 24.5t14 18t10.5 7q7 0 13 -15q14 -52 29.5 -81.5t28.5 -49.5l4 -8t2 -7q0 -6 -3 -15q-2 -7 -7 -17.5t-11 -21.5t-12.5 -22t-11.5 -18z
M959 973q21 -23 57.5 -54t74.5 -56q8 -5 -1 -14q-7 -9 -20 -24.5t-28.5 -33.5t-30.5 -35t-25 -29q-5 -5 -8 -5.5t-9 3.5q-13 8 -31.5 21t-37.5 28t-35 30.5t-23 26.5q-4 6 -4 8.5t4 9.5q18 28 45.5 60t49.5 54q11 11 14.5 12.5t7.5 -2.5z" />
    <glyph glyph-name="uni0639.i" unicode="&#x639;" horiz-adv-x="810" arabic-form="initial" 
d="M157 189q-26 27 -43.5 60.5t-17.5 76.5q0 15 3.5 37t9.5 47t14.5 50.5t19.5 46.5q40 81 97.5 119.5t115.5 38.5q20 0 46.5 -5t55 -15t55.5 -24t47 -31q15 -12 19.5 -20.5t4.5 -13.5q0 -8 -17 -8q-22 0 -52.5 4t-62.5 4q-30 0 -75.5 -12.5t-88.5 -31t-74.5 -40
t-34.5 -40.5q2 -12 19.5 -39t49 -55.5t75 -50t96.5 -21.5h9q33 13 70 28t72.5 30.5t68 30.5t57.5 28q44 22 61 22q9 0 9 -9q0 -6 -6.5 -21t-15.5 -33t-19.5 -37t-18.5 -33t-32 -29q-36 -23 -96 -51t-138 -64q-41 -19 -100 -41.5t-121 -41.5t-119 -32t-95 -13h-14
q-75 0 -75 83q0 84 77 84h14q7 0 22.5 1t36 3.5t44.5 6.5t47 11z" />
    <glyph glyph-name="uni0639.m" unicode="&#x639;" horiz-adv-x="728" arabic-form="medial" 
d="M744 167q71 0 71 -78q0 -89 -72 -89h-17q-112 6 -201 59q-22 13 -38 25.5t-29.5 27t-25.5 31.5t-26 39q-130 -115 -209 -147q-88 -35 -201 -35q-82 0 -82 86q0 81 82 81h13q50 0 91.5 4.5t80 15t76.5 27t79 39.5q-13 19 -34.5 32.5t-45.5 23t-47.5 15t-40.5 8.5
q-5 1 -6.5 9t-1.5 21q0 14 2.5 32t7 35t10.5 30.5t14 19.5q54 41 111.5 61t113.5 20q55 0 104 -19.5t87 -58.5q17 -17 17 -54q0 -39 -22.5 -87.5t-70.5 -83.5q90 -90 192 -90h18z" />
    <glyph glyph-name="uni0639.f" unicode="&#x639;" horiz-adv-x="742" arabic-form="final" 
d="M755 167q75 0 75 -78q0 -89 -75 -89h-29q-94 0 -152 37q-60 38 -153 133q-111 -64 -174 -130.5t-94 -128.5t-38.5 -117t-7.5 -96q0 -78 31.5 -156t109.5 -140.5t210 -101.5t333 -39q54 0 113 3.5t123 10.5q17 2 31 3.5t22 1.5q11 0 14 -2.5t3 -6.5q0 -6 -8 -13.5
t-20 -15.5t-25 -15.5t-22 -11.5q-41 -19 -90.5 -37.5t-107 -33.5t-122.5 -24.5t-136 -10.5q-142 0 -242 43.5t-164 114t-93.5 159.5t-29.5 180q0 106 18 196.5t55.5 169t94.5 147t134 131.5q-13 20 -35 34t-46 24t-48 15.5t-42 8.5q-5 1 -6.5 9t-1.5 21q0 14 2.5 32t7 35
t10.5 30.5t14 19.5q52 39 109.5 57t113.5 18q59 0 110 -18.5t83 -53.5q17 -19 17 -55q0 -39 -22.5 -87t-70.5 -83q90 -90 197 -90h24z" />
    <glyph glyph-name="uni063A.i" unicode="&#x63a;" horiz-adv-x="810" arabic-form="initial" 
d="M157 189q-26 27 -43.5 60.5t-17.5 76.5q0 15 3.5 37t9.5 47t14.5 50.5t19.5 46.5q40 81 97.5 119.5t115.5 38.5q20 0 46.5 -5t55 -15t55.5 -24t47 -31q15 -12 19.5 -20.5t4.5 -13.5q0 -8 -17 -8q-22 0 -52.5 4t-62.5 4q-30 0 -75.5 -12.5t-88.5 -31t-74.5 -40
t-34.5 -40.5q2 -12 19.5 -39t49 -55.5t75 -50t96.5 -21.5h9q33 13 70 28t72.5 30.5t68 30.5t57.5 28q44 22 61 22q9 0 9 -9q0 -6 -6.5 -21t-15.5 -33t-19.5 -37t-18.5 -33t-32 -29q-36 -23 -96 -51t-138 -64q-41 -19 -100 -41.5t-121 -41.5t-119 -32t-95 -13h-14
q-75 0 -75 83q0 84 77 84h14q7 0 22.5 1t36 3.5t44.5 6.5t47 11zM317 1145q21 -23 57.5 -54t74.5 -56q8 -5 -1 -14q-7 -9 -20 -24.5t-28.5 -33.5t-30.5 -35t-25 -29q-5 -5 -8 -5.5t-9 3.5q-13 8 -31.5 21t-37.5 28t-35 30.5t-23 26.5q-4 6 -4 8.5t4 9.5q18 28 45.5 60
t49.5 54q11 11 14.5 12.5t7.5 -2.5z" />
    <glyph glyph-name="uni063A.m" unicode="&#x63a;" horiz-adv-x="728" arabic-form="medial" 
d="M744 167q71 0 71 -78q0 -89 -72 -89h-17q-112 6 -201 59q-22 13 -38 25.5t-29.5 27t-25.5 31.5t-26 39q-130 -115 -209 -147q-88 -35 -201 -35q-82 0 -82 86q0 81 82 81h13q50 0 91.5 4.5t80 15t76.5 27t79 39.5q-13 19 -34.5 32.5t-45.5 23t-47.5 15t-40.5 8.5
q-5 1 -6.5 9t-1.5 21q0 14 2.5 32t7 35t10.5 30.5t14 19.5q54 41 111.5 61t113.5 20q55 0 104 -19.5t87 -58.5q17 -17 17 -54q0 -39 -22.5 -87.5t-70.5 -83.5q90 -90 192 -90h18zM359 1022q21 -23 57.5 -54t74.5 -56q8 -5 -1 -14q-7 -9 -20 -24.5t-28.5 -33.5t-30.5 -35
t-25 -29q-5 -5 -8 -5.5t-9 3.5q-13 8 -31.5 21t-37.5 28t-35 30.5t-23 26.5q-4 6 -4 8.5t4 9.5q18 28 45.5 60t49.5 54q11 11 14.5 12.5t7.5 -2.5z" />
    <glyph glyph-name="uni063A.f" unicode="&#x63a;" horiz-adv-x="742" arabic-form="final" 
d="M755 167q75 0 75 -78q0 -89 -75 -89h-29q-94 0 -152 37q-60 38 -153 133q-111 -64 -174 -130.5t-94 -128.5t-38.5 -117t-7.5 -96q0 -78 31.5 -156t109.5 -140.5t210 -101.5t333 -39q54 0 113 3.5t123 10.5q17 2 31 3.5t22 1.5q11 0 14 -2.5t3 -6.5q0 -6 -8 -13.5
t-20 -15.5t-25 -15.5t-22 -11.5q-41 -19 -90.5 -37.5t-107 -33.5t-122.5 -24.5t-136 -10.5q-142 0 -242 43.5t-164 114t-93.5 159.5t-29.5 180q0 106 18 196.5t55.5 169t94.5 147t134 131.5q-13 20 -35 34t-46 24t-48 15.5t-42 8.5q-5 1 -6.5 9t-1.5 21q0 14 2.5 32t7 35
t10.5 30.5t14 19.5q52 39 109.5 57t113.5 18q59 0 110 -18.5t83 -53.5q17 -19 17 -55q0 -39 -22.5 -87t-70.5 -83q90 -90 197 -90h24zM375 1017q21 -23 57.5 -54t74.5 -56q8 -5 -1 -14q-7 -9 -20 -24.5t-28.5 -33.5t-30.5 -35t-25 -29q-5 -5 -8 -5.5t-9 3.5q-13 8 -31.5 21
t-37.5 28t-35 30.5t-23 26.5q-4 6 -4 8.5t4 9.5q18 28 45.5 60t49.5 54q11 11 14.5 12.5t7.5 -2.5z" />
    <glyph glyph-name="uni0641.i" unicode="&#x641;" horiz-adv-x="458" arabic-form="initial" 
d="M199 749q34 0 63.5 -19t54 -50t43 -70.5t31.5 -80.5t19.5 -79.5t6.5 -68.5q0 -33 -5 -71t-14 -75t-21.5 -70.5t-27.5 -56.5q-6 -9 -18 -18.5t-26.5 -17.5t-29.5 -14.5t-27 -10.5q-152 -47 -243 -47h-15q-70 0 -70 87q0 80 70 80h14q36 0 74 2.5t73.5 7.5t66.5 11.5
t53 14.5q21 7 33.5 12.5t19 13.5t9 20t2.5 32q0 25 -6 47.5t-17 46.5q-11 -29 -47.5 -50.5t-83.5 -21.5q-60 0 -95 35.5t-35 107.5q0 50 16 103.5t39.5 97.5t49 73t43.5 29zM267 507q0 5 -8.5 25t-25.5 34q-11 10 -26.5 15.5t-27.5 5.5q-20 0 -39 -32q-14 -24 -14 -37
q0 -25 22.5 -36t49.5 -11q26 0 47.5 9.5t21.5 26.5zM181 1218q21 -23 57.5 -54t74.5 -56q8 -5 -1 -14q-7 -9 -20 -24.5t-28.5 -33.5t-30.5 -35t-25 -29q-5 -5 -8 -5.5t-9 3.5q-13 8 -31.5 21t-37.5 28t-35 30.5t-23 26.5q-4 6 -4 8.5t4 9.5q18 28 45.5 60t49.5 54
q11 11 14.5 12.5t7.5 -2.5z" />
    <glyph glyph-name="uni0641.m" unicode="&#x641;" horiz-adv-x="565" arabic-form="medial" 
d="M579 167q73 0 73 -82q0 -85 -73 -85h-20q-118 1 -193 21.5t-125 49.5q-42 -27 -102.5 -49t-133.5 -22h-16q-69 0 -69 87q0 80 71 80h16q97 0 125 28q-8 29 -8 55q0 42 14.5 86t38 85.5t54.5 79t64 65t65.5 44t59.5 16.5q23 0 40.5 -12.5t29 -34t17.5 -50.5t6 -62
q0 -34 -6.5 -71.5t-20 -73.5t-34.5 -68.5t-49 -58.5q49 -26 157 -28h19zM419 359q0 46 -16.5 71.5t-57.5 25.5q-23 0 -44.5 -10.5t-38.5 -25t-27 -30t-10 -25.5q0 -28 21 -52t68 -51q8 3 25.5 15t35 27t31 30t13.5 25zM261 1093q21 -23 57.5 -54t74.5 -56q8 -5 -1 -14
q-7 -9 -20 -24.5t-28.5 -33.5t-30.5 -35t-25 -29q-5 -5 -8 -5.5t-9 3.5q-13 8 -31.5 21t-37.5 28t-35 30.5t-23 26.5q-4 6 -4 8.5t4 9.5q18 28 45.5 60t49.5 54q11 11 14.5 12.5t7.5 -2.5z" />
    <glyph glyph-name="uni0641.f" unicode="&#x641;" horiz-adv-x="1616" arabic-form="final" 
d="M1629 167q85 0 85 -82q0 -85 -85 -85h-18q-118 0 -199 23t-126 55q-51 -24 -125.5 -49t-162.5 -45t-183.5 -33t-188.5 -13q-175 0 -284 30.5t-170 78.5t-82.5 107.5t-21.5 118.5q0 29 5 63t14.5 69.5t24 71t33.5 65.5q15 23 25.5 33t18.5 10q9 0 9 -12q0 -8 -3.5 -19.5
t-8.5 -22.5q-14 -31 -24.5 -65.5t-10.5 -71.5q0 -62 28 -108t73.5 -78t104.5 -52t121.5 -31.5t122.5 -15.5t109 -4q70 0 138.5 6.5t131.5 18t119 25.5t101 29q-5 14 -6.5 28t-1.5 29q0 42 14.5 86t38 86t54.5 79t63.5 65t65 44.5t59.5 16.5q23 0 40.5 -12.5t29 -34
t17.5 -50.5t6 -62q0 -34 -6.5 -71.5t-20 -73.5t-34.5 -68.5t-49 -58.5q32 -20 141 -20h18zM1486 351q0 46 -16.5 71.5t-57.5 25.5q-22 0 -44 -10.5t-38.5 -25t-27 -29.5t-10.5 -25q2 -18 7.5 -31t16 -24.5t27 -23t38.5 -25.5q8 3 25.5 15t35 27t31 30t13.5 25zM1159 972
q21 -23 57.5 -54t74.5 -56q8 -5 -1 -14q-7 -9 -20 -24.5t-28.5 -33.5t-30.5 -35t-25 -29q-5 -5 -8 -5.5t-9 3.5q-13 8 -31.5 21t-37.5 28t-35 30.5t-23 26.5q-4 6 -4 8.5t4 9.5q18 28 45.5 60t49.5 54q11 11 14.5 12.5t7.5 -2.5z" />
    <glyph glyph-name="uni0642.i" unicode="&#x642;" horiz-adv-x="458" arabic-form="initial" 
d="M199 749q34 0 63.5 -19t54 -50t43 -70.5t31.5 -80.5t19.5 -79.5t6.5 -68.5q0 -33 -5 -71t-14 -75t-21.5 -70.5t-27.5 -56.5q-6 -9 -18 -18.5t-26.5 -17.5t-29.5 -14.5t-27 -10.5q-152 -47 -243 -47h-15q-70 0 -70 87q0 80 70 80h14q36 0 74 2.5t73.5 7.5t66.5 11.5
t53 14.5q21 7 33.5 12.5t19 13.5t9 20t2.5 32q0 25 -6 47.5t-17 46.5q-11 -29 -47.5 -50.5t-83.5 -21.5q-60 0 -95 35.5t-35 107.5q0 50 16 103.5t39.5 97.5t49 73t43.5 29zM267 507q0 5 -8.5 25t-25.5 34q-11 10 -26.5 15.5t-27.5 5.5q-20 0 -39 -32q-14 -24 -14 -37
q0 -25 22.5 -36t49.5 -11q26 0 47.5 9.5t21.5 26.5zM232 1063q8 10 19 22.5t22.5 25.5t21.5 24t17 17q10 10 15 12t10 -4q26 -28 55 -56t58 -48q9 -6 9 -10t-9 -13q-26 -27 -50 -54.5t-48 -56.5q-6 -8 -10 -8t-12 6q-21 16 -49.5 39.5t-55.5 49.5q-8 -9 -19.5 -22
t-23.5 -25.5t-22.5 -23t-17.5 -15.5t-12 -7.5t-16 4.5q-28 17 -59.5 44.5t-53.5 56.5q-5 7 -5 11.5t7 12.5q20 25 47 55t54 57q6 6 10.5 5t12.5 -9q10 -11 23.5 -24.5t28 -26t28.5 -23t25 -16.5z" />
    <glyph glyph-name="uni0642.m" unicode="&#x642;" horiz-adv-x="565" arabic-form="medial" 
d="M579 167q73 0 73 -82q0 -85 -73 -85h-20q-118 1 -193 21.5t-125 49.5q-42 -27 -102.5 -49t-133.5 -22h-16q-69 0 -69 87q0 80 71 80h16q97 0 125 28q-8 29 -8 55q0 42 14.5 86t38 85.5t54.5 79t64 65t65.5 44t59.5 16.5q23 0 40.5 -12.5t29 -34t17.5 -50.5t6 -62
q0 -34 -6.5 -71.5t-20 -73.5t-34.5 -68.5t-49 -58.5q49 -26 157 -28h19zM419 359q0 46 -16.5 71.5t-57.5 25.5q-23 0 -44.5 -10.5t-38.5 -25t-27 -30t-10 -25.5q0 -28 21 -52t68 -51q8 3 25.5 15t35 27t31 30t13.5 25zM311 952q8 10 19 22.5t22.5 25.5t21.5 24t17 17
q10 10 15 12t10 -4q26 -28 55 -56t58 -48q9 -6 9 -10t-9 -13q-26 -27 -50 -54.5t-48 -56.5q-6 -8 -10 -8t-12 6q-21 16 -49.5 39.5t-55.5 49.5q-8 -9 -19.5 -22t-23.5 -25.5t-22.5 -23t-17.5 -15.5t-12 -7.5t-16 4.5q-28 17 -59.5 44.5t-53.5 56.5q-5 7 -5 11.5t7 12.5
q20 25 47 55t54 57q6 6 10.5 5t12.5 -9q10 -11 23.5 -24.5t28 -26t28.5 -23t25 -16.5z" />
    <glyph glyph-name="uni0642.f" unicode="&#x642;" horiz-adv-x="1040" arabic-form="final" 
d="M868 170q0 8 -5.5 21.5t-15 29t-22 30t-25.5 23.5q-9 7 -17.5 10.5t-19.5 3.5q-12 0 -22 -6t-17 -15t-11 -19t-4 -17q0 -13 16 -26.5t40 -22.5q23 -9 47 -13.5t39 -4.5q11 0 14 1.5t3 4.5zM50 -199q0 30 4 64.5t12.5 70t21 71t30.5 67.5q12 22 25 36t24 14q9 0 9 -13
q0 -17 -13 -46q-27 -62 -37.5 -103t-10.5 -76q0 -51 27.5 -92.5t69.5 -71.5t92 -46t95 -16q74 0 154.5 15t152 43t126 68t76.5 89q6 27 6 52q0 21 -2.5 38.5t-4.5 28.5q-9 -1 -16.5 -1.5t-24.5 -0.5t-38 1t-43.5 4.5t-44.5 10t-40 16.5q-38 22 -54.5 50t-16.5 63q0 17 4 37
t10.5 42t14.5 43.5t16 40.5q14 31 30 59.5t33.5 50.5t35.5 35t35 13q41 0 74.5 -24t57 -64t37.5 -92.5t16 -110.5h63q63 0 63 -76q0 -46 -15.5 -67.5t-47.5 -23.5l-70 -3q-8 -54 -16.5 -94.5t-19.5 -78.5q-4 -14 -11.5 -36.5t-15.5 -37.5q-25 -49 -76 -95.5t-119.5 -83
t-149.5 -58.5t-167 -22q-73 0 -138.5 17t-115 54t-78.5 96t-29 143zM792 775q8 10 19 22.5t22.5 25.5t21.5 24t17 17q10 10 15 12t10 -4q26 -28 55 -56t58 -48q9 -6 9 -10t-9 -13q-26 -27 -50 -54.5t-48 -56.5q-6 -8 -10 -8t-12 6q-21 16 -49.5 39.5t-55.5 49.5
q-8 -9 -19.5 -22t-23.5 -25.5t-22.5 -23t-17.5 -15.5t-12 -7.5t-16 4.5q-28 17 -59.5 44.5t-53.5 56.5q-5 7 -5 11.5t7 12.5q20 25 47 55t54 57q6 6 10.5 5t12.5 -9q10 -11 23.5 -24.5t28 -26t28.5 -23t25 -16.5z" />
    <glyph glyph-name="uni0643.i" unicode="&#x643;" horiz-adv-x="644" arabic-form="initial" 
d="M803 1152q8 2 18.5 6t16.5 4q7 0 7 -8q0 -9 -6 -25.5t-14 -33.5t-17 -33.5t-14 -25.5q-4 -8 -13 -12q-12 -4 -49.5 -19t-90 -36.5t-115 -48.5t-125 -56.5t-120.5 -60.5t-100 -60q62 -32 120 -81.5t103 -105t72.5 -111t27.5 -99.5q0 -86 -24.5 -150t-72.5 -109
q-156 -87 -398 -87h-19q-22 0 -35.5 24.5t-13.5 58.5q0 35 14 59.5t34 24.5h18q84 0 157 8t130 20.5t95.5 27.5t51.5 29q-1 39 -30.5 87.5t-74.5 96.5t-99.5 89.5t-105.5 66.5q-14 7 -27 15t-21 21q-12 19 -12 63q0 29 5.5 56.5t22.5 44.5q19 19 39 36t45 34.5t55.5 36
t69.5 39.5q78 42 153.5 77t141.5 62t118 46t82 29z" />
    <glyph glyph-name="uni0643.m" unicode="&#x643;" horiz-adv-x="918" arabic-form="medial" 
d="M875 1331q6 2 8 2q7 0 7 -10t-6 -27.5t-13.5 -36t-15.5 -35t-13 -24.5q-3 -7 -8 -9q-22 -9 -84 -35.5t-146 -65t-179 -86.5t-183 -99q-32 -20 -63.5 -42t-56.5 -52q40 -35 86 -70.5t84 -65.5q60 -48 111.5 -89.5t99.5 -82.5t94 -83.5t95 -92.5q87 -88 140.5 -124
t78.5 -36h21q67 0 67 -78q0 -89 -67 -89h-33q-67 2 -158 72q-60 48 -161 155q-54 57 -94.5 93.5t-68.5 53.5q6 -46 6 -85q0 -76 -23 -128q-32 -75 -135 -116q-133 -45 -257 -45h-19q-66 0 -66 88q0 79 70 79q51 0 114.5 7t141.5 23q102 21 111 81q-13 116 -266 334
q-26 25 -39.5 49t-13.5 51q0 48 3.5 81.5t8.5 56.5t12.5 37t14.5 22q47 50 92.5 82.5t99.5 64.5q61 37 127.5 71t131 63.5t123.5 54.5t105.5 43t77 29t38.5 14z" />
    <glyph glyph-name="uni0643.f" unicode="&#x643;" horiz-adv-x="1448" arabic-form="final" 
d="M116 351q0 -64 37.5 -109t100.5 -73.5t145 -42t170 -13.5q68 0 136.5 7t132.5 20.5t121 32.5t101 43q45 24 74 54t38 64q3 10 5 22t3.5 23.5t2 20.5t0.5 13q0 6 -3.5 43t-7.5 92.5t-9.5 122t-10 132t-8.5 122t-6 91.5q0 2 0.5 4.5t2.5 8.5q7 16 19.5 41.5t22.5 45.5
q8 16 16.5 31t14.5 15q5 0 8 -9t5 -39q7 -113 13 -216.5t11 -191t10 -156t10 -112.5q5 -51 16 -97.5t24 -75.5q23 -51 56.5 -74.5t73.5 -23.5h23q78 0 78 -75q0 -92 -79 -92h-22q-56 0 -101.5 24t-77.5 74q-31 50 -54 177q-17 -71 -72 -124t-134 -92q-58 -28 -125 -50
t-139 -36t-146.5 -21.5t-149.5 -7.5t-146 15.5t-126 52t-88 97t-33 150.5q0 64 12 111.5t22 70.5q22 49 39 49q7 0 9 -7t1.5 -16t-2.5 -18t-3 -14q-5 -20 -8 -45t-3 -39zM819 702q-1 -25 -16.5 -60t-38 -68.5t-48 -60.5t-48.5 -36q-24 -10 -55 -15.5t-65 -5.5q-14 0 -28 1
t-28 3q-18 2 -31 7.5t-13 12.5q0 10 48 29q16 6 50.5 18.5t71.5 27.5t70 31.5t46 29.5q7 7 7 11q0 3 -4 4q-16 8 -59 14q-19 3 -37.5 6.5t-33 11t-23.5 20t-9 33.5q0 26 20.5 66.5t50.5 82.5t63.5 77.5t58.5 51.5q21 13 33 13q11 0 11 -17q0 -11 -4 -26t-10 -31t-12.5 -30
t-11.5 -23q-5 -12 -17 -15q-7 -2 -16 -4t-19 -7q-15 -8 -28 -21t-17 -19q0 -18 13.5 -27t30.5 -12t34 -4.5t31.5 -7.5t23.5 -20t9 -41z" />
    <glyph glyph-name="uni0644.i" unicode="&#x644;" horiz-adv-x="346" arabic-form="initial" 
d="M247 368q0 -180 -74 -292q-29 -38 -67.5 -57t-98.5 -19h-17q-72 0 -72 89q0 78 72 78h16q60 0 107 16q41 13 51 31q-1 48 -8.5 119t-18 157t-22 181.5t-19.5 192.5q-1 11 -4.5 31.5t-8 43.5t-9 45t-6.5 35q-1 5 -1.5 9t-0.5 8q0 7 4 19t10 26t12.5 28t12.5 24
q15 29 28 48t24 19q7 0 13 -15q15 -54 31 -84t29 -50q3 -5 5.5 -10.5t2.5 -11.5q0 -2 -2 -10q-2 -7 -7 -17.5t-10.5 -21.5t-12 -22t-11.5 -18q5 -93 13.5 -177.5t17 -157t15 -132.5t6.5 -105z" />
    <glyph glyph-name="uni0644.m" unicode="&#x644;" horiz-adv-x="393" arabic-form="medial" 
d="M-84 88q0 79 75 79h17q63 0 96 33q25 25 30 58.5t5 74.5q0 81 -6 248.5t-17 424.5q0 29 10 58.5t30 66.5q9 17 18 30.5t17 13.5q6 0 11.5 -12t7.5 -42q6 -94 11.5 -201.5t11 -216.5t12.5 -213t17 -193q4 -35 19 -60.5t40 -44.5q33 -25 68 -25h19q70 0 70 -81
q-2 -86 -70 -86h-21q-39 0 -72 13.5t-59 36.5t-45 54.5t-28 68.5q-35 -173 -177 -173h-15q-75 0 -75 88z" />
    <glyph glyph-name="uni0644.f" unicode="&#x644;" horiz-adv-x="1095" arabic-form="final" 
d="M114 -117q0 -68 29.5 -115t76 -76t104 -41.5t112.5 -12.5q67 0 140 21t134.5 53t101.5 69.5t40 70.5q-4 54 -9 99t-10 86.5t-10 82.5t-11 87q-10 84 -20 162t-19.5 160.5t-20 174t-21.5 203.5q-3 26 -4.5 42t-1.5 28q0 11 2 20.5t7 23.5q6 15 15.5 37t21 42.5t22.5 35
t18 14.5q10 0 11 -22q2 -25 3.5 -47.5t3 -48.5t4 -58.5t6.5 -76.5q4 -48 10 -106.5t12.5 -122.5t14.5 -131.5t17 -134.5q7 -54 25.5 -97.5t44.5 -74t59 -47t69 -16.5h19q74 0 74 -81q0 -86 -75 -86h-24q-24 2 -48.5 9.5t-46 21t-39.5 33t-29 44.5q5 -55 7.5 -93t2.5 -67
q0 -54 -5 -92t-13.5 -67t-21 -52t-27.5 -46q-13 -20 -47 -57t-90 -74t-135 -64t-182 -27q-106 0 -177 26t-113.5 69t-60 97t-17.5 110q0 80 23.5 161t56.5 145q18 35 32.5 48.5t22.5 13.5t8 -11q0 -16 -19 -60q-18 -41 -35.5 -90.5t-17.5 -94.5z" />
    <glyph glyph-name="uni0645.i" unicode="&#x645;" horiz-adv-x="697" arabic-form="initial" 
d="M253 190q-57 -100 -116.5 -145t-128.5 -45h-8q-72 0 -72 87q5 80 73 80h5q136 0 215 106l92 143q20 31 42.5 52t44.5 34t41 18.5t33 5.5q47 0 79.5 -34.5t53.5 -82.5t30.5 -99t9.5 -83q0 -28 -13 -59.5t-31.5 -57t-38.5 -42.5t-34 -17q-21 0 -56.5 12t-76 31.5t-79 44.5
t-65.5 51zM520 220q-1 23 -14 50.5t-31 52t-39.5 41t-39.5 16.5q-10 0 -18 -5t-18 -19q-10 -13 -21 -35q12 -7 36 -20t51 -28t52.5 -29.5t41.5 -23.5z" />
    <glyph glyph-name="uni0645.m" unicode="&#x645;" horiz-adv-x="739" arabic-form="medial" 
d="M184 105q-9 -24 -27 -43.5t-42 -33t-50.5 -21t-52.5 -7.5h-12q-68 0 -68 80q0 87 70 87h13q45 0 82 9.5t68 25.5t56.5 36.5t47.5 42.5t41 43.5t36 38t32.5 27t31.5 10.5q21 0 42 -20q26 -27 62.5 -63.5t76 -69.5t77 -56.5t64.5 -23.5h7q77 0 77 -78q0 -89 -77 -89h-7
q-24 0 -47.5 7t-43 17t-33 19.5t-18.5 14.5q-5 -18 -17 -38t-27 -36.5t-30 -27t-26 -10.5q-10 0 -50 11.5t-89 32.5t-96 50.5t-71 64.5zM506 126q0 3 -7.5 14t-18.5 24.5t-23 27t-21 22.5q-19 19 -39.5 33t-39.5 14q-12 0 -19 -4.5t-20 -15.5q-21 -18 -21 -27t18.5 -20.5
t68.5 -34.5q10 -5 26 -12.5t33 -14t31.5 -11.5t21.5 -5q10 0 10 10z" />
    <glyph glyph-name="uni0645.f" unicode="&#x645;" horiz-adv-x="798" arabic-form="final" 
d="M556 -129q-13 -35 -28.5 -56t-33.5 -21q-12 0 -30 11t-37 30.5t-37.5 47t-33.5 60.5q-31 72 -31 167q-22 -3 -49.5 -9t-55.5 -16.5t-52.5 -26.5t-39.5 -39q-3 -4 -3 -17q0 -23 7 -67.5t17.5 -102t23 -123.5t23 -131t17.5 -125t7 -105q0 -33 -5.5 -68.5t-14 -64.5
t-18.5 -48t-18 -19q-6 0 -9.5 9.5t-3.5 35.5q0 2 0.5 7t0.5 25q0 55 -9 131.5t-22.5 160t-28.5 166t-27 150.5q-4 20 -6.5 41.5t-2.5 47.5q0 66 19.5 127t57 109.5t91.5 82t122 43.5q7 17 14 33.5t21 16.5q8 0 20.5 -8.5t31.5 -29.5q28 -32 71.5 -56t93 -40.5t101 -24.5
t94.5 -8h5q83 0 83 -79q0 -88 -81 -88h-6q-148 0 -226 35q6 -31 6 -62q0 -28 -5 -54t-13 -48z" />
    <glyph glyph-name="uni0646.i" unicode="&#x646;" horiz-adv-x="375" arabic-form="initial" 
d="M328 286q0 -46 -8 -94t-38 -89q-24 -33 -68.5 -60t-120.5 -38q-21 -3 -49 -4t-55 -1q-35 0 -52.5 25.5t-17.5 57.5t17.5 58t52.5 26h39q28 0 62 1t67 5.5t61.5 13.5t44.5 24q-2 25 -11.5 51.5t-21.5 50.5t-24 44.5t-21 32.5q-1 1 -1 5q0 11 7.5 33t17 44.5t17.5 40.5
t9 20q3 9 9 9q9 0 23.5 -20.5t28 -55.5t23 -81.5t9.5 -98.5zM196 1022q21 -23 57.5 -54t74.5 -56q8 -5 -1 -14q-7 -9 -20 -24.5t-28.5 -33.5t-30.5 -35t-25 -29q-5 -5 -8 -5.5t-9 3.5q-13 8 -31.5 21t-37.5 28t-35 30.5t-23 26.5q-4 6 -4 8.5t4 9.5q18 28 45.5 60t49.5 54
q11 11 14.5 12.5t7.5 -2.5z" />
    <glyph glyph-name="uni0646.m" unicode="&#x646;" horiz-adv-x="488" arabic-form="medial" 
d="M326 321q8 0 13 -12t5 -41q0 -16 8 -32t21.5 -29.5t31.5 -23.5t38 -14q11 -2 19 -2h16h10q24 0 36.5 -8.5t18.5 -20t7 -24.5t1 -22q0 -8 -1 -23.5t-6.5 -30.5t-18 -26.5t-35.5 -11.5h-13h-18t-24 2q-42 4 -71 22t-48 38.5t-28.5 38.5t-11.5 22q-7 -17 -27 -38.5t-54 -40
t-81 -31.5t-107 -13h-7q-35 0 -52.5 25.5t-17.5 57.5t17.5 58t53.5 26h50q27 0 59 3.5t64.5 15.5t62.5 35t53 63q14 25 22 31t14 6zM273 807q21 -23 57.5 -54t74.5 -56q8 -5 -1 -14q-7 -9 -20 -24.5t-28.5 -33.5t-30.5 -35t-25 -29q-5 -5 -8 -5.5t-9 3.5q-13 8 -31.5 21
t-37.5 28t-35 30.5t-23 26.5q-4 6 -4 8.5t4 9.5q18 28 45.5 60t49.5 54q11 11 14.5 12.5t7.5 -2.5z" />
    <glyph glyph-name="uni0646.f" unicode="&#x646;" horiz-adv-x="990" arabic-form="final" 
d="M777 144q-2 3 -2 12t4 26t10 37.5t14 42t16 37.5t14 16q5 0 8 -5t5 -9q31 -66 62 -100t76 -34h21q75 0 75 -81q0 -86 -75 -86h-22q-22 1 -38 2.5t-27 5.5q-3 -97 -12 -146.5t-19 -72.5q-9 -25 -20 -48t-28.5 -46.5t-42.5 -47.5t-61 -51q-69 -51 -166.5 -81t-234.5 -30
q-70 0 -129 23t-102 65.5t-67 103t-24 135.5q0 40 9 81t23 78.5t30 69t31 51.5q11 17 24 29.5t23 12.5t10 -12q0 -17 -17 -49q-25 -48 -43.5 -95.5t-18.5 -100.5q0 -52 28 -92t70.5 -67.5t93.5 -42t96 -14.5q74 0 147.5 13t137 37t112 58.5t72.5 77.5q2 3 4 10t2 18
q-1 53 -6 91t-13.5 68t-20.5 56t-29 54zM467 641q21 -23 57.5 -54t74.5 -56q8 -5 -1 -14q-7 -9 -20 -24.5t-28.5 -33.5t-30.5 -35t-25 -29q-5 -5 -8 -5.5t-9 3.5q-13 8 -31.5 21t-37.5 28t-35 30.5t-23 26.5q-4 6 -4 8.5t4 9.5q18 28 45.5 60t49.5 54q11 11 14.5 12.5
t7.5 -2.5z" />
    <glyph glyph-name="uni0647.i" unicode="&#x647;" horiz-adv-x="786" arabic-form="initial" 
d="M278 741q31 0 76.5 -19t96 -52t101 -79t91 -99.5t66.5 -113.5t27 -122q0 -44 -10 -79t-27 -59.5t-39.5 -37.5t-47.5 -13q-7 0 -20.5 2t-29.5 5t-33.5 7t-32.5 8q-45 13 -84 25t-89 22q-181 -136 -319 -136h-17q-74 0 -74 83q0 84 74 84h17q62 0 159 33q-20 34 -20 88
q0 33 7 68.5t18.5 69t25.5 62.5t29 49q-6 8 -9 19.5t-3 25.5q0 7 1.5 21t4.5 31.5t8 35t12 32.5q8 17 18 28t23 11zM328 289q7 3 24 11.5t35 19t32 22t14 21.5q0 24 -14.5 48.5t-33.5 44.5t-37.5 32t-26.5 12q-11 0 -28.5 -11t-35.5 -28q-21 -20 -37 -42t-16 -33
q3 -26 15 -43t29.5 -27.5t38.5 -16.5t41 -10zM436 272q39 -10 72 -23t62.5 -24t56 -18.5t51.5 -7.5q4 0 4 5q-5 29 -21 62t-41.5 65t-58.5 61.5t-72 50.5q-1 -39 -9 -70t-17.5 -53t-17.5 -34t-9 -14z" />
    <glyph glyph-name="uni0647.m" unicode="&#x647;" horiz-adv-x="597" arabic-form="medial" 
d="M8 167q24 0 54 1t70 6q34 93 76.5 163t83 116t73.5 69t49 23q23 0 37.5 -34.5t14.5 -87.5q0 -30 -5.5 -63t-17.5 -66.5t-31.5 -66t-47.5 -60.5h249q79 0 79 -79q0 -88 -79 -88h-100q14 -23 22 -57.5t8 -85.5q0 -20 -11 -53.5t-29.5 -66t-42 -57.5t-48.5 -29
q-14 -2 -26.5 -3t-24.5 -1q-72 0 -122 34t-81 84t-45.5 108t-16.5 105q-20 -3 -35 -5.5t-28 -5.5q-5 -1 -5 4l5 29h-45q-72 0 -72 85q0 82 73 82h19zM205 -17q9 -26 23.5 -55t37.5 -53t57 -40t81 -16q11 0 22.5 1t24.5 3q0 24 -14.5 48t-44 46t-72.5 39.5t-100 27.5z
M380 277q4 5 4 15q0 12 -5.5 27.5t-13.5 29t-16.5 23t-14.5 9.5q-11 0 -27 -15.5t-34 -42.5t-38.5 -63t-40.5 -77q18 5 44 11.5t52.5 17.5t50.5 27t39 38z" />
    <glyph glyph-name="uni0647.f" unicode="&#x647;" horiz-adv-x="664" arabic-form="final" 
d="M461 358q11 -48 39 -88t70 -69q52 -34 87 -34h25q77 0 77 -77q0 -90 -80 -90h-23q-86 0 -165 67t-100 221q-12 -20 -24.5 -38.5t-36.5 -35.5q-35 -24 -85.5 -34.5t-105.5 -10.5q-40 0 -70.5 9.5t-30.5 38.5q9 62 18 100t22.5 63.5t33 45t49.5 43.5q13 10 35.5 25t48 31.5
t49 32t38.5 26.5q-3 23 -3 39q0 29 7 47.5t20 41.5q8 15 15.5 25.5t14.5 10.5q5 0 9.5 -9t8.5 -31q19 -113 31 -203t26 -147zM372 381q-3 17 -5 29.5t-4.5 25l-5.5 27.5t-7 36q-26 -16 -58 -36.5t-60.5 -40t-49 -36t-22.5 -24.5q0 -8 15 -12.5t39 -4.5q35 0 79 9t79 27z" />
    <glyph glyph-name="uni0648.f" unicode="&#x648;" horiz-adv-x="735" arabic-form="final" 
d="M329 -513q-27 0 -62.5 6t-74 16t-78.5 24t-77 31q-18 8 -24 16t-6 13q0 12 28 12q7 0 21.5 -2t32.5 -4.5t39 -4.5t40 -2q35 0 69 9.5t83 35.5q66 34 119 74t90.5 80.5t57.5 79.5t20 72q0 10 -1.5 20.5t-5.5 27.5h-54q-15 0 -35 1.5t-41 5.5t-42.5 10t-39.5 16
q-38 21 -54.5 49.5t-16.5 62.5q0 32 12.5 75.5t31.5 85.5q15 35 32 64t34.5 51t35.5 34t35 12q39 0 72.5 -24t56.5 -60q26 -41 38 -96.5t16 -110.5h71q69 0 69 -76q0 -88 -66 -91l-77 -4q-4 -96 -23 -175t-55 -142t-91.5 -109t-133.5 -76q-9 -3 -20.5 -5t-25.5 -2zM556 170
q0 7 -5 20t-14 27.5t-20.5 29t-23.5 24.5q-8 6 -17 11.5t-24 5.5q-13 0 -23.5 -6t-17.5 -15t-10.5 -18.5t-3.5 -16.5q0 -28 57 -50q23 -9 46 -13.5t38 -4.5q18 0 18 6z" />
    <glyph glyph-name="uni0649.i" unicode="&#x649;" horiz-adv-x="375" 
d="M328 286q0 -46 -8 -94t-38 -89q-24 -33 -68.5 -60t-120.5 -38q-21 -3 -49 -4t-55 -1q-35 0 -52.5 25.5t-17.5 57.5t17.5 58t52.5 26h39q28 0 62 1t67 5.5t61.5 13.5t44.5 24q-2 25 -11.5 51.5t-21.5 50.5t-24 44.5t-21 32.5q-1 1 -1 5q0 11 7.5 33t17 44.5t17.5 40.5
t9 20q3 9 9 9q9 0 23.5 -20.5t28 -55.5t23 -81.5t9.5 -98.5z" />
    <glyph glyph-name="uni0649.m" unicode="&#x649;" horiz-adv-x="488" 
d="M326 321q8 0 13 -12t5 -41q0 -16 8 -32t21.5 -29.5t31.5 -23.5t38 -14q11 -2 19 -2h16h10q24 0 36.5 -8.5t18.5 -20t7 -24.5t1 -22q0 -8 -1 -23.5t-6.5 -30.5t-18 -26.5t-35.5 -11.5h-13h-18t-24 2q-42 4 -71 22t-48 38.5t-28.5 38.5t-11.5 22q-7 -17 -27 -38.5t-54 -40
t-81 -31.5t-107 -13h-7q-35 0 -52.5 25.5t-17.5 57.5t17.5 58t53.5 26h50q27 0 59 3.5t64.5 15.5t62.5 35t53 63q14 25 22 31t14 6z" />
    <glyph glyph-name="uni0649.f" unicode="&#x649;" horiz-adv-x="1043" arabic-form="final" 
d="M125 -76q0 -74 31 -126t81 -86t113.5 -49.5t129.5 -15.5q48 0 104 11t113.5 29t111.5 40t98.5 44.5t74.5 42.5t39 33q-1 13 -14.5 25.5t-34 24.5t-44 23t-46.5 21q-24 11 -51 20t-58 18q-21 6 -26.5 14.5t-5.5 18.5q0 3 7.5 20.5t17.5 38.5t21.5 40.5t18.5 26.5q4 4 7 6
t8 3l210 20h31q80 0 80 -81q0 -86 -108 -86q32 -11 55.5 -41t23.5 -64q0 -26 -9 -52.5t-24 -50.5q-26 -42 -70 -81.5t-98 -74.5t-115 -64t-123 -49.5t-120.5 -32t-107.5 -11.5q-79 0 -150.5 19t-125.5 59.5t-85.5 103t-31.5 148.5q0 51 8.5 104t23.5 103.5t34.5 95.5
t41.5 81q15 25 28 36t21 11q9 0 9 -10q0 -9 -5.5 -23.5t-13.5 -29.5q-38 -75 -56.5 -134.5t-18.5 -118.5z" />
    <glyph glyph-name="uni064A.i" unicode="&#x64a;" horiz-adv-x="375" arabic-form="initial" 
d="M328 286q0 -46 -8 -94t-38 -89q-24 -33 -68.5 -60t-120.5 -38q-21 -3 -49 -4t-55 -1q-35 0 -52.5 25.5t-17.5 57.5t17.5 58t52.5 26h39q28 0 62 1t67 5.5t61.5 13.5t44.5 24q-2 25 -11.5 51.5t-21.5 50.5t-24 44.5t-21 32.5q-1 1 -1 5q0 11 7.5 33t17 44.5t17.5 40.5
t9 20q3 9 9 9q9 0 23.5 -20.5t28 -55.5t23 -81.5t9.5 -98.5zM241 -174q8 10 19 22.5t22.5 25.5t21.5 24t17 17q10 10 15 12t10 -4q26 -28 55 -56t58 -48q9 -6 9 -10t-9 -13q-26 -27 -50 -54.5t-48 -56.5q-6 -8 -10 -8t-12 6q-21 16 -49.5 39.5t-55.5 49.5q-8 -9 -19.5 -22
t-23.5 -25.5t-22.5 -23t-17.5 -15.5t-12 -7.5t-16 4.5q-28 17 -59.5 44.5t-53.5 56.5q-5 7 -5 11.5t7 12.5q20 25 47 55t54 57q6 6 10.5 5t12.5 -9q10 -11 23.5 -24.5t28 -26t28.5 -23t25 -16.5z" />
    <glyph glyph-name="uni064A.m" unicode="&#x64a;" horiz-adv-x="488" arabic-form="medial" 
d="M326 321q8 0 13 -12t5 -41q0 -16 8 -32t21.5 -29.5t31.5 -23.5t38 -14q11 -2 19 -2h16h10q24 0 36.5 -8.5t18.5 -20t7 -24.5t1 -22q0 -8 -1 -23.5t-6.5 -30.5t-18 -26.5t-35.5 -11.5h-13h-18t-24 2q-42 4 -71 22t-48 38.5t-28.5 38.5t-11.5 22q-7 -17 -27 -38.5t-54 -40
t-81 -31.5t-107 -13h-7q-35 0 -52.5 25.5t-17.5 57.5t17.5 58t53.5 26h50q27 0 59 3.5t64.5 15.5t62.5 35t53 63q14 25 22 31t14 6zM253 -313q8 10 19 22.5t22.5 25.5t21.5 24t17 17q10 10 15 12t10 -4q26 -28 55 -56t58 -48q9 -6 9 -10t-9 -13q-26 -27 -50 -54.5t-48 -56.5
q-6 -8 -10 -8t-12 6q-21 16 -49.5 39.5t-55.5 49.5q-8 -9 -19.5 -22t-23.5 -25.5t-22.5 -23t-17.5 -15.5t-12 -7.5t-16 4.5q-28 17 -59.5 44.5t-53.5 56.5q-5 7 -5 11.5t7 12.5q20 25 47 55t54 57q6 6 10.5 5t12.5 -9q10 -11 23.5 -24.5t28 -26t28.5 -23t25 -16.5z" />
    <glyph glyph-name="uni064A.f" unicode="&#x64a;" horiz-adv-x="1043" arabic-form="final" 
d="M125 -76q0 -74 31 -126t81 -86t113.5 -49.5t129.5 -15.5q48 0 104 11t113.5 29t111.5 40t98.5 44.5t74.5 42.5t39 33q-1 13 -14.5 25.5t-34 24.5t-44 23t-46.5 21q-24 11 -51 20t-58 18q-21 6 -26.5 14.5t-5.5 18.5q0 3 7.5 20.5t17.5 38.5t21.5 40.5t18.5 26.5q4 4 7 6
t8 3l210 20h31q80 0 80 -81q0 -86 -108 -86q32 -11 55.5 -41t23.5 -64q0 -26 -9 -52.5t-24 -50.5q-26 -42 -70 -81.5t-98 -74.5t-115 -64t-123 -49.5t-120.5 -32t-107.5 -11.5q-79 0 -150.5 19t-125.5 59.5t-85.5 103t-31.5 148.5q0 51 8.5 104t23.5 103.5t34.5 95.5
t41.5 81q15 25 28 36t21 11q9 0 9 -10q0 -9 -5.5 -23.5t-13.5 -29.5q-38 -75 -56.5 -134.5t-18.5 -118.5zM418 -771q8 10 19 22.5t22.5 25.5t21.5 24t17 17q10 10 15 12t10 -4q26 -28 55 -56t58 -48q9 -6 9 -10t-9 -13q-26 -27 -50 -54.5t-48 -56.5q-6 -8 -10 -8t-12 6
q-21 16 -49.5 39.5t-55.5 49.5q-8 -9 -19.5 -22t-23.5 -25.5t-22.5 -23t-17.5 -15.5t-12 -7.5t-16 4.5q-28 17 -59.5 44.5t-53.5 56.5q-5 7 -5 11.5t7 12.5q20 25 47 55t54 57q6 6 10.5 5t12.5 -9q10 -11 23.5 -24.5t28 -26t28.5 -23t25 -16.5z" />
    <glyph glyph-name="uni066E.f" unicode="&#x66e;" horiz-adv-x="1546" 
d="M146 344q0 -15 6 -34t21 -39t41 -40.5t65 -39.5q53 -25 137.5 -37.5t196.5 -12.5q158 0 281 19t208 44q56 17 98.5 30.5t77.5 28t64.5 31t60.5 38.5q3 2 9 6.5t10 4.5q5 0 8.5 -6.5t3.5 -26.5q0 -34 9 -60.5t23.5 -45t33.5 -28t40 -9.5h24q68 0 68 -80q0 -87 -67 -87h-30
q-156 0 -189 165q-58 -29 -129 -62.5t-140 -54.5q-109 -32 -228 -55t-259 -23q-114 0 -206.5 14.5t-154.5 40.5q-80 32 -119 83.5t-39 135.5q0 36 6.5 70.5t16 64.5t20 54t19.5 38q11 18 23.5 31t23.5 13q8 0 8 -11q0 -8 -4 -20t-10 -27q-11 -26 -19 -56t-9 -57z" />
    <glyph glyph-name="uni06A1.i" unicode="&#x66f;" horiz-adv-x="458" 
d="M199 749q34 0 63.5 -19t54 -50t43 -70.5t31.5 -80.5t19.5 -79.5t6.5 -68.5q0 -33 -5 -71t-14 -75t-21.5 -70.5t-27.5 -56.5q-6 -9 -18 -18.5t-26.5 -17.5t-29.5 -14.5t-27 -10.5q-152 -47 -243 -47h-15q-70 0 -70 87q0 80 70 80h14q36 0 74 2.5t73.5 7.5t66.5 11.5
t53 14.5q21 7 33.5 12.5t19 13.5t9 20t2.5 32q0 25 -6 47.5t-17 46.5q-11 -29 -47.5 -50.5t-83.5 -21.5q-60 0 -95 35.5t-35 107.5q0 50 16 103.5t39.5 97.5t49 73t43.5 29zM267 507q0 5 -8.5 25t-25.5 34q-11 10 -26.5 15.5t-27.5 5.5q-20 0 -39 -32q-14 -24 -14 -37
q0 -25 22.5 -36t49.5 -11q26 0 47.5 9.5t21.5 26.5z" />
    <glyph glyph-name="uni06A1.m" unicode="&#x66f;" horiz-adv-x="565" 
d="M579 167q73 0 73 -82q0 -85 -73 -85h-20q-118 1 -193 21.5t-125 49.5q-42 -27 -102.5 -49t-133.5 -22h-16q-69 0 -69 87q0 80 71 80h16q97 0 125 28q-8 29 -8 55q0 42 14.5 86t38 85.5t54.5 79t64 65t65.5 44t59.5 16.5q23 0 40.5 -12.5t29 -34t17.5 -50.5t6 -62
q0 -34 -6.5 -71.5t-20 -73.5t-34.5 -68.5t-49 -58.5q49 -26 157 -28h19zM419 359q0 46 -16.5 71.5t-57.5 25.5q-23 0 -44.5 -10.5t-38.5 -25t-27 -30t-10 -25.5q0 -28 21 -52t68 -51q8 3 25.5 15t35 27t31 30t13.5 25z" />
    <glyph glyph-name="uni066F.f" unicode="&#x66f;" horiz-adv-x="1040" 
d="M868 170q0 8 -5.5 21.5t-15 29t-22 30t-25.5 23.5q-9 7 -17.5 10.5t-19.5 3.5q-12 0 -22 -6t-17 -15t-11 -19t-4 -17q0 -13 16 -26.5t40 -22.5q23 -9 47 -13.5t39 -4.5q11 0 14 1.5t3 4.5zM50 -199q0 30 4 64.5t12.5 70t21 71t30.5 67.5q12 22 25 36t24 14q9 0 9 -13
q0 -17 -13 -46q-27 -62 -37.5 -103t-10.5 -76q0 -51 27.5 -92.5t69.5 -71.5t92 -46t95 -16q74 0 154.5 15t152 43t126 68t76.5 89q6 27 6 52q0 21 -2.5 38.5t-4.5 28.5q-9 -1 -16.5 -1.5t-24.5 -0.5t-38 1t-43.5 4.5t-44.5 10t-40 16.5q-38 22 -54.5 50t-16.5 63q0 17 4 37
t10.5 42t14.5 43.5t16 40.5q14 31 30 59.5t33.5 50.5t35.5 35t35 13q41 0 74.5 -24t57 -64t37.5 -92.5t16 -110.5h63q63 0 63 -76q0 -46 -15.5 -67.5t-47.5 -23.5l-70 -3q-8 -54 -16.5 -94.5t-19.5 -78.5q-4 -14 -11.5 -36.5t-15.5 -37.5q-25 -49 -76 -95.5t-119.5 -83
t-149.5 -58.5t-167 -22q-73 0 -138.5 17t-115 54t-78.5 96t-29 143z" />
    <glyph glyph-name="uni0671.f" unicode="&#x671;" horiz-adv-x="401" arabic-form="final" 
d="M390 0q-36 0 -67 7.5t-56 27.5q-39 32 -61 90t-33 136q-8 60 -13.5 127.5t-8.5 144.5q-2 56 -5 123.5t-7.5 135.5t-10.5 132t-14 113q-2 10 -2 18q0 5 1.5 11.5t9.5 17.5q17 26 29 45.5t23 41.5q8 16 12 20t9 4t10 -11t10 -37q12 -96 15 -207.5t4.5 -221t6 -209.5
t19.5 -174q4 -19 7 -32t6 -24t6.5 -20.5t8.5 -21.5q28 -65 105 -70q86 0 88 -80q0 -50 -21.5 -68.5t-56.5 -18.5h-14zM452 1434q0 -18 -6 -34t-14 -32q-12 -24 -32.5 -48.5t-49.5 -43.5t-68 -31t-88 -12q-42 0 -63 10.5t-37 16.5q-13 5 -23.5 1t-22.5 -18q-22 -25 -39 -25
q-8 0 -12 7.5t2 24.5q5 16 15.5 37.5t24 41t29 33.5t31.5 14q19 0 36 -6t46 -13q17 22 40 47.5t51 47t59.5 36t63.5 14.5q27 0 42 -21t15 -47zM363 1384q-1 6 -9 10.5t-27 4.5q-60 0 -100 -55q17 -3 34 -3q20 0 38.5 4t32.5 10t22.5 13.5t8.5 15.5z" />
    <glyph glyph-name="uni0675.f" unicode="&#x675;" horiz-adv-x="638" 
d="M390 0q-36 0 -67 7.5t-56 27.5q-39 32 -61 90t-33 136q-8 60 -13.5 127.5t-8.5 144.5q-2 56 -5 123.5t-7.5 135.5t-10.5 132t-14 113q-2 10 -2 18q0 5 1.5 11.5t9.5 17.5q17 26 29 45.5t23 41.5q8 16 12 20t9 4t10 -11t10 -37q12 -96 15 -207.5t4.5 -221t6 -209.5
t19.5 -174q4 -19 7 -32t6 -24t6.5 -20.5t8.5 -21.5q28 -65 105 -70h248q78 -3 80 -80q0 -50 -21.5 -68.5t-56.5 -18.5h-254zM690 1331q-2 -6 -9 -21t-14 -26q-8 -14 -13.5 -17.5t-12.5 -8.5q-23 -12 -57.5 -32t-74 -44.5t-81.5 -52.5t-81 -57q-15 -11 -11 10q2 7 5.5 19
t8.5 24q5 10 24 30.5t38 35.5q7 5 7 7.5t-11 6.5q-38 14 -53.5 32.5t-15.5 46.5q0 24 11.5 53t29.5 57.5t40.5 54.5t45.5 45q17 13 36.5 24t44.5 11q58 0 60 -51q0 -29 -17 -72q-10 -25 -18 -27t-24 13q-9 10 -19.5 14t-19.5 4q-21 0 -38.5 -5.5t-30 -13.5t-19.5 -17t-7 -16
q0 -9 15 -19.5t36 -20t43.5 -16t37.5 -6.5q7 0 19 4q12 3 27.5 9.5t31 13.5t28 13.5t16.5 9.5q18 14 24 9.5t-2 -24.5z" />
    <glyph glyph-name="uni0676.f" unicode="&#x676;" horiz-adv-x="1036" 
d="M1052 167q69 0 69 -76q0 -90 -66 -90l-377 -5q-4 -96 -23 -175t-55 -142t-91.5 -109t-133.5 -76q-9 -3 -20.5 -5t-25.5 -2q-27 0 -62.5 6t-74 16t-78.5 24t-77 31q-18 8 -24 16t-6 13q0 12 28 12q7 0 21.5 -2t32.5 -4.5t39 -4.5t40 -2q35 0 69 9.5t83 35.5q66 34 119 74
t90.5 80.5t57.5 79.5t20 72q0 10 -1.5 20.5t-5.5 27.5h-54q-15 0 -35 1.5t-41 5.5t-42.5 10t-39.5 16q-38 21 -54.5 49.5t-16.5 62.5q0 32 12.5 75.5t31.5 85.5q15 35 32 64t34.5 51t35.5 34t35 12q39 0 72.5 -24t56.5 -60q26 -41 38 -96.5t16 -110.5h371zM556 170
q0 7 -5 20t-14 27.5t-20.5 29t-23.5 24.5q-8 6 -17 11.5t-24 5.5q-13 0 -23.5 -6t-17.5 -15t-10.5 -18.5t-3.5 -16.5q0 -28 57 -50q23 -9 46 -13.5t38 -4.5q18 0 18 6zM1031 718q-14 -34 -24 -44.5t-20 -16.5q-23 -12 -57.5 -32t-74 -44.5t-81.5 -52.5t-81 -57q-6 -3 -8 -3
q-4 0 -4 6q0 13 15 50q4 10 23 30t38 35q2 2 4.5 3.5t2.5 3.5q0 4 -10 8q-32 14 -48 25.5t-20 42.5q-1 4 -1 12q0 26 12 55.5t31 58.5t43.5 55.5t48.5 45.5q37 29 75 29q58 0 58 -53q0 -27 -17 -70q-11 -28 -19 -28q-7 0 -21 12q-8 8 -16.5 13.5t-25.5 5.5q-21 0 -38.5 -5.5
t-29.5 -13.5t-19 -16.5t-7 -15.5q0 -9 15.5 -20t36.5 -20t43.5 -15.5t37.5 -6.5q7 0 10 1q7 2 21 7t30 11.5t31.5 14t25.5 14.5q10 6 15 9.5t9 3.5q5 0 5 -7q0 -5 -2.5 -13t-6.5 -18z" />
    <glyph glyph-name="uni0677.f" unicode="&#x677;" horiz-adv-x="1036" 
d="M1052 167q69 0 69 -76q0 -90 -66 -90l-377 -5q-4 -96 -23 -175t-55 -142t-91.5 -109t-133.5 -76q-9 -3 -20.5 -5t-25.5 -2q-27 0 -62.5 6t-74 16t-78.5 24t-77 31q-18 8 -24 16t-6 13q0 12 28 12q7 0 21.5 -2t32.5 -4.5t39 -4.5t40 -2q35 0 69 9.5t83 35.5q66 34 119 74
t90.5 80.5t57.5 79.5t20 72q0 10 -1.5 20.5t-5.5 27.5h-54q-15 0 -35 1.5t-41 5.5t-42.5 10t-39.5 16q-38 21 -54.5 49.5t-16.5 62.5q0 32 12.5 75.5t31.5 85.5q15 35 32 64t34.5 51t35.5 34t35 12q39 0 72.5 -24t56.5 -60q26 -41 38 -96.5t16 -110.5h371zM556 170
q0 7 -5 20t-14 27.5t-20.5 29t-23.5 24.5q-8 6 -17 11.5t-24 5.5q-13 0 -23.5 -6t-17.5 -15t-10.5 -18.5t-3.5 -16.5q0 -28 57 -50q23 -9 46 -13.5t38 -4.5q18 0 18 6zM1031 718q-14 -34 -24 -44.5t-20 -16.5q-23 -12 -57.5 -32t-74 -44.5t-81.5 -52.5t-81 -57q-6 -3 -8 -3
q-4 0 -4 6q0 13 15 50q4 10 23 30t38 35q2 2 4.5 3.5t2.5 3.5q0 4 -10 8q-32 14 -48 25.5t-20 42.5q-1 4 -1 12q0 26 12 55.5t31 58.5t43.5 55.5t48.5 45.5q37 29 75 29q58 0 58 -53q0 -27 -17 -70q-11 -28 -19 -28q-7 0 -21 12q-8 8 -16.5 13.5t-25.5 5.5q-21 0 -38.5 -5.5
t-29.5 -13.5t-19 -16.5t-7 -15.5q0 -9 15.5 -20t36.5 -20t43.5 -15.5t37.5 -6.5q7 0 10 1q7 2 21 7t30 11.5t31.5 14t25.5 14.5q10 6 15 9.5t9 3.5q5 0 5 -7q0 -5 -2.5 -13t-6.5 -18zM493 925q17 0 28.5 -8.5t18.5 -22t10 -29.5t4 -31q0 -53 -22 -108q26 -16 26 -27
q0 -20 -7 -39t-17 -33q-4 -7 -8 -5l-37 23q-13 -21 -31 -44t-40 -45.5t-49.5 -43t-60.5 -35.5q-24 -11 -51.5 -19.5t-56.5 -8.5q-30 0 -30 10q0 8 10.5 12.5t30.5 15.5q24 13 56.5 35.5t65 49t60.5 52.5t43 47q-12 9 -26 19t-25 22t-18.5 26.5t-7.5 32.5q0 24 11.5 47.5
t31.5 48.5q45 58 91 58zM462 833q-9 0 -20.5 -8.5t-19.5 -23.5q-2 -4 -2 -5q0 -7 19 -20.5t39 -22.5q5 9 7 20t2 28q-2 32 -25 32z" />
    <glyph glyph-name="uni0678.i" unicode="&#x678;" horiz-adv-x="538" 
d="M328 286q0 -46 -8 -94t-38 -89q-24 -33 -68.5 -60t-120.5 -38q-21 -3 -49 -4t-55 -1q-35 0 -52.5 25.5t-17.5 57.5t17.5 58t52.5 26h39q28 0 62 1t67 5.5t61.5 13.5t44.5 24q-2 25 -11.5 51.5t-21.5 50.5t-24 44.5t-21 32.5q-1 1 -1 5q0 11 7.5 33t17 44.5t17.5 40.5
t9 20q3 9 9 9q9 0 23.5 -20.5t28 -55.5t23 -81.5t9.5 -98.5zM612 891q-14 -34 -24 -44.5t-20 -16.5q-23 -12 -57.5 -32t-74 -44.5t-81.5 -52.5t-81 -57q-6 -3 -8 -3q-4 0 -4 6q0 13 15 50q4 10 23 30t38 35q2 2 4.5 3.5t2.5 3.5q0 4 -10 8q-32 14 -48 25.5t-20 42.5
q-1 4 -1 12q0 26 12 55.5t31 58.5t43.5 55.5t48.5 45.5q37 29 75 29q58 0 58 -53q0 -27 -17 -70q-11 -28 -19 -28q-7 0 -21 12q-8 8 -16.5 13.5t-25.5 5.5q-21 0 -38.5 -5.5t-29.5 -13.5t-19 -16.5t-7 -15.5q0 -9 15.5 -20t36.5 -20t43.5 -15.5t37.5 -6.5q7 0 10 1q7 2 21 7
t30 11.5t31.5 14t25.5 14.5q10 6 15 9.5t9 3.5q5 0 5 -7q0 -5 -2.5 -13t-6.5 -18z" />
    <glyph glyph-name="uni0678.m" unicode="&#x678;" horiz-adv-x="785" 
d="M344 266q0 -13 8 -28.5t21.5 -29.5t31.5 -24.5t38 -14.5q11 -2 19 -2h16h321q24 0 36.5 -8.5t18.5 -20t7 -24.5t1 -22q0 -8 -1 -23.5t-6.5 -30.5t-18 -26.5t-35.5 -11.5h-324h-18t-24 2q-42 4 -71 22t-48 39t-28.5 38.5t-11.5 21.5q-7 -17 -27 -38.5t-54 -40t-81 -31.5
t-107 -13h-18q-35 0 -52.5 25.5t-17.5 57.5t17.5 58t53.5 26h16q10 0 21 -0.5t24 -0.5q27 0 59 3.5t64.5 15.5t62.5 35.5t53 63.5q14 25 22 31t14 6q8 0 13 -12.5t5 -35.5v-7zM781 704q-14 -34 -24 -44.5t-20 -16.5q-23 -12 -57.5 -32t-74 -44.5t-81.5 -52.5t-81 -57
q-6 -3 -8 -3q-4 0 -4 6q0 13 15 50q4 10 23 30t38 35q2 2 4.5 3.5t2.5 3.5q0 4 -10 8q-32 14 -48 25.5t-20 42.5q-1 4 -1 12q0 26 12 55.5t31 58.5t43.5 55.5t48.5 45.5q37 29 75 29q58 0 58 -53q0 -27 -17 -70q-11 -28 -19 -28q-7 0 -21 12q-8 8 -16.5 13.5t-25.5 5.5
q-21 0 -38.5 -5.5t-29.5 -13.5t-19 -16.5t-7 -15.5q0 -9 15.5 -20t36.5 -20t43.5 -15.5t37.5 -6.5q7 0 10 1q7 2 21 7t30 11.5t31.5 14t25.5 14.5q10 6 15 9.5t9 3.5q5 0 5 -7q0 -5 -2.5 -13t-6.5 -18z" />
    <glyph glyph-name="uni0678.f" unicode="&#x678;" horiz-adv-x="1328" 
d="M1034 0q32 -11 55.5 -41t23.5 -64q0 -26 -9 -52.5t-24 -50.5q-26 -42 -70 -81.5t-98 -74.5t-116 -64t-124.5 -49.5t-122 -32t-110.5 -11.5q-29 0 -60 3.5t-66 11.5q-73 17 -123 49.5t-80.5 75t-43.5 94t-13 106.5q0 48 8.5 98.5t23.5 100t34.5 94.5t41.5 81q15 25 28 36
t21 11t9 -6t-1.5 -15.5t-7.5 -20.5t-10 -21q-37 -74 -56 -134t-19 -119q0 -103 62 -170t175 -93q58 -14 118 -14q48 0 104 11t113.5 29t111.5 40t98.5 44.5t74.5 42.5t39 33q-1 13 -14.5 25.5t-34 24.5t-44 23t-46.5 21q-24 10 -51 19.5t-58 18.5q-21 6 -26.5 14.5
t-5.5 18.5q0 3 7.5 20.5t17.5 38.5t21.5 40.5t18.5 26.5q4 4 7 6t8 3l541 20q80 0 80 -81q0 -86 -108 -86h-300zM1308 478q-14 -34 -24 -44.5t-20 -16.5q-23 -12 -57.5 -32t-74 -44.5t-81.5 -52.5t-81 -57q-6 -3 -8 -3q-4 0 -4 6q0 13 15 50q4 10 23 30t38 35q2 2 4.5 3.5
t2.5 3.5q0 4 -10 8q-32 14 -48 25.5t-20 42.5q-1 4 -1 12q0 26 12 55.5t31 58.5t43.5 55.5t48.5 45.5q37 29 75 29q58 0 58 -53q0 -27 -17 -70q-11 -28 -19 -28q-7 0 -21 12q-8 8 -16.5 13.5t-25.5 5.5q-21 0 -38.5 -5.5t-29.5 -13.5t-19 -16.5t-7 -15.5q0 -9 15.5 -20
t36.5 -20t43.5 -15.5t37.5 -6.5q7 0 10 1q7 2 21 7t30 11.5t31.5 14t25.5 14.5q10 6 15 9.5t9 3.5q5 0 5 -7q0 -5 -2.5 -13t-6.5 -18z" />
    <glyph glyph-name="uni0679.i" unicode="&#x679;" horiz-adv-x="375" arabic-form="initial" 
d="M328 286q0 -46 -8 -94t-38 -89q-24 -33 -68.5 -60t-120.5 -38q-21 -3 -49 -4t-55 -1q-35 0 -52.5 25.5t-17.5 57.5t17.5 58t52.5 26h39q28 0 62 1t67 5.5t61.5 13.5t44.5 24q-2 25 -11.5 51.5t-21.5 50.5t-24 44.5t-21 32.5q-1 1 -1 5q0 11 7.5 33t17 44.5t17.5 40.5
t9 20q3 9 9 9q9 0 23.5 -20.5t28 -55.5t23 -81.5t9.5 -98.5zM229 898q51 51 89.5 74t64.5 23q43 0 61 -18.5t18 -49.5q0 -29 -11.5 -59.5t-31.5 -54.5q-23 -25 -68.5 -44t-94.5 -31t-92.5 -18t-63.5 -6q-4 0 -18 5.5t-30.5 14t-32.5 18.5t-26 19q-24 22 9 22q38 0 74 2.5
t67 10.5q5 1 15 14t17 28q5 12 6 27t1 32q0 38 -5 72t-13 58q-3 9 -9.5 23t-6.5 40q0 11 3.5 22.5t8.5 21t10.5 15.5t10.5 6t9 -9q4 -10 19 -27.5t29 -29.5q4 -6 2 -12q-2 -10 -9.5 -27t-5.5 -28q3 -29 3.5 -62t0.5 -72zM383 865q5 3 5 10q0 6 -10 12t-41 6q-9 0 -23 -6.5
t-29.5 -17t-32 -23.5t-31.5 -27q-5 -7 6 -4q28 8 47.5 13t36.5 10t33.5 11t38.5 16z" />
    <glyph glyph-name="uni0679.m" unicode="&#x679;" horiz-adv-x="488" arabic-form="medial" 
d="M326 321q8 0 13 -12t5 -41q0 -16 8 -32t21.5 -29.5t31.5 -23.5t38 -14q11 -2 19 -2h16h10q24 0 36.5 -8.5t18.5 -20t7 -24.5t1 -22q0 -8 -1 -23.5t-6.5 -30.5t-18 -26.5t-35.5 -11.5h-13h-18t-24 2q-42 4 -71 22t-48 38.5t-28.5 38.5t-11.5 22q-7 -17 -27 -38.5t-54 -40
t-81 -31.5t-107 -13h-7q-35 0 -52.5 25.5t-17.5 57.5t17.5 58t53.5 26h50q27 0 59 3.5t64.5 15.5t62.5 35t53 63q14 25 22 31t14 6zM267 700q51 51 89.5 74t64.5 23q43 0 61 -18.5t18 -49.5q0 -29 -11.5 -59.5t-31.5 -54.5q-23 -25 -68.5 -44t-94.5 -31t-92.5 -18t-63.5 -6
q-4 0 -18 5.5t-30.5 14t-32.5 18.5t-26 19q-24 22 9 22q38 0 74 2.5t67 10.5q5 1 15 14t17 28q5 12 6 27t1 32q0 38 -5 72t-13 58q-3 9 -9.5 23t-6.5 40q0 11 3.5 22.5t8.5 21t10.5 15.5t10.5 6t9 -9q4 -10 19 -27.5t29 -29.5q4 -6 2 -12q-2 -10 -9.5 -27t-5.5 -28
q3 -29 3.5 -62t0.5 -72zM421 667q5 3 5 10q0 6 -10 12t-41 6q-9 0 -23 -6.5t-29.5 -17t-32 -23.5t-31.5 -27q-5 -7 6 -4q28 8 47.5 13t36.5 10t33.5 11t38.5 16z" />
    <glyph glyph-name="uni0679.f" unicode="&#x679;" horiz-adv-x="1546" arabic-form="final" 
d="M146 344q0 -15 6 -34t21 -39t41 -40.5t65 -39.5q53 -25 137.5 -37.5t196.5 -12.5q158 0 281 19t208 44q56 17 98.5 30.5t77.5 28t64.5 31t60.5 38.5q3 2 9 6.5t10 4.5q5 0 8.5 -6.5t3.5 -26.5q0 -34 9 -60.5t23.5 -45t33.5 -28t40 -9.5h24q68 0 68 -80q0 -87 -67 -87h-30
q-156 0 -189 165q-58 -29 -129 -62.5t-140 -54.5q-109 -32 -228 -55t-259 -23q-114 0 -206.5 14.5t-154.5 40.5q-80 32 -119 83.5t-39 135.5q0 36 6.5 70.5t16 64.5t20 54t19.5 38q11 18 23.5 31t23.5 13q8 0 8 -11q0 -8 -4 -20t-10 -27q-11 -26 -19 -56t-9 -57zM804 692
q51 51 89.5 74t64.5 23q43 0 61 -18.5t18 -49.5q0 -29 -11.5 -59.5t-31.5 -54.5q-23 -25 -68.5 -44t-94.5 -31t-92.5 -18t-63.5 -6q-4 0 -18 5.5t-30.5 14t-32.5 18.5t-26 19q-24 22 9 22q38 0 74 2.5t67 10.5q5 1 15 14t17 28q5 12 6 27t1 32q0 38 -5 72t-13 58
q-3 9 -9.5 23t-6.5 40q0 11 3.5 22.5t8.5 21t10.5 15.5t10.5 6t9 -9q4 -10 19 -27.5t29 -29.5q4 -6 2 -12q-2 -10 -9.5 -27t-5.5 -28q3 -29 3.5 -62t0.5 -72zM958 659q5 3 5 10q0 6 -10 12t-41 6q-9 0 -23 -6.5t-29.5 -17t-32 -23.5t-31.5 -27q-5 -7 6 -4q28 8 47.5 13
t36.5 10t33.5 11t38.5 16z" />
    <glyph glyph-name="uni067E.i" unicode="&#x67e;" horiz-adv-x="375" arabic-form="initial" 
d="M328 286q0 -46 -8 -94t-38 -89q-24 -33 -68.5 -60t-120.5 -38q-21 -3 -49 -4t-55 -1q-35 0 -52.5 25.5t-17.5 57.5t17.5 58t52.5 26h39q28 0 62 1t67 5.5t61.5 13.5t44.5 24q-2 25 -11.5 51.5t-21.5 50.5t-24 44.5t-21 32.5q-1 1 -1 5q0 11 7.5 33t17 44.5t17.5 40.5
t9 20q3 9 9 9q9 0 23.5 -20.5t28 -55.5t23 -81.5t9.5 -98.5zM225 -496q21 -23 57.5 -54t74.5 -56q8 -5 -1 -14q-7 -9 -20 -24.5t-28.5 -33.5t-30.5 -35t-25 -29q-5 -5 -8 -5.5t-9 3.5q-13 7 -31.5 20.5t-37.5 28.5t-35 30.5t-23 26.5q-4 6 -4 8.5t4 9.5q18 28 45.5 60
t49.5 54q11 11 14.5 12.5t7.5 -2.5zM219 -281q8 10 19 22.5t22.5 25.5t21.5 24t17 17q10 10 15 12t10 -4q26 -28 55 -56t58 -48q9 -6 9 -10t-9 -13q-26 -27 -50 -54.5t-48 -56.5q-6 -8 -10 -8t-12 6q-21 16 -49.5 39.5t-55.5 49.5q-8 -9 -19.5 -22t-23.5 -25.5t-22.5 -23
t-17.5 -15.5t-12 -7.5t-16 4.5q-28 17 -59.5 44.5t-53.5 56.5q-5 7 -5 11.5t7 12.5q20 25 47 55t54 57q6 6 10.5 5t12.5 -9q10 -11 23.5 -24.5t28 -26t28.5 -23t25 -16.5z" />
    <glyph glyph-name="uni067E.m" unicode="&#x67e;" horiz-adv-x="488" arabic-form="medial" 
d="M326 321q8 0 13 -12t5 -41q0 -16 8 -32t21.5 -29.5t31.5 -23.5t38 -14q11 -2 19 -2h16h10q24 0 36.5 -8.5t18.5 -20t7 -24.5t1 -22q0 -8 -1 -23.5t-6.5 -30.5t-18 -26.5t-35.5 -11.5h-13h-18t-24 2q-42 4 -71 22t-48 38.5t-28.5 38.5t-11.5 22q-7 -17 -27 -38.5t-54 -40
t-81 -31.5t-107 -13h-7q-35 0 -52.5 25.5t-17.5 57.5t17.5 58t53.5 26h50q27 0 59 3.5t64.5 15.5t62.5 35t53 63q14 25 22 31t14 6zM267 -520q21 -23 57.5 -54t74.5 -56q8 -5 -1 -14q-7 -9 -20 -24.5t-28.5 -33.5t-30.5 -35t-25 -29q-5 -5 -8 -5.5t-9 3.5q-13 7 -31.5 20.5
t-37.5 28.5t-35 30.5t-23 26.5q-4 6 -4 8.5t4 9.5q18 28 45.5 60t49.5 54q11 11 14.5 12.5t7.5 -2.5zM261 -305q8 10 19 22.5t22.5 25.5t21.5 24t17 17q10 10 15 12t10 -4q26 -28 55 -56t58 -48q9 -6 9 -10t-9 -13q-26 -27 -50 -54.5t-48 -56.5q-6 -8 -10 -8t-12 6
q-21 16 -49.5 39.5t-55.5 49.5q-8 -9 -19.5 -22t-23.5 -25.5t-22.5 -23t-17.5 -15.5t-12 -7.5t-16 4.5q-28 17 -59.5 44.5t-53.5 56.5q-5 7 -5 11.5t7 12.5q20 25 47 55t54 57q6 6 10.5 5t12.5 -9q10 -11 23.5 -24.5t28 -26t28.5 -23t25 -16.5z" />
    <glyph glyph-name="uni067E.f" unicode="&#x67e;" horiz-adv-x="1546" arabic-form="final" 
d="M146 344q0 -15 6 -34t21 -39t41 -40.5t65 -39.5q53 -25 137.5 -37.5t196.5 -12.5q158 0 281 19t208 44q56 17 98.5 30.5t77.5 28t64.5 31t60.5 38.5q3 2 9 6.5t10 4.5q5 0 8.5 -6.5t3.5 -26.5q0 -34 9 -60.5t23.5 -45t33.5 -28t40 -9.5h24q68 0 68 -80q0 -87 -67 -87h-30
q-156 0 -189 165q-58 -29 -129 -62.5t-140 -54.5q-109 -32 -228 -55t-259 -23q-114 0 -206.5 14.5t-154.5 40.5q-80 32 -119 83.5t-39 135.5q0 36 6.5 70.5t16 64.5t20 54t19.5 38q11 18 23.5 31t23.5 13q8 0 8 -11q0 -8 -4 -20t-10 -27q-11 -26 -19 -56t-9 -57zM783 -499
q21 -23 57.5 -54t74.5 -56q8 -5 -1 -14q-7 -9 -20 -24.5t-28.5 -33.5t-30.5 -35t-25 -29q-5 -5 -8 -5.5t-9 3.5q-13 7 -31.5 20.5t-37.5 28.5t-35 30.5t-23 26.5q-4 6 -4 8.5t4 9.5q18 28 45.5 60t49.5 54q11 11 14.5 12.5t7.5 -2.5zM777 -284q8 10 19 22.5t22.5 25.5
t21.5 24t17 17q10 10 15 12t10 -4q26 -28 55 -56t58 -48q9 -6 9 -10t-9 -13q-26 -27 -50 -54.5t-48 -56.5q-6 -8 -10 -8t-12 6q-21 16 -49.5 39.5t-55.5 49.5q-8 -9 -19.5 -22t-23.5 -25.5t-22.5 -23t-17.5 -15.5t-12 -7.5t-16 4.5q-28 17 -59.5 44.5t-53.5 56.5
q-5 7 -5 11.5t7 12.5q20 25 47 55t54 57q6 6 10.5 5t12.5 -9q10 -11 23.5 -24.5t28 -26t28.5 -23t25 -16.5z" />
    <glyph glyph-name="uni0686.i" unicode="&#x686;" horiz-adv-x="1101" arabic-form="initial" 
d="M553 304q-54 15 -102.5 30t-91.5 27t-79.5 19.5t-65.5 7.5q-30 0 -47 -8q-11 -5 -28.5 -13.5t-30.5 -8.5q-8 0 -11 5t-3 12q0 12 7.5 29t19.5 35.5t28 36.5t33 32q27 23 53 32.5t50 9.5q9 0 17.5 -1t16.5 -3q50 -11 105.5 -29t112.5 -37t112.5 -36t105.5 -26
q69 -15 135.5 -21t114.5 -6h18t16 1q5 0 5 -6q0 -10 -8 -29t-20 -40t-26 -39.5t-26 -29.5q-5 -5 -15.5 -5.5t-25.5 -0.5q-13 0 -33.5 1t-41.5 2t-39 2t-25 1q-48 0 -88 -4.5t-75 -15.5q-23 -8 -65 -25.5t-103 -45.5q-91 -47 -156 -77.5t-107 -44.5q-84 -32 -182 -35h-19
q-81 0 -81 88q0 79 81 79h20q152 0 252 31q52 14 125 40.5t167 65.5zM588 -304q21 -23 57.5 -54t74.5 -56q8 -5 -1 -14q-7 -9 -20 -24.5t-28.5 -33.5t-30.5 -35t-25 -29q-5 -5 -8 -5.5t-9 3.5q-13 7 -31.5 20.5t-37.5 28.5t-35 30.5t-23 26.5q-4 6 -4 8.5t4 9.5
q18 28 45.5 60t49.5 54q11 11 14.5 12.5t7.5 -2.5zM582 -89q8 10 19 22.5t22.5 25.5t21.5 24t17 17q10 10 15 12t10 -4q26 -28 55 -56t58 -48q9 -6 9 -10t-9 -13q-26 -27 -50 -54.5t-48 -56.5q-6 -8 -10 -8t-12 6q-21 16 -49.5 39.5t-55.5 49.5q-8 -9 -19.5 -22t-23.5 -25.5
t-22.5 -23t-17.5 -15.5t-12 -7.5t-16 4.5q-28 17 -59.5 44.5t-53.5 56.5q-5 7 -5 11.5t7 12.5q20 25 47 55t54 57q6 6 10.5 5t12.5 -9q10 -11 23.5 -24.5t28 -26t28.5 -23t25 -16.5z" />
    <glyph glyph-name="uni0686.m" unicode="&#x686;" horiz-adv-x="1084" arabic-form="medial" 
d="M1044 384q0 -10 -8 -28.5t-20 -39t-26 -39t-26 -29.5q-2 -2 -3.5 -3t-6.5 -2q-9 -1 -16.5 -1h-14.5q-15 0 -27 0.5t-24.5 1t-26 2t-31.5 2.5q1 -39 65 -59t137 -22h82q83 0 83 -79q0 -88 -83 -88h-70q-146 1 -201 61q-51 56 -53 188q-36 0 -61 -2t-44.5 -5.5t-36 -8.5
t-33.5 -12q-12 -4 -24.5 -9.5t-29.5 -12.5t-39 -17t-52 -25q-90 -45 -152.5 -75.5t-104.5 -44.5q-42 -16 -90 -25.5t-97 -11.5h-24q-78 0 -78 86q0 81 78 81h24q151 0 251 31q54 14 124.5 40t158.5 64q-51 14 -98.5 29.5t-90 28t-78.5 20.5t-65 8q-24 0 -45 -8
q-11 -5 -28.5 -13.5t-30.5 -8.5q-14 0 -14 15q0 23 22.5 59t65.5 76q26 24 52.5 33t50.5 9q9 0 17.5 -1t16.5 -3q50 -11 105.5 -29t112.5 -37t112.5 -36t105.5 -26q69 -15 135.5 -21t114.5 -6h16.5t16.5 1q6 0 6 -8zM575 -309q21 -23 57.5 -54t74.5 -56q8 -5 -1 -14
q-7 -9 -20 -24.5t-28.5 -33.5t-30.5 -35t-25 -29q-5 -5 -8 -5.5t-9 3.5q-13 7 -31.5 20.5t-37.5 28.5t-35 30.5t-23 26.5q-4 6 -4 8.5t4 9.5q18 28 45.5 60t49.5 54q11 11 14.5 12.5t7.5 -2.5zM569 -94q8 10 19 22.5t22.5 25.5t21.5 24t17 17q10 10 15 12t10 -4
q26 -28 55 -56t58 -48q9 -6 9 -10t-9 -13q-26 -27 -50 -54.5t-48 -56.5q-6 -8 -10 -8t-12 6q-21 16 -49.5 39.5t-55.5 49.5q-8 -9 -19.5 -22t-23.5 -25.5t-22.5 -23t-17.5 -15.5t-12 -7.5t-16 4.5q-28 17 -59.5 44.5t-53.5 56.5q-5 7 -5 11.5t7 12.5q20 25 47 55t54 57
q6 6 10.5 5t12.5 -9q10 -11 23.5 -24.5t28 -26t28.5 -23t25 -16.5z" />
    <glyph glyph-name="uni0686.f" unicode="&#x686;" horiz-adv-x="1024" arabic-form="final" 
d="M814 -737q127 0 203.5 8t101.5 8q16 0 21 -2.5t5 -7.5t-6.5 -11t-16 -12t-21 -12t-22.5 -10q-41 -18 -93.5 -39t-112.5 -39t-126 -30t-135 -12q-121 0 -223 32t-176.5 96t-116 161t-41.5 227q0 120 30 231t82.5 202.5t125 158.5t156.5 98q-47 10 -85.5 14t-70.5 4
q-60 0 -101 -11.5t-73 -25.5q-25 -11 -34.5 -12.5t-16.5 -1.5q-11 0 -11 12q0 8 5.5 25t15 36.5t21.5 38.5t25 31q41 38 94 51.5t115 13.5q57 0 114.5 -8.5t115.5 -18t116.5 -18t118.5 -8.5q51 0 89 2.5t64 2.5q20 0 24.5 -2t4.5 -8q0 -14 -11 -38t-26.5 -47t-31 -40.5
t-24.5 -18.5q-27 0 -53.5 -1.5t-53.5 -3.5q0 -26 9 -48t26 -36q33 -27 163 -27h60q76 0 76 -79q0 -88 -76 -88h-108q-102 0 -153 58q-39 45 -39 144q0 15 1 33t3 38q-44 -6 -87.5 -16t-88.5 -25q-122 -42 -205.5 -107.5t-135 -138.5t-74 -145.5t-22.5 -127.5
q0 -59 11.5 -115.5t40.5 -106.5t79 -91.5t126 -72t181.5 -47.5t246.5 -17zM591 -359q21 -23 57.5 -54t74.5 -56q8 -5 -1 -14q-7 -9 -20 -24.5t-28.5 -33.5t-30.5 -35t-25 -29q-5 -5 -8 -5.5t-9 3.5q-13 7 -31.5 20.5t-37.5 28.5t-35 30.5t-23 26.5q-4 6 -4 8.5t4 9.5
q18 28 45.5 60t49.5 54q11 11 14.5 12.5t7.5 -2.5zM585 -144q8 10 19 22.5t22.5 25.5t21.5 24t17 17q10 10 15 12t10 -4q26 -28 55 -56t58 -48q9 -6 9 -10t-9 -13q-26 -27 -50 -54.5t-48 -56.5q-6 -8 -10 -8t-12 6q-21 16 -49.5 39.5t-55.5 49.5q-8 -9 -19.5 -22
t-23.5 -25.5t-22.5 -23t-17.5 -15.5t-12 -7.5t-16 4.5q-28 17 -59.5 44.5t-53.5 56.5q-5 7 -5 11.5t7 12.5q20 25 47 55t54 57q6 6 10.5 5t12.5 -9q10 -11 23.5 -24.5t28 -26t28.5 -23t25 -16.5z" />
    <glyph glyph-name="uni0688.f" unicode="&#x688;" horiz-adv-x="817" arabic-form="final" 
d="M720 215q44 -46 90 -48h24q73 0 73 -81q0 -86 -76 -86h-22q-85 5 -128 48q-50 41 -82 142q-9 -43 -38.5 -78.5t-73.5 -61t-101 -39.5t-122 -14q-38 0 -78.5 6.5t-75.5 29.5q-23 15 -35.5 34t-12.5 45q0 29 7.5 67.5t22.5 71.5q5 11 10.5 17.5t13.5 6.5t11.5 -6.5
t7.5 -18.5q6 -19 21.5 -33t38 -22t50.5 -12t59 -4q116 0 177.5 25t86.5 68q2 11 3 23.5t1 26.5q0 35 -5 74t-13 81t-17 85t-18 85q-4 19 -4 33q0 3 1 9t5 17.5t11.5 30.5t19.5 49q8 20 15 33t13 13q10 0 20 -44q21 -91 33 -168.5t21 -141t16 -114t17 -86.5q11 -39 33 -63z
M584 1161q51 51 89.5 74t64.5 23q43 0 61 -18.5t18 -49.5q0 -29 -11.5 -59.5t-31.5 -54.5q-23 -25 -68.5 -44t-94.5 -31t-92.5 -18t-63.5 -6q-4 0 -18 5.5t-30.5 14t-32.5 18.5t-26 19q-24 22 9 22q38 0 74 2.5t67 10.5q5 1 15 14t17 28q5 12 6 27t1 32q0 38 -5 72t-13 58
q-3 9 -9.5 23t-6.5 40q0 11 3.5 22.5t8.5 21t10.5 15.5t10.5 6t9 -9q4 -10 19 -27.5t29 -29.5q4 -6 2 -12q-2 -10 -9.5 -27t-5.5 -28q3 -29 3.5 -62t0.5 -72zM738 1128q5 3 5 10q0 6 -10 12t-41 6q-9 0 -23 -6.5t-29.5 -17t-32 -23.5t-31.5 -27q-5 -7 6 -4q28 8 47.5 13
t36.5 10t33.5 11t38.5 16z" />
    <glyph glyph-name="uni0691.f" unicode="&#x691;" horiz-adv-x="701" arabic-form="final" 
d="M715 167q81 0 81 -82q0 -85 -81 -85h-17q-68 0 -96 7q0 -6 0.5 -12.5t0.5 -12.5q0 -41 -6.5 -80t-20.5 -72q-15 -34 -34 -77t-48.5 -87t-73 -84.5t-106.5 -69.5q-43 -20 -89 -20q-25 0 -56 6.5t-65 17t-69 24t-67 28.5q-19 9 -25 16t-6 13q0 15 28 15q17 0 42.5 -2.5
t51.5 -2.5q86 0 168.5 34t149 87t111.5 117t55 125q0 15 -12.5 35.5t-28.5 41t-31.5 37.5t-21.5 24q-4 5 -4 19t4.5 34t11 39.5t13.5 36t13 25.5q11 16 20 16t18.5 -11t24.5 -37q20 -34 52 -48.5t83 -14.5h30zM478 590q51 51 89.5 74t64.5 23q43 0 61 -18.5t18 -49.5
q0 -29 -11.5 -59.5t-31.5 -54.5q-23 -25 -68.5 -44t-94.5 -31t-92.5 -18t-63.5 -6q-4 0 -18 5.5t-30.5 14t-32.5 18.5t-26 19q-24 22 9 22q38 0 74 2.5t67 10.5q5 1 15 14t17 28q5 12 6 27t1 32q0 38 -5 72t-13 58q-3 9 -9.5 23t-6.5 40q0 11 3.5 22.5t8.5 21t10.5 15.5
t10.5 6t9 -9q4 -10 19 -27.5t29 -29.5q4 -6 2 -12q-2 -10 -9.5 -27t-5.5 -28q3 -29 3.5 -62t0.5 -72zM632 557q5 3 5 10q0 6 -10 12t-41 6q-9 0 -23 -6.5t-29.5 -17t-32 -23.5t-31.5 -27q-5 -7 6 -4q28 8 47.5 13t36.5 10t33.5 11t38.5 16z" />
    <glyph glyph-name="uni0698.f" unicode="&#x698;" horiz-adv-x="701" arabic-form="final" 
d="M715 167q81 0 81 -82q0 -85 -81 -85h-17q-68 0 -96 7q0 -6 0.5 -12.5t0.5 -12.5q0 -41 -6.5 -80t-20.5 -72q-15 -34 -34 -77t-48.5 -87t-73 -84.5t-106.5 -69.5q-43 -20 -89 -20q-25 0 -56 6.5t-65 17t-69 24t-67 28.5q-19 9 -25 16t-6 13q0 15 28 15q17 0 42.5 -2.5
t51.5 -2.5q86 0 168.5 34t149 87t111.5 117t55 125q0 15 -12.5 35.5t-28.5 41t-31.5 37.5t-21.5 24q-4 5 -4 19t4.5 34t11 39.5t13.5 36t13 25.5q11 16 20 16t18.5 -11t24.5 -37q20 -34 52 -48.5t83 -14.5h30zM419 1029q21 -23 57.5 -54t74.5 -56q8 -5 -1 -14
q-7 -9 -20 -24.5t-28.5 -33.5t-30.5 -35t-25 -29q-5 -5 -8 -5.5t-9 3.5q-13 8 -31.5 21t-37.5 28t-35 30.5t-23 26.5q-4 6 -4 8.5t4 9.5q18 28 45.5 60t49.5 54q11 11 14.5 12.5t7.5 -2.5zM445 589q8 10 19 22.5t22.5 25.5t21.5 24t17 17q10 10 15 12t10 -4q26 -28 55 -56
t58 -48q9 -6 9 -10t-9 -13q-26 -27 -50 -54.5t-48 -56.5q-6 -8 -10 -8t-12 6q-21 16 -49.5 39.5t-55.5 49.5q-8 -9 -19.5 -22t-23.5 -25.5t-22.5 -23t-17.5 -15.5t-12 -7.5t-16 4.5q-28 17 -59.5 44.5t-53.5 56.5q-5 7 -5 11.5t7 12.5q20 25 47 55t54 57q6 6 10.5 5t12.5 -9
q10 -11 23.5 -24.5t28 -26t28.5 -23t25 -16.5z" />
    <glyph glyph-name="uni06A1.f" unicode="&#x6a1;" horiz-adv-x="1616" 
d="M1629 167q85 0 85 -82q0 -85 -85 -85h-18q-118 0 -199 23t-126 55q-51 -24 -125.5 -49t-162.5 -45t-183.5 -33t-188.5 -13q-175 0 -284 30.5t-170 78.5t-82.5 107.5t-21.5 118.5q0 29 5 63t14.5 69.5t24 71t33.5 65.5q15 23 25.5 33t18.5 10q9 0 9 -12q0 -8 -3.5 -19.5
t-8.5 -22.5q-14 -31 -24.5 -65.5t-10.5 -71.5q0 -62 28 -108t73.5 -78t104.5 -52t121.5 -31.5t122.5 -15.5t109 -4q70 0 138.5 6.5t131.5 18t119 25.5t101 29q-5 14 -6.5 28t-1.5 29q0 42 14.5 86t38 86t54.5 79t63.5 65t65 44.5t59.5 16.5q23 0 40.5 -12.5t29 -34
t17.5 -50.5t6 -62q0 -34 -6.5 -71.5t-20 -73.5t-34.5 -68.5t-49 -58.5q32 -20 141 -20h18zM1486 351q0 46 -16.5 71.5t-57.5 25.5q-22 0 -44 -10.5t-38.5 -25t-27 -29.5t-10.5 -25q2 -18 7.5 -31t16 -24.5t27 -23t38.5 -25.5q8 3 25.5 15t35 27t31 30t13.5 25z" />
    <glyph glyph-name="uni06A4.i" unicode="&#x6a4;" horiz-adv-x="458" arabic-form="initial" 
d="M199 749q34 0 63.5 -19t54 -50t43 -70.5t31.5 -80.5t19.5 -79.5t6.5 -68.5q0 -33 -5 -71t-14 -75t-21.5 -70.5t-27.5 -56.5q-6 -9 -18 -18.5t-26.5 -17.5t-29.5 -14.5t-27 -10.5q-152 -47 -243 -47h-15q-70 0 -70 87q0 80 70 80h14q36 0 74 2.5t73.5 7.5t66.5 11.5
t53 14.5q21 7 33.5 12.5t19 13.5t9 20t2.5 32q0 25 -6 47.5t-17 46.5q-11 -29 -47.5 -50.5t-83.5 -21.5q-60 0 -95 35.5t-35 107.5q0 50 16 103.5t39.5 97.5t49 73t43.5 29zM267 507q0 5 -8.5 25t-25.5 34q-11 10 -26.5 15.5t-27.5 5.5q-20 0 -39 -32q-14 -24 -14 -37
q0 -25 22.5 -36t49.5 -11q26 0 47.5 9.5t21.5 26.5zM156 1567q21 -23 57.5 -54t74.5 -56q8 -5 -1 -14q-7 -9 -20 -24.5t-28.5 -33.5t-30.5 -35t-25 -29q-5 -5 -8 -5.5t-9 3.5q-13 8 -31.5 21t-37.5 28t-35 30.5t-23 26.5q-4 6 -4 8.5t4 9.5q18 28 45.5 60t49.5 54
q11 11 14.5 12.5t7.5 -2.5zM182 1127q8 10 19 22.5t22.5 25.5t21.5 24t17 17q10 10 15 12t10 -4q26 -28 55 -56t58 -48q9 -6 9 -10t-9 -13q-26 -27 -50 -54.5t-48 -56.5q-6 -8 -10 -8t-12 6q-21 16 -49.5 39.5t-55.5 49.5q-8 -9 -19.5 -22t-23.5 -25.5t-22.5 -23
t-17.5 -15.5t-12 -7.5t-16 4.5q-28 17 -59.5 44.5t-53.5 56.5q-5 7 -5 11.5t7 12.5q20 25 47 55t54 57q6 6 10.5 5t12.5 -9q10 -11 23.5 -24.5t28 -26t28.5 -23t25 -16.5z" />
    <glyph glyph-name="uni06A4.m" unicode="&#x6a4;" horiz-adv-x="565" arabic-form="medial" 
d="M579 167q73 0 73 -82q0 -85 -73 -85h-20q-118 1 -193 21.5t-125 49.5q-42 -27 -102.5 -49t-133.5 -22h-16q-69 0 -69 87q0 80 71 80h16q97 0 125 28q-8 29 -8 55q0 42 14.5 86t38 85.5t54.5 79t64 65t65.5 44t59.5 16.5q23 0 40.5 -12.5t29 -34t17.5 -50.5t6 -62
q0 -34 -6.5 -71.5t-20 -73.5t-34.5 -68.5t-49 -58.5q49 -26 157 -28h19zM419 359q0 46 -16.5 71.5t-57.5 25.5q-23 0 -44.5 -10.5t-38.5 -25t-27 -30t-10 -25.5q0 -28 21 -52t68 -51q8 3 25.5 15t35 27t31 30t13.5 25zM236 1442q21 -23 57.5 -54t74.5 -56q8 -5 -1 -14
q-7 -9 -20 -24.5t-28.5 -33.5t-30.5 -35t-25 -29q-5 -5 -8 -5.5t-9 3.5q-13 8 -31.5 21t-37.5 28t-35 30.5t-23 26.5q-4 6 -4 8.5t4 9.5q18 28 45.5 60t49.5 54q11 11 14.5 12.5t7.5 -2.5zM262 1002q8 10 19 22.5t22.5 25.5t21.5 24t17 17q10 10 15 12t10 -4q26 -28 55 -56
t58 -48q9 -6 9 -10t-9 -13q-26 -27 -50 -54.5t-48 -56.5q-6 -8 -10 -8t-12 6q-21 16 -49.5 39.5t-55.5 49.5q-8 -9 -19.5 -22t-23.5 -25.5t-22.5 -23t-17.5 -15.5t-12 -7.5t-16 4.5q-28 17 -59.5 44.5t-53.5 56.5q-5 7 -5 11.5t7 12.5q20 25 47 55t54 57q6 6 10.5 5t12.5 -9
q10 -11 23.5 -24.5t28 -26t28.5 -23t25 -16.5z" />
    <glyph glyph-name="uni06A4.f" unicode="&#x6a4;" horiz-adv-x="1616" arabic-form="final" 
d="M1629 167q85 0 85 -82q0 -85 -85 -85h-18q-118 0 -199 23t-126 55q-51 -24 -125.5 -49t-162.5 -45t-183.5 -33t-188.5 -13q-175 0 -284 30.5t-170 78.5t-82.5 107.5t-21.5 118.5q0 29 5 63t14.5 69.5t24 71t33.5 65.5q15 23 25.5 33t18.5 10q9 0 9 -12q0 -8 -3.5 -19.5
t-8.5 -22.5q-14 -31 -24.5 -65.5t-10.5 -71.5q0 -62 28 -108t73.5 -78t104.5 -52t121.5 -31.5t122.5 -15.5t109 -4q70 0 138.5 6.5t131.5 18t119 25.5t101 29q-5 14 -6.5 28t-1.5 29q0 42 14.5 86t38 86t54.5 79t63.5 65t65 44.5t59.5 16.5q23 0 40.5 -12.5t29 -34
t17.5 -50.5t6 -62q0 -34 -6.5 -71.5t-20 -73.5t-34.5 -68.5t-49 -58.5q32 -20 141 -20h18zM1486 351q0 46 -16.5 71.5t-57.5 25.5q-22 0 -44 -10.5t-38.5 -25t-27 -29.5t-10.5 -25q2 -18 7.5 -31t16 -24.5t27 -23t38.5 -25.5q8 3 25.5 15t35 27t31 30t13.5 25zM1134 1321
q21 -23 57.5 -54t74.5 -56q8 -5 -1 -14q-7 -9 -20 -24.5t-28.5 -33.5t-30.5 -35t-25 -29q-5 -5 -8 -5.5t-9 3.5q-13 8 -31.5 21t-37.5 28t-35 30.5t-23 26.5q-4 6 -4 8.5t4 9.5q18 28 45.5 60t49.5 54q11 11 14.5 12.5t7.5 -2.5zM1160 881q8 10 19 22.5t22.5 25.5t21.5 24
t17 17q10 10 15 12t10 -4q26 -28 55 -56t58 -48q9 -6 9 -10t-9 -13q-26 -27 -50 -54.5t-48 -56.5q-6 -8 -10 -8t-12 6q-21 16 -49.5 39.5t-55.5 49.5q-8 -9 -19.5 -22t-23.5 -25.5t-22.5 -23t-17.5 -15.5t-12 -7.5t-16 4.5q-28 17 -59.5 44.5t-53.5 56.5q-5 7 -5 11.5
t7 12.5q20 25 47 55t54 57q6 6 10.5 5t12.5 -9q10 -11 23.5 -24.5t28 -26t28.5 -23t25 -16.5z" />
    <glyph glyph-name="uni06A9.f" unicode="&#x6a9;" horiz-adv-x="1959" arabic-form="final" 
d="M85 223q0 88 46 192q22 49 39 69.5t27 20.5q8 0 8 -12q0 -14 -7 -33.5t-10 -27.5q-11 -32 -18.5 -57.5t-7.5 -48.5q0 -54 34.5 -93.5t110.5 -62.5q80 -24 161 -34t152 -10q87 0 188 5.5t201.5 21t192.5 43t161 71.5v13q0 46 -64 135.5t-181 210.5q-28 25 -41.5 49.5
t-13.5 54.5q0 17 3.5 40t9.5 47.5t13.5 49t16.5 42.5q11 22 25 37.5t35 30.5q62 43 128.5 83.5t136.5 77.5q110 58 216.5 105t222.5 96q8 4 16 6.5t16 2.5q10 0 10 -10q0 -5 -1.5 -9t-3.5 -8q-17 -32 -33.5 -59t-33.5 -52q-4 -5 -6 -7t-8 -4q-81 -32 -174 -75t-185 -92
t-176.5 -102t-148.5 -106q145 -105 292.5 -227.5t307.5 -280.5q86 -85 140 -117.5t82 -32.5h40q69 0 69 -65q0 -16 -4 -34t-13.5 -33t-26 -24.5t-41.5 -9.5h-32q-43 1 -87.5 18t-93.5 60q-34 29 -77 70.5t-96 95.5q-54 56 -97.5 92.5t-69.5 53.5q-1 -21 -3 -49t-6.5 -56.5
t-10.5 -54t-15 -41.5q-7 -12 -27 -28.5t-53 -36.5q-156 -92 -344 -129.5t-395 -37.5q-121 0 -221 20.5t-157 57.5q-63 38 -90.5 86t-27.5 102z" />
    <glyph glyph-name="uni0643.iz" unicode="&#x6aa;" horiz-adv-x="2822" 
d="M868 928q-57 -20 -118 -48.5t-119.5 -60.5t-111 -65.5t-93.5 -64t-66 -55.5t-29 -40q0 -11 24.5 -22t65.5 -20q45 -10 109 -14t142 -4q117 0 258 8t286.5 21t286.5 28t258 28q89 10 184 22t186 22t173 17t144 7q103 0 179 -25t114 -85q13 -20 20.5 -43t7.5 -46
q0 -14 -1.5 -29t-6.5 -31q-3 -10 -12 -40.5t-24 -64t-35.5 -61t-45.5 -31.5q-262 -43 -553.5 -81.5t-610.5 -68.5q-104 -10 -225 -19.5t-251 -18.5t-263.5 -17t-263 -13.5t-249 -9t-221.5 -3.5h-18q-35 0 -52.5 25.5t-17.5 57.5t17.5 58t53.5 26h16q408 0 820 24.5t812 67.5
q188 20 370.5 43.5t367.5 48.5q35 5 82.5 11t91 11.5t75 9.5t33.5 4q0 2 -2.5 14t-13.5 32q-56 99 -240 99q-34 0 -81.5 -4t-119 -12t-173 -20t-243.5 -29q-132 -16 -270 -31.5t-278 -29.5q-75 -7 -162.5 -14.5t-171.5 -13.5t-158 -10t-124 -4q-100 0 -187.5 12t-152.5 47
q-26 14 -42 34t-16 43q0 59 38 124t101.5 129t145.5 124.5t171 110.5t178.5 86.5t166.5 53.5q23 5 40 8t28 3q23 0 23 -20q0 -9 -3.5 -22t-9.5 -32l-16 -50q-16 -46 -61 -50q-79 -9 -157 -37z" />
    <glyph glyph-name="uni0643.mz" unicode="&#x6aa;" horiz-adv-x="2838" 
d="M1024 1128q23 5 39 8t27 3q24 0 24 -20q0 -9 -3.5 -22t-9.5 -32l-16 -50q-16 -46 -61 -50q-79 -9 -157 -37q-57 -20 -118 -48.5t-119.5 -60.5t-111 -65.5t-93 -64t-65.5 -55.5t-29 -40q0 -11 24.5 -22t65.5 -20q45 -10 109 -14t142 -4q117 0 258 8t286.5 20.5t286.5 27.5
t258 29q81 10 174 21.5t185 22t177 17.5t151 7q103 0 179 -25t114 -85q13 -20 20.5 -43t7.5 -46q0 -14 -1 -29t-6 -31q-3 -10 -12.5 -40.5t-24.5 -64t-35.5 -61t-45.5 -31.5l-37 -6q9 -18 25 -31q33 -27 163 -27h60q76 0 76 -79q0 -88 -76 -88h-108q-102 0 -153 58
q-39 45 -39 144v14q-245 -38 -514 -73t-561 -62q-104 -10 -225 -19.5t-251 -18.5t-263.5 -17t-263 -13.5t-249 -9t-221.5 -3.5h-18q-35 0 -52.5 25.5t-17.5 57.5t17.5 58t53.5 26h16q408 0 820 24.5t812 67.5q188 20 370.5 43.5t367.5 48.5q35 5 82 11t90.5 11.5t75 9.5
t34.5 4q0 2 -2.5 14t-13.5 32q-56 99 -240 99q-34 0 -86 -4t-126.5 -12.5t-174 -20.5t-230.5 -28q-132 -17 -270 -32t-278 -29q-75 -7 -162.5 -14.5t-171.5 -13.5t-158 -10t-124 -4q-100 0 -187.5 12t-152.5 47q-26 14 -42 34t-16 43q0 59 38 124t101.5 129t145.5 124.5
t171 110.5t178.5 86.5t166.5 53.5z" />
    <glyph glyph-name="uni0643.fz" unicode="&#x6aa;" horiz-adv-x="3172" 
d="M3193 167q76 0 76 -79q0 -88 -76 -88h-108q-102 0 -153 58q-39 45 -39 144v15q-211 -33 -442.5 -63.5t-478.5 -55.5t-507.5 -44t-529.5 -30q-85 -3 -164 -4.5t-150 -1.5q-88 0 -157 2t-111 5q-44 5 -90.5 25.5t-87 48t-71.5 57.5t-43 53q-3 6 -6 16t-3 18q0 13 9 13
q2 0 8 -2q81 -32 167.5 -49t174.5 -25q48 -5 103.5 -6.5t118.5 -1.5q78 0 162.5 2.5t170.5 6.5t171.5 9.5t164.5 10.5q372 25 723 65.5t700 87.5q35 5 81.5 11t90 11.5t75 9.5t35.5 4q0 3 -2 14t-13 31q-28 49 -88.5 74.5t-151.5 25.5q-37 0 -89.5 -4t-127 -12.5t-173 -20.5
t-227.5 -28q-132 -17 -270 -32t-278 -29q-75 -7 -162.5 -14.5t-171.5 -13.5t-158 -10t-124 -4q-100 0 -187.5 12t-152.5 47q-26 14 -42 34t-16 43q0 59 38 124t101.5 129t145.5 124.5t171 110.5t178.5 86.5t166.5 53.5q23 5 39 8t27 3q24 0 24 -20q0 -9 -3.5 -22t-9.5 -32
l-16 -50q-16 -46 -61 -50q-79 -9 -157 -37q-57 -20 -118 -48.5t-119.5 -60.5t-111 -65.5t-93 -64t-65.5 -55.5t-29 -40q0 -11 24.5 -22t65.5 -20q45 -10 109 -14t142 -4q117 0 258 8t286.5 20.5t286.5 27.5t258 29q81 10 174 21.5t185 22t177 17.5t151 7q103 0 179 -25.5
t114 -85.5q13 -20 20.5 -44t7.5 -47q0 -14 -1.5 -27.5t-6.5 -29.5q-3 -10 -12.5 -40.5t-24.5 -64t-35.5 -61t-45.5 -31.5q-12 -2 -24.5 -4t-24.5 -4q8 -17 26 -32q33 -27 163 -27h60z" />
    <glyph glyph-name="uni06AD.i" unicode="&#x6ad;" horiz-adv-x="644" arabic-form="initial" 
d="M803 1152q8 2 18.5 6t16.5 4q7 0 7 -8q0 -9 -6 -25.5t-14 -33.5t-17 -33.5t-14 -25.5q-4 -8 -13 -12q-12 -4 -49.5 -19t-90 -36.5t-115 -48.5t-125 -56.5t-120.5 -60.5t-100 -60q62 -32 120 -81.5t103 -105t72.5 -111t27.5 -99.5q0 -86 -24.5 -150t-72.5 -109
q-156 -87 -398 -87h-19q-22 0 -35.5 24.5t-13.5 58.5q0 35 14 59.5t34 24.5h18q84 0 157 8t130 20.5t95.5 27.5t51.5 29q-1 39 -30.5 87.5t-74.5 96.5t-99.5 89.5t-105.5 66.5q-14 7 -27 15t-21 21q-12 19 -12 63q0 29 5.5 56.5t22.5 44.5q19 19 39 36t45 34.5t55.5 36
t69.5 39.5q78 42 153.5 77t141.5 62t118 46t82 29zM326 1702q21 -23 57.5 -54t74.5 -56q8 -5 -1 -14q-7 -9 -20 -24.5t-28.5 -33.5t-30.5 -35t-25 -29q-5 -5 -8 -5.5t-9 3.5q-13 8 -31.5 21t-37.5 28t-35 30.5t-23 26.5q-4 6 -4 8.5t4 9.5q18 28 45.5 60t49.5 54
q11 11 14.5 12.5t7.5 -2.5zM352 1262q8 10 19 22.5t22.5 25.5t21.5 24t17 17q10 10 15 12t10 -4q26 -28 55 -56t58 -48q9 -6 9 -10t-9 -13q-26 -27 -50 -54.5t-48 -56.5q-6 -8 -10 -8t-12 6q-21 16 -49.5 39.5t-55.5 49.5q-8 -9 -19.5 -22t-23.5 -25.5t-22.5 -23
t-17.5 -15.5t-12 -7.5t-16 4.5q-28 17 -59.5 44.5t-53.5 56.5q-5 7 -5 11.5t7 12.5q20 25 47 55t54 57q6 6 10.5 5t12.5 -9q10 -11 23.5 -24.5t28 -26t28.5 -23t25 -16.5z" />
    <glyph glyph-name="uni06AD.m" unicode="&#x6ad;" horiz-adv-x="918" arabic-form="medial" 
d="M875 1331q6 2 8 2q7 0 7 -10t-6 -27.5t-13.5 -36t-15.5 -35t-13 -24.5q-3 -7 -8 -9q-22 -9 -84 -35.5t-146 -65t-179 -86.5t-183 -99q-32 -20 -63.5 -42t-56.5 -52q40 -35 86 -70.5t84 -65.5q60 -48 111.5 -89.5t99.5 -82.5t94 -83.5t95 -92.5q87 -88 140.5 -124
t78.5 -36h21q67 0 67 -78q0 -89 -67 -89h-33q-67 2 -158 72q-60 48 -161 155q-54 57 -94.5 93.5t-68.5 53.5q6 -46 6 -85q0 -76 -23 -128q-32 -75 -135 -116q-133 -45 -257 -45h-19q-66 0 -66 88q0 79 70 79q51 0 114.5 7t141.5 23q102 21 111 81q-13 116 -266 334
q-26 25 -39.5 49t-13.5 51q0 48 3.5 81.5t8.5 56.5t12.5 37t14.5 22q47 50 92.5 82.5t99.5 64.5q61 37 127.5 71t131 63.5t123.5 54.5t105.5 43t77 29t38.5 14zM306 1832q21 -23 57.5 -54t74.5 -56q8 -5 -1 -14q-7 -9 -20 -24.5t-28.5 -33.5t-30.5 -35t-25 -29
q-5 -5 -8 -5.5t-9 3.5q-13 8 -31.5 21t-37.5 28t-35 30.5t-23 26.5q-4 6 -4 8.5t4 9.5q18 28 45.5 60t49.5 54q11 11 14.5 12.5t7.5 -2.5zM332 1392q8 10 19 22.5t22.5 25.5t21.5 24t17 17q10 10 15 12t10 -4q26 -28 55 -56t58 -48q9 -6 9 -10t-9 -13q-26 -27 -50 -54.5
t-48 -56.5q-6 -8 -10 -8t-12 6q-21 16 -49.5 39.5t-55.5 49.5q-8 -9 -19.5 -22t-23.5 -25.5t-22.5 -23t-17.5 -15.5t-12 -7.5t-16 4.5q-28 17 -59.5 44.5t-53.5 56.5q-5 7 -5 11.5t7 12.5q20 25 47 55t54 57q6 6 10.5 5t12.5 -9q10 -11 23.5 -24.5t28 -26t28.5 -23t25 -16.5
z" />
    <glyph glyph-name="uni06AD.f" unicode="&#x6ad;" horiz-adv-x="1448" arabic-form="final" 
d="M116 351q0 -64 37.5 -109t100.5 -73.5t145 -42t170 -13.5q68 0 136.5 7t132.5 20.5t121 32.5t101 43q45 24 74 54t38 64q3 10 5 22t3.5 23.5t2 20.5t0.5 13q0 6 -3.5 43t-7.5 92.5t-9.5 122t-10 132t-8.5 122t-6 91.5q0 2 0.5 4.5t2.5 8.5q7 16 19.5 41.5t22.5 45.5
q8 16 16.5 31t14.5 15q5 0 8 -9t5 -39q7 -113 13 -216.5t11 -191t10 -156t10 -112.5q5 -51 16 -97.5t24 -75.5q23 -51 56.5 -74.5t73.5 -23.5h23q78 0 78 -75q0 -92 -79 -92h-22q-56 0 -101.5 24t-77.5 74q-31 50 -54 177q-17 -71 -72 -124t-134 -92q-58 -28 -125 -50
t-139 -36t-146.5 -21.5t-149.5 -7.5t-146 15.5t-126 52t-88 97t-33 150.5q0 64 12 111.5t22 70.5q22 49 39 49q7 0 9 -7t1.5 -16t-2.5 -18t-3 -14q-5 -20 -8 -45t-3 -39zM819 702q-1 -25 -16.5 -60t-38 -68.5t-48 -60.5t-48.5 -36q-24 -10 -55 -15.5t-65 -5.5q-14 0 -28 1
t-28 3q-18 2 -31 7.5t-13 12.5q0 10 48 29q16 6 50.5 18.5t71.5 27.5t70 31.5t46 29.5q7 7 7 11q0 3 -4 4q-16 8 -59 14q-19 3 -37.5 6.5t-33 11t-23.5 20t-9 33.5q0 26 20.5 66.5t50.5 82.5t63.5 77.5t58.5 51.5q21 13 33 13q11 0 11 -17q0 -11 -4 -26t-10 -31t-12.5 -30
t-11.5 -23q-5 -12 -17 -15q-7 -2 -16 -4t-19 -7q-15 -8 -28 -21t-17 -19q0 -18 13.5 -27t30.5 -12t34 -4.5t31.5 -7.5t23.5 -20t9 -41zM656 1682q21 -23 57.5 -54t74.5 -56q8 -5 -1 -14q-7 -9 -20 -24.5t-28.5 -33.5t-30.5 -35t-25 -29q-5 -5 -8 -5.5t-9 3.5q-13 8 -31.5 21
t-37.5 28t-35 30.5t-23 26.5q-4 6 -4 8.5t4 9.5q18 28 45.5 60t49.5 54q11 11 14.5 12.5t7.5 -2.5zM682 1242q8 10 19 22.5t22.5 25.5t21.5 24t17 17q10 10 15 12t10 -4q26 -28 55 -56t58 -48q9 -6 9 -10t-9 -13q-26 -27 -50 -54.5t-48 -56.5q-6 -8 -10 -8t-12 6
q-21 16 -49.5 39.5t-55.5 49.5q-8 -9 -19.5 -22t-23.5 -25.5t-22.5 -23t-17.5 -15.5t-12 -7.5t-16 4.5q-28 17 -59.5 44.5t-53.5 56.5q-5 7 -5 11.5t7 12.5q20 25 47 55t54 57q6 6 10.5 5t12.5 -9q10 -11 23.5 -24.5t28 -26t28.5 -23t25 -16.5z" />
    <glyph glyph-name="uni06AF.i" unicode="&#x6af;" horiz-adv-x="644" arabic-form="initial" 
d="M857 1413q-1 -5 -5 -15.5t-8.5 -22.5l-9 -24t-8.5 -20q-5 -11 -10.5 -14t-9.5 -5q-101 -35 -209 -82t-214 -97q-70 -33 -119.5 -55.5t-81.5 -36.5t-48 -20.5t-19 -7.5q-2 -1 -6 -1q-7 0 -12 4.5t-5 11.5q0 8 5 18.5t27 29.5q31 26 92.5 62.5t158.5 87.5q60 32 124 61.5
t126 56t119.5 47.5t104.5 34q2 1 5 1q5 0 5 -5q0 -2 -0.5 -3.5zM803 1152q8 2 18.5 6t16.5 4q7 0 7 -8q0 -9 -6 -25.5t-14 -33.5t-17 -33.5t-14 -25.5q-4 -8 -13 -12q-12 -4 -49.5 -19t-90 -36.5t-115 -48.5t-125 -56.5t-120.5 -60.5t-100 -60q62 -32 120 -81.5t103 -105
t72.5 -111t27.5 -99.5q0 -86 -24.5 -150t-72.5 -109q-156 -87 -398 -87h-19q-22 0 -35.5 24.5t-13.5 58.5q0 35 14 59.5t34 24.5h18q84 0 157 8t130 20.5t95.5 27.5t51.5 29q-1 39 -30.5 87.5t-74.5 96.5t-99.5 89.5t-105.5 66.5q-14 7 -27 15t-21 21q-12 19 -12 63
q0 29 5.5 56.5t22.5 44.5q19 19 39 36t45 34.5t55.5 36t69.5 39.5q78 42 153.5 77t141.5 62t118 46t82 29z" />
    <glyph glyph-name="uni06AF.m" unicode="&#x6af;" horiz-adv-x="918" arabic-form="medial" 
d="M102 1138q-2 -1 -6 -1q-7 0 -12 4.5t-5 11.5q0 8 5 18.5t27 29.5q30 27 92.5 63t159.5 87q60 32 124 61.5t125.5 56t119 47.5t104.5 34q2 1 5 1q5 0 5 -5q0 -2 -0.5 -3.5l-1.5 -4.5q-1 -5 -5 -15.5t-8.5 -22.5l-9 -24t-8.5 -20q-5 -11 -10.5 -14t-9.5 -5
q-101 -35 -209 -82.5t-214 -96.5q-69 -32 -118.5 -54.5t-82 -36.5t-48.5 -21t-19 -8zM875 1331q6 2 8 2q7 0 7 -10t-6 -27.5t-13.5 -36t-15.5 -35t-13 -24.5q-3 -7 -8 -9q-22 -9 -84 -35.5t-146 -65t-179 -86.5t-183 -99q-32 -20 -63.5 -42t-56.5 -52q40 -35 86 -70.5
t84 -65.5q60 -48 111.5 -89.5t99.5 -82.5t94 -83.5t95 -92.5q87 -88 140.5 -124t78.5 -36h21q67 0 67 -78q0 -89 -67 -89h-33q-67 2 -158 72q-60 48 -161 155q-54 57 -94.5 93.5t-68.5 53.5q6 -46 6 -85q0 -76 -23 -128q-32 -75 -135 -116q-133 -45 -257 -45h-19
q-66 0 -66 88q0 79 70 79q51 0 114.5 7t141.5 23q102 21 111 81q-13 116 -266 334q-26 25 -39.5 49t-13.5 51q0 48 3.5 81.5t8.5 56.5t12.5 37t14.5 22q47 50 92.5 82.5t99.5 64.5q61 37 127.5 71t131 63.5t123.5 54.5t105.5 43t77 29t38.5 14z" />
    <glyph glyph-name="uni06AF.f" unicode="&#x6af;" horiz-adv-x="1959" arabic-form="final" 
d="M1150 1246q30 27 93 63.5t160 87.5q60 32 126.5 62t129.5 56.5t119.5 47.5t97.5 33q2 1 5 1q5 0 5 -5q0 -2 -0.5 -3.5l-1.5 -4.5q-1 -5 -5 -15.5t-8.5 -22.5l-9 -24t-8.5 -20q-5 -11 -10.5 -14t-9.5 -5q-101 -35 -209 -82.5t-214 -97.5q-132 -62 -197.5 -90t-71.5 -30
q-2 -1 -6 -1q-7 0 -12 4.5t-5 11.5q0 8 5 18.5t27 29.5zM85 223q0 88 46 192q22 49 39 69.5t27 20.5q8 0 8 -12q0 -14 -7 -33.5t-10 -27.5q-11 -32 -18.5 -57.5t-7.5 -48.5q0 -54 34.5 -93.5t110.5 -62.5q80 -24 161 -34t152 -10q87 0 188 5.5t201.5 21t192.5 43t161 71.5
v13q0 46 -64 135.5t-181 210.5q-28 25 -41.5 49.5t-13.5 54.5q0 17 3.5 40t9.5 47.5t13.5 49t16.5 42.5q11 22 25 37.5t35 30.5q62 43 128.5 83.5t136.5 77.5q110 58 216.5 105t222.5 96q8 4 16 6.5t16 2.5q10 0 10 -10q0 -5 -1.5 -9t-3.5 -8q-17 -32 -33.5 -59t-33.5 -52
q-4 -5 -6 -7t-8 -4q-81 -32 -174 -75t-185 -92t-176.5 -102t-148.5 -106q145 -105 292.5 -227.5t307.5 -280.5q86 -85 140 -117.5t82 -32.5h40q69 0 69 -65q0 -16 -4 -34t-13.5 -33t-26 -24.5t-41.5 -9.5h-32q-43 1 -87.5 18t-93.5 60q-34 29 -77 70.5t-96 95.5
q-54 56 -97.5 92.5t-69.5 53.5q-1 -21 -3 -49t-6.5 -56.5t-10.5 -54t-15 -41.5q-7 -12 -27 -28.5t-53 -36.5q-156 -92 -344 -129.5t-395 -37.5q-121 0 -221 20.5t-157 57.5q-63 38 -90.5 86t-27.5 102z" />
    <glyph glyph-name="uni06BA.f" unicode="&#x6ba;" horiz-adv-x="990" arabic-form="final" 
d="M777 144q-2 3 -2 12t4 26t10 37.5t14 42t16 37.5t14 16q5 0 8 -5t5 -9q31 -66 62 -100t76 -34h21q75 0 75 -81q0 -86 -75 -86h-22q-22 1 -38 2.5t-27 5.5q-3 -97 -12 -146.5t-19 -72.5q-9 -25 -20 -48t-28.5 -46.5t-42.5 -47.5t-61 -51q-69 -51 -166.5 -81t-234.5 -30
q-70 0 -129 23t-102 65.5t-67 103t-24 135.5q0 40 9 81t23 78.5t30 69t31 51.5q11 17 24 29.5t23 12.5t10 -12q0 -17 -17 -49q-25 -48 -43.5 -95.5t-18.5 -100.5q0 -52 28 -92t70.5 -67.5t93.5 -42t96 -14.5q74 0 147.5 13t137 37t112 58.5t72.5 77.5q2 3 4 10t2 18
q-1 53 -6 91t-13.5 68t-20.5 56t-29 54z" />
    <glyph glyph-name="uni06BE.m" unicode="&#x6be;" horiz-adv-x="597" arabic-form="medial" 
d="M8 167q24 0 54 1t70 6q34 93 76.5 163t83 116t73.5 69t49 23q23 0 37.5 -34.5t14.5 -87.5q0 -30 -5.5 -63t-17.5 -66.5t-31.5 -66t-47.5 -60.5h249q79 0 79 -79q0 -88 -79 -88h-100q14 -23 22 -57.5t8 -85.5q0 -20 -11 -53.5t-29.5 -66t-42 -57.5t-48.5 -29
q-14 -2 -26.5 -3t-24.5 -1q-72 0 -122 34t-81 84t-45.5 108t-16.5 105q-20 -3 -35 -5.5t-28 -5.5q-5 -1 -5 4l5 29h-45q-72 0 -72 85q0 82 73 82h19zM205 -17q9 -26 23.5 -55t37.5 -53t57 -40t81 -16q11 0 22.5 1t24.5 3q0 24 -14.5 48t-44 46t-72.5 39.5t-100 27.5z
M380 277q4 5 4 15q0 12 -5.5 27.5t-13.5 29t-16.5 23t-14.5 9.5q-11 0 -27 -15.5t-34 -42.5t-38.5 -63t-40.5 -77q18 5 44 11.5t52.5 17.5t50.5 27t39 38z" />
    <glyph glyph-name="uni06BE.f" unicode="&#x6be;" horiz-adv-x="768" arabic-form="final" 
d="M37 115q36 6 72.5 12.5t71 13.5t65.5 13.5t54 12.5l3 7q2 7 3.5 10.5l4.5 10.5q37 94 79 160.5t80.5 108.5t69.5 61.5t45 19.5q23 0 37.5 -34.5t14.5 -87.5q0 -30 -5.5 -63t-17.5 -66.5t-31.5 -66t-47.5 -60.5h249q79 0 79 -79q0 -88 -79 -88h-100q14 -23 22 -57t8 -81
q0 -4 -0.5 -9t-0.5 -9q-1 -15 -12 -46t-29 -62.5t-41 -56t-48 -28.5q-14 -2 -26.5 -3t-24.5 -1q-63 0 -108.5 26t-76.5 66.5t-48.5 89.5t-25.5 95q-2 14 -3.5 35t-2.5 34q-22 -6 -38.5 -9.5t-48.5 -1.5q-24 1 -48 11t-44 25t-35 33.5t-22 36.5q-3 9 -3 17.5t9 9.5zM622 -174
q0 22 -14.5 46t-44 45.5t-72.5 39t-100 27.5l-15 -1q9 -26 23.5 -55t37.5 -53t57 -40t81 -16q11 0 22.5 1t24.5 3v3zM551 277q4 5 4 15q0 12 -6 27.5t-13.5 29t-15.5 23t-12 9.5h-3q-11 0 -27 -16t-34 -43.5t-38.5 -64t-40.5 -77.5q18 5 44 12t52.5 18.5t50.5 28t39 38.5z
" />
    <glyph glyph-name="uni06C0.f" unicode="&#x6c0;" horiz-adv-x="664" arabic-form="final" 
d="M461 358q11 -48 39 -88t70 -69q52 -34 87 -34h25q77 0 77 -77q0 -90 -80 -90h-23q-86 0 -165 67t-100 221q-12 -20 -24.5 -38.5t-36.5 -35.5q-35 -24 -85.5 -34.5t-105.5 -10.5q-40 0 -70.5 9.5t-30.5 38.5q9 62 18 100t22.5 63.5t33 45t49.5 43.5q13 10 35.5 25t48 31.5
t49 32t38.5 26.5q-3 23 -3 39q0 29 7 47.5t20 41.5q8 15 15.5 25.5t14.5 10.5q5 0 9.5 -9t8.5 -31q19 -113 31 -203t26 -147zM372 381q-3 17 -5 29.5t-4.5 25l-5.5 27.5t-7 36q-26 -16 -58 -36.5t-60.5 -40t-49 -36t-22.5 -24.5q0 -8 15 -12.5t39 -4.5q35 0 79 9t79 27z
M403 1128q-2 -6 -9 -21t-14 -26q-8 -14 -13.5 -17.5t-12.5 -8.5q-23 -12 -57.5 -32t-74 -44.5t-81.5 -52.5t-81 -57q-15 -11 -11 10q2 7 5.5 19t8.5 24q5 10 24 30.5t38 35.5q7 5 7 7.5t-11 6.5q-38 14 -53.5 32.5t-15.5 46.5q0 24 11.5 53t29.5 57.5t40.5 54.5t45.5 45
q17 13 36.5 24t44.5 11q58 0 60 -51q0 -29 -17 -72q-10 -25 -18 -27t-24 13q-9 10 -19.5 14t-19.5 4q-21 0 -38.5 -5.5t-30 -13.5t-19.5 -17t-7 -16q0 -9 15 -19.5t36 -20t43.5 -16t37.5 -6.5q7 0 19 4q12 3 27.5 9.5t31 13.5t28 13.5t16.5 9.5q18 14 24 9.5t-2 -24.5z" />
    <glyph glyph-name="uni06C1.i" unicode="&#x6c1;" horiz-adv-x="670" arabic-form="initial" 
d="M269 158q-18 -35 -46.5 -64t-63 -50t-73.5 -32.5t-79 -11.5h-19q-75 0 -75 87q0 80 76 80h18q50 0 95.5 11t82.5 32.5t64 53.5t40 74q12 34 24 49.5t22 15.5q12 0 12 -20q0 -12 -2.5 -24.5t-2.5 -29.5q0 -34 13.5 -59t33.5 -40.5t43.5 -23t43.5 -7.5q6 0 14.5 1t16 4.5
t13 10t5.5 16.5q0 15 -8.5 32.5t-22.5 40.5q-3 5 -3 10q0 8 8.5 25t20 37.5t24 39.5t20.5 30q2 3 6.5 7t9.5 4q6 0 16 -18q11 -23 15 -49.5t4 -55.5q0 -51 -13.5 -103.5t-38.5 -95t-61 -69.5t-81 -27q-57 0 -98 31t-54 88zM250 -308q0 38 18 85t55 85q24 25 52.5 44.5
t60.5 36.5q11 6 22 9t19 3q14 0 14 -8q0 -5 -6.5 -11t-23.5 -14q-35 -22 -61.5 -46t-44.5 -46.5t-27 -42t-9 -32.5q0 -20 17.5 -27t38.5 -7h9.5t9.5 -1q20 -4 20 -31q0 -16 -5 -32t-15 -29t-24.5 -21.5t-33.5 -8.5q-21 0 -40 9.5t-32 27.5q-8 11 -11 25.5t-3 31.5z" />
    <glyph glyph-name="uni06C1.m" unicode="&#x6c1;" horiz-adv-x="652" arabic-form="medial" 
d="M451 -408q0 -12 -4.5 -30t-10.5 -37.5t-13.5 -37.5t-13.5 -30q-4 -8 -6.5 -10.5t-10.5 -2.5q-18 0 -35.5 10t-33 25t-29 33t-23.5 34q-42 68 -61 160t-19 188q0 56 6 109t17 100q-85 -103 -208 -103h-22q-70 0 -70 84q0 83 71 83h23q56 0 100.5 18t79 44t60.5 54.5
t45 50.5q3 3 7.5 9t10.5 12t13 10.5t15 4.5t11 -6t3 -14q0 -11 -3.5 -23.5t-5.5 -19.5q-7 -22 -18.5 -62.5t-23 -89t-20 -101t-8.5 -97.5q0 -21 3 -46.5t9.5 -51t16 -49t22.5 -41.5q-1 11 -1 21v20q0 82 23 148t65 112.5t100.5 71.5t129.5 25h33q69 0 69 -76q0 -91 -72 -91
h-50q-18 0 -46.5 -2t-60 -11t-61.5 -26.5t-50 -48.5q-10 -15 -12.5 -34.5t-2.5 -40.5q0 -36 9.5 -70.5t21.5 -65.5t21.5 -58.5t9.5 -50.5z" />
    <glyph glyph-name="uni06C1.f" unicode="&#x6c1;" horiz-adv-x="664" arabic-form="final" 
d="M461 358q11 -48 39 -88t70 -69q52 -34 87 -34h25q77 0 77 -77q0 -90 -80 -90h-23q-86 0 -165 67t-100 221q-12 -20 -24.5 -38.5t-36.5 -35.5q-35 -24 -85.5 -34.5t-105.5 -10.5q-40 0 -70.5 9.5t-30.5 38.5q9 62 18 100t22.5 63.5t33 45t49.5 43.5q13 10 35.5 25t48 31.5
t49 32t38.5 26.5q-3 23 -3 39q0 29 7 47.5t20 41.5q8 15 15.5 25.5t14.5 10.5q5 0 9.5 -9t8.5 -31q19 -113 31 -203t26 -147zM372 381q-3 17 -5 29.5t-4.5 25l-5.5 27.5t-7 36q-26 -16 -58 -36.5t-60.5 -40t-49 -36t-22.5 -24.5q0 -8 15 -12.5t39 -4.5q35 0 79 9t79 27z" />
    <glyph glyph-name="uni06C2.f" unicode="&#x6c2;" horiz-adv-x="664" 
d="M461 358q11 -48 39 -88t70 -69q52 -34 87 -34h25q77 0 77 -77q0 -90 -80 -90h-23q-86 0 -165 67t-100 221q-12 -20 -24.5 -38.5t-36.5 -35.5q-35 -24 -85.5 -34.5t-105.5 -10.5q-40 0 -70.5 9.5t-30.5 38.5q9 62 18 100t22.5 63.5t33 45t49.5 43.5q13 10 35.5 25t48 31.5
t49 32t38.5 26.5q-3 23 -3 39q0 29 7 47.5t20 41.5q8 15 15.5 25.5t14.5 10.5q5 0 9.5 -9t8.5 -31q19 -113 31 -203t26 -147zM372 381q-3 17 -5 29.5t-4.5 25l-5.5 27.5t-7 36q-26 -16 -58 -36.5t-60.5 -40t-49 -36t-22.5 -24.5q0 -8 15 -12.5t39 -4.5q35 0 79 9t79 27z
M403 1128q-2 -6 -9 -21t-14 -26q-8 -14 -13.5 -17.5t-12.5 -8.5q-23 -12 -57.5 -32t-74 -44.5t-81.5 -52.5t-81 -57q-15 -11 -11 10q2 7 5.5 19t8.5 24q5 10 24 30.5t38 35.5q7 5 7 7.5t-11 6.5q-38 14 -53.5 32.5t-15.5 46.5q0 24 11.5 53t29.5 57.5t40.5 54.5t45.5 45
q17 13 36.5 24t44.5 11q58 0 60 -51q0 -29 -17 -72q-10 -25 -18 -27t-24 13q-9 10 -19.5 14t-19.5 4q-21 0 -38.5 -5.5t-30 -13.5t-19.5 -17t-7 -16q0 -9 15 -19.5t36 -20t43.5 -16t37.5 -6.5q7 0 19 4q12 3 27.5 9.5t31 13.5t28 13.5t16.5 9.5q18 14 24 9.5t-2 -24.5z" />
    <glyph glyph-name="uni06C3.f" unicode="&#x6c3;" horiz-adv-x="664" 
d="M461 358q11 -48 39 -88t70 -69q52 -34 87 -34h25q77 0 77 -77q0 -90 -80 -90h-23q-86 0 -165 67t-100 221q-12 -20 -24.5 -38.5t-36.5 -35.5q-35 -24 -85.5 -34.5t-105.5 -10.5q-40 0 -70.5 9.5t-30.5 38.5q9 62 18 100t22.5 63.5t33 45t49.5 43.5q13 10 35.5 25t48 31.5
t49 32t38.5 26.5q-3 23 -3 39q0 29 7 47.5t20 41.5q8 15 15.5 25.5t14.5 10.5q5 0 9.5 -9t8.5 -31q19 -113 31 -203t26 -147zM372 381q-3 17 -5 29.5t-4.5 25l-5.5 27.5t-7 36q-26 -16 -58 -36.5t-60.5 -40t-49 -36t-22.5 -24.5q0 -8 15 -12.5t39 -4.5q35 0 79 9t79 27z
M273 1019q8 10 19 22.5t22.5 25.5t21.5 24t17 17q10 10 15 12t10 -4q26 -28 55 -56t58 -48q9 -6 9 -10t-9 -13q-26 -27 -50 -54.5t-48 -56.5q-6 -8 -10 -8t-12 6q-21 16 -49.5 39.5t-55.5 49.5q-8 -9 -19.5 -22t-23.5 -25.5t-22.5 -23t-17.5 -15.5t-12 -7.5t-16 4.5
q-28 17 -59.5 44.5t-53.5 56.5q-5 7 -5 11.5t7 12.5q20 25 47 55t54 57q6 6 10.5 5t12.5 -9q10 -11 23.5 -24.5t28 -26t28.5 -23t25 -16.5z" />
    <glyph glyph-name="uni06C5.f" unicode="&#x6c5;" horiz-adv-x="735" arabic-form="final" 
d="M329 -513q-27 0 -62.5 6t-74 16t-78.5 24t-77 31q-18 8 -24 16t-6 13q0 12 28 12q7 0 21.5 -2t32.5 -4.5t39 -4.5t40 -2q35 0 69 9.5t83 35.5q66 35 118.5 74t90.5 80q-31 -1 -63.5 -1.5t-69.5 -1t-80 -0.5h-96q-35 0 -45 3t-10 11q0 5 6.5 18.5t14.5 25.5q6 10 8.5 12.5
t5.5 2.5q2 0 19 -0.5t59.5 -1.5t115 -2t185.5 -1q28 48 28 87q0 10 -1.5 20.5t-5.5 27.5h-54q-15 0 -35 1.5t-41 5.5t-42.5 10t-39.5 16q-38 21 -54.5 49.5t-16.5 62.5q0 32 12.5 75.5t31.5 85.5q15 35 32 64t34.5 51t35.5 34t35 12q39 0 72.5 -24t56.5 -60q26 -41 38 -96.5
t16 -110.5h71q69 0 69 -76q0 -88 -66 -91l-77 -4q-4 -96 -23 -175t-55 -142t-91.5 -109t-133.5 -76q-9 -3 -20.5 -5t-25.5 -2zM556 170q0 7 -5 20t-14 27.5t-20.5 29t-23.5 24.5q-8 6 -17 11.5t-24 5.5q-13 0 -23.5 -6t-17.5 -15t-10.5 -18.5t-3.5 -16.5q0 -28 57 -50
q23 -9 46 -13.5t38 -4.5q18 0 18 6z" />
    <glyph glyph-name="uni06C6.f" unicode="&#x6c6;" horiz-adv-x="735" arabic-form="final" 
d="M329 -513q-27 0 -62.5 6t-74 16t-78.5 24t-77 31q-18 8 -24 16t-6 13q0 12 28 12q7 0 21.5 -2t32.5 -4.5t39 -4.5t40 -2q35 0 69 9.5t83 35.5q66 34 119 74t90.5 80.5t57.5 79.5t20 72q0 10 -1.5 20.5t-5.5 27.5h-54q-15 0 -35 1.5t-41 5.5t-42.5 10t-39.5 16
q-38 21 -54.5 49.5t-16.5 62.5q0 32 12.5 75.5t31.5 85.5q15 35 32 64t34.5 51t35.5 34t35 12q39 0 72.5 -24t56.5 -60q26 -41 38 -96.5t16 -110.5h71q69 0 69 -76q0 -88 -66 -91l-77 -4q-4 -96 -23 -175t-55 -142t-91.5 -109t-133.5 -76q-9 -3 -20.5 -5t-25.5 -2zM556 170
q0 7 -5 20t-14 27.5t-20.5 29t-23.5 24.5q-8 6 -17 11.5t-24 5.5q-13 0 -23.5 -6t-17.5 -15t-10.5 -18.5t-3.5 -16.5q0 -28 57 -50q23 -9 46 -13.5t38 -4.5q18 0 18 6zM615 905q2 2 4 2.5t4 -4.5q6 -15 11 -37t7 -39q0 -6 -3 -9q-63 -71 -100 -124.5t-49 -82.5
q-5 -11 -11 -11q-5 0 -11 13q-5 10 -12 23t-27 37q-20 25 -50 53t-73 64q-5 5 -6 7t-1 9q0 5 2.5 17t5.5 26t6.5 27t6.5 18q4 7 6.5 9t7.5 -3q26 -23 49.5 -47t42.5 -46t33 -41t23 -31q8 16 24 40t35.5 49t39.5 47t35 34z" />
    <glyph glyph-name="uni06C7.f" unicode="&#x6c7;" horiz-adv-x="735" arabic-form="final" 
d="M329 -513q-27 0 -62.5 6t-74 16t-78.5 24t-77 31q-18 8 -24 16t-6 13q0 12 28 12q7 0 21.5 -2t32.5 -4.5t39 -4.5t40 -2q35 0 69 9.5t83 35.5q66 34 119 74t90.5 80.5t57.5 79.5t20 72q0 10 -1.5 20.5t-5.5 27.5h-54q-15 0 -35 1.5t-41 5.5t-42.5 10t-39.5 16
q-38 21 -54.5 49.5t-16.5 62.5q0 32 12.5 75.5t31.5 85.5q15 35 32 64t34.5 51t35.5 34t35 12q39 0 72.5 -24t56.5 -60q26 -41 38 -96.5t16 -110.5h71q69 0 69 -76q0 -88 -66 -91l-77 -4q-4 -96 -23 -175t-55 -142t-91.5 -109t-133.5 -76q-9 -3 -20.5 -5t-25.5 -2zM556 170
q0 7 -5 20t-14 27.5t-20.5 29t-23.5 24.5q-8 6 -17 11.5t-24 5.5q-13 0 -23.5 -6t-17.5 -15t-10.5 -18.5t-3.5 -16.5q0 -28 57 -50q23 -9 46 -13.5t38 -4.5q18 0 18 6zM501 899q17 0 28.5 -8.5t18.5 -22t10 -29.5t4 -31q0 -53 -22 -108q26 -16 26 -27q0 -20 -7 -39t-17 -33
q-4 -7 -8 -5l-37 23q-13 -21 -31 -44t-40 -45.5t-49.5 -43t-60.5 -35.5q-24 -11 -51.5 -19.5t-56.5 -8.5q-30 0 -30 10q0 8 10.5 12.5t30.5 15.5q24 13 56.5 35.5t65 49t60.5 52.5t43 47q-12 9 -26 19t-25 22t-18.5 26.5t-7.5 32.5q0 24 11.5 47.5t31.5 48.5q45 58 91 58z
M470 807q-9 0 -20.5 -8.5t-19.5 -23.5q-2 -4 -2 -5q0 -7 19 -20.5t39 -22.5q5 9 7 20t2 28q-2 32 -25 32z" />
    <glyph glyph-name="uni06C8.f" unicode="&#x6c8;" horiz-adv-x="735" arabic-form="final" 
d="M329 -513q-27 0 -62.5 6t-74 16t-78.5 24t-77 31q-18 8 -24 16t-6 13q0 12 28 12q7 0 21.5 -2t32.5 -4.5t39 -4.5t40 -2q35 0 69 9.5t83 35.5q66 34 119 74t90.5 80.5t57.5 79.5t20 72q0 10 -1.5 20.5t-5.5 27.5h-54q-15 0 -35 1.5t-41 5.5t-42.5 10t-39.5 16
q-38 21 -54.5 49.5t-16.5 62.5q0 32 12.5 75.5t31.5 85.5q15 35 32 64t34.5 51t35.5 34t35 12q39 0 72.5 -24t56.5 -60q26 -41 38 -96.5t16 -110.5h71q69 0 69 -76q0 -88 -66 -91l-77 -4q-4 -96 -23 -175t-55 -142t-91.5 -109t-133.5 -76q-9 -3 -20.5 -5t-25.5 -2zM556 170
q0 7 -5 20t-14 27.5t-20.5 29t-23.5 24.5q-8 6 -17 11.5t-24 5.5q-13 0 -23.5 -6t-17.5 -15t-10.5 -18.5t-3.5 -16.5q0 -28 57 -50q23 -9 46 -13.5t38 -4.5q18 0 18 6zM393 1016q47 -59 79 -129.5t32 -156.5q0 -83 -35 -164q-10 -24 -18 -24q-6 0 -6 17t1.5 35.5t1.5 38.5
q0 78 -22.5 142.5t-67.5 124.5q-4 5 -3 9l28 104q2 8 5 6.5t5 -3.5z" />
    <glyph glyph-name="uni06C9.f" unicode="&#x6c9;" horiz-adv-x="735" arabic-form="final" 
d="M329 -513q-27 0 -62.5 6t-74 16t-78.5 24t-77 31q-18 8 -24 16t-6 13q0 12 28 12q7 0 21.5 -2t32.5 -4.5t39 -4.5t40 -2q35 0 69 9.5t83 35.5q66 34 119 74t90.5 80.5t57.5 79.5t20 72q0 10 -1.5 20.5t-5.5 27.5h-54q-15 0 -35 1.5t-41 5.5t-42.5 10t-39.5 16
q-38 21 -54.5 49.5t-16.5 62.5q0 32 12.5 75.5t31.5 85.5q15 35 32 64t34.5 51t35.5 34t35 12q39 0 72.5 -24t56.5 -60q26 -41 38 -96.5t16 -110.5h71q69 0 69 -76q0 -88 -66 -91l-77 -4q-4 -96 -23 -175t-55 -142t-91.5 -109t-133.5 -76q-9 -3 -20.5 -5t-25.5 -2zM556 170
q0 7 -5 20t-14 27.5t-20.5 29t-23.5 24.5q-8 6 -17 11.5t-24 5.5q-13 0 -23.5 -6t-17.5 -15t-10.5 -18.5t-3.5 -16.5q0 -28 57 -50q23 -9 46 -13.5t38 -4.5q18 0 18 6zM324 604q-2 -2 -4 -2.5t-4 4.5q-6 15 -11 37t-7 39q0 6 3 9q63 71 100 124.5t49 82.5q5 11 11 11
q5 0 11 -13q5 -10 12 -23t27 -37q20 -25 50 -53t73 -64q5 -5 6 -7t1 -9q0 -4 -2.5 -16.5t-5.5 -26.5t-6.5 -27t-6.5 -18q-4 -7 -6.5 -9t-7.5 3q-26 23 -49.5 47t-42.5 46t-33 41t-23 31q-7 -16 -23.5 -40t-36 -49t-39.5 -47t-35 -34z" />
    <glyph glyph-name="uni06CB.f" unicode="&#x6cb;" horiz-adv-x="735" arabic-form="final" 
d="M329 -513q-27 0 -62.5 6t-74 16t-78.5 24t-77 31q-18 8 -24 16t-6 13q0 12 28 12q7 0 21.5 -2t32.5 -4.5t39 -4.5t40 -2q35 0 69 9.5t83 35.5q66 34 119 74t90.5 80.5t57.5 79.5t20 72q0 10 -1.5 20.5t-5.5 27.5h-54q-15 0 -35 1.5t-41 5.5t-42.5 10t-39.5 16
q-38 21 -54.5 49.5t-16.5 62.5q0 32 12.5 75.5t31.5 85.5q15 35 32 64t34.5 51t35.5 34t35 12q39 0 72.5 -24t56.5 -60q26 -41 38 -96.5t16 -110.5h71q69 0 69 -76q0 -88 -66 -91l-77 -4q-4 -96 -23 -175t-55 -142t-91.5 -109t-133.5 -76q-9 -3 -20.5 -5t-25.5 -2zM556 170
q0 7 -5 20t-14 27.5t-20.5 29t-23.5 24.5q-8 6 -17 11.5t-24 5.5q-13 0 -23.5 -6t-17.5 -15t-10.5 -18.5t-3.5 -16.5q0 -28 57 -50q23 -9 46 -13.5t38 -4.5q18 0 18 6zM448 1208q21 -23 57.5 -54t74.5 -56q8 -5 -1 -14q-7 -9 -20 -24.5t-28.5 -33.5t-30.5 -35t-25 -29
q-5 -5 -8 -5.5t-9 3.5q-13 8 -31.5 21t-37.5 28t-35 30.5t-23 26.5q-4 6 -4 8.5t4 9.5q18 28 45.5 60t49.5 54q11 11 14.5 12.5t7.5 -2.5zM474 768q8 10 19 22.5t22.5 25.5t21.5 24t17 17q10 10 15 12t10 -4q26 -28 55 -56t58 -48q9 -6 9 -10t-9 -13q-26 -27 -50 -54.5
t-48 -56.5q-6 -8 -10 -8t-12 6q-21 16 -49.5 39.5t-55.5 49.5q-8 -9 -19.5 -22t-23.5 -25.5t-22.5 -23t-17.5 -15.5t-12 -7.5t-16 4.5q-28 17 -59.5 44.5t-53.5 56.5q-5 7 -5 11.5t7 12.5q20 25 47 55t54 57q6 6 10.5 5t12.5 -9q10 -11 23.5 -24.5t28 -26t28.5 -23t25 -16.5
z" />
    <glyph glyph-name="uni06D0.i" unicode="&#x6d0;" horiz-adv-x="375" arabic-form="initial" 
d="M328 286q0 -46 -8 -94t-38 -89q-24 -33 -68.5 -60t-120.5 -38q-21 -3 -49 -4t-55 -1q-35 0 -52.5 25.5t-17.5 57.5t17.5 58t52.5 26h39q28 0 62 1t67 5.5t61.5 13.5t44.5 24q-2 25 -11.5 51.5t-21.5 50.5t-24 44.5t-21 32.5q-1 1 -1 5q0 11 7.5 33t17 44.5t17.5 40.5
t9 20q3 9 9 9q9 0 23.5 -20.5t28 -55.5t23 -81.5t9.5 -98.5zM89 -183q26 28 49 53t46 53q8 10 11.5 10t10.5 -9q21 -26 47.5 -53.5t53.5 -51.5q11 -8 -4 -26q-14 -16 -34.5 -40.5t-39.5 -45.5q13 -20 38 -45t50 -45q13 -11 4 -21q-23 -32 -44.5 -56.5t-42.5 -47.5
q-7 -7 -11.5 -7.5t-11.5 4.5q-29 20 -59.5 45t-47.5 51q-7 11 -7 14.5t5 9.5q5 7 14.5 19t20 25.5t22 26.5t20.5 22q-28 25 -51.5 49t-40.5 44q-6 8 -6 12t8 10z" />
    <glyph glyph-name="uni06D0.m" unicode="&#x6d0;" horiz-adv-x="488" arabic-form="medial" 
d="M326 321q8 0 13 -12t5 -41q0 -16 8 -32t21.5 -29.5t31.5 -23.5t38 -14q11 -2 19 -2h16h10q24 0 36.5 -8.5t18.5 -20t7 -24.5t1 -22q0 -8 -1 -23.5t-6.5 -30.5t-18 -26.5t-35.5 -11.5h-13h-18t-24 2q-42 4 -71 22t-48 38.5t-28.5 38.5t-11.5 22q-7 -17 -27 -38.5t-54 -40
t-81 -31.5t-107 -13h-7q-35 0 -52.5 25.5t-17.5 57.5t17.5 58t53.5 26h50q27 0 59 3.5t64.5 15.5t62.5 35t53 63q14 25 22 31t14 6zM129 -223q26 28 49 53t46 53q8 10 11.5 10t10.5 -9q21 -26 47.5 -53.5t53.5 -51.5q11 -8 -4 -26q-14 -16 -34.5 -40.5t-39.5 -45.5
q13 -20 38 -45t50 -45q13 -11 4 -21q-23 -32 -44.5 -56.5t-42.5 -47.5q-7 -7 -11.5 -7.5t-11.5 4.5q-29 20 -59.5 45t-47.5 51q-7 11 -7 14.5t5 9.5q5 7 14.5 19t20 25.5t22 26.5t20.5 22q-28 25 -51.5 49t-40.5 44q-6 8 -6 12t8 10z" />
    <glyph glyph-name="uni06D0.f" unicode="&#x6d0;" horiz-adv-x="1043" arabic-form="final" 
d="M125 -76q0 -74 31 -126t81 -86t113.5 -49.5t129.5 -15.5q48 0 104 11t113.5 29t111.5 40t98.5 44.5t74.5 42.5t39 33q-1 13 -14.5 25.5t-34 24.5t-44 23t-46.5 21q-24 11 -51 20t-58 18q-21 6 -26.5 14.5t-5.5 18.5q0 3 7.5 20.5t17.5 38.5t21.5 40.5t18.5 26.5q4 4 7 6
t8 3l210 20h31q80 0 80 -81q0 -86 -108 -86q32 -11 55.5 -41t23.5 -64q0 -26 -9 -52.5t-24 -50.5q-26 -42 -70 -81.5t-98 -74.5t-115 -64t-123 -49.5t-120.5 -32t-107.5 -11.5q-79 0 -150.5 19t-125.5 59.5t-85.5 103t-31.5 148.5q0 51 8.5 104t23.5 103.5t34.5 95.5
t41.5 81q15 25 28 36t21 11q9 0 9 -10q0 -9 -5.5 -23.5t-13.5 -29.5q-38 -75 -56.5 -134.5t-18.5 -118.5zM299 -753q26 28 49 53t46 53q8 10 11.5 10t10.5 -9q21 -26 47.5 -53.5t53.5 -51.5q11 -8 -4 -26q-14 -16 -34.5 -40.5t-39.5 -45.5q13 -20 38 -45t50 -45
q13 -11 4 -21q-23 -32 -44.5 -56.5t-42.5 -47.5q-7 -7 -11.5 -7.5t-11.5 4.5q-29 20 -59.5 45t-47.5 51q-7 11 -7 14.5t5 9.5q5 7 14.5 19t20 25.5t22 26.5t20.5 22q-28 25 -51.5 49t-40.5 44q-6 8 -6 12t8 10z" />
    <glyph glyph-name="uni06D2.f" unicode="&#x6d2;" horiz-adv-x="526" arabic-form="final" 
d="M526 0q-73 -4 -145 -26t-137.5 -54.5t-120 -71.5t-92.5 -76q-2 -3 -4 -10t1 -8q11 -8 27.5 -13.5t38.5 -10.5q41 -8 84.5 -12.5t93 -7t107.5 -3.5t129 -1q93 0 178 0.5t167.5 2.5t167.5 4.5t178 7.5q122 10 248 23t240 20h7q8 0 12 -3.5t4 -8.5q0 -7 -2.5 -14t-5.5 -18
q-7 -15 -15.5 -32t-19 -31.5t-23 -24t-27.5 -10.5l-386 -41q-193 -12 -389.5 -21.5t-391.5 -9.5q-112 0 -189 3t-128.5 8.5t-82.5 14.5t-52 21q-27 17 -39 45t-12 63q0 14 5.5 37.5t12.5 47.5q17 52 53.5 99.5t85 88.5t105 74.5t113 58.5t110 39.5t94.5 16.5v-167z" />
    <glyph glyph-name="uni06D3.f" unicode="&#x6d3;" horiz-adv-x="526" arabic-form="final" 
d="M526 0q-73 -4 -145 -26t-137.5 -54.5t-120 -71.5t-92.5 -76q-2 -3 -4 -10t1 -8q11 -8 27.5 -13.5t38.5 -10.5q41 -8 84.5 -12.5t93 -7t107.5 -3.5t129 -1q93 0 178 0.5t167.5 2.5t167.5 4.5t178 7.5q122 10 248 23t240 20h7q8 0 12 -3.5t4 -8.5q0 -7 -2.5 -14t-5.5 -18
q-7 -15 -15.5 -32t-19 -31.5t-23 -24t-27.5 -10.5l-386 -41q-193 -12 -389.5 -21.5t-391.5 -9.5q-112 0 -189 3t-128.5 8.5t-82.5 14.5t-52 21q-27 17 -39 45t-12 63q0 14 5.5 37.5t12.5 47.5q17 52 53.5 99.5t85 88.5t105 74.5t113 58.5t110 39.5t94.5 16.5v-167zM500 664
q-14 -34 -24 -44.5t-20 -16.5q-23 -12 -57.5 -32t-74 -44.5t-81.5 -52.5t-81 -57q-6 -3 -8 -3q-4 0 -4 6q0 13 15 50q4 10 23 30t38 35q2 2 4.5 3.5t2.5 3.5q0 4 -10 8q-32 14 -48 25.5t-20 42.5q-1 4 -1 12q0 26 12 55.5t31 58.5t43.5 55.5t48.5 45.5q37 29 75 29
q58 0 58 -53q0 -27 -17 -70q-11 -28 -19 -28q-7 0 -21 12q-8 8 -16.5 13.5t-25.5 5.5q-21 0 -38.5 -5.5t-29.5 -13.5t-19 -16.5t-7 -15.5q0 -9 15.5 -20t36.5 -20t43.5 -15.5t37.5 -6.5q7 0 10 1q7 2 21 7t30 11.5t31.5 14t25.5 14.5q10 6 15 9.5t9 3.5q5 0 5 -7
q0 -5 -2.5 -13t-6.5 -18z" />
    <glyph glyph-name="uni06D5.f" unicode="&#x6d5;" horiz-adv-x="664" 
d="M461 358q11 -48 39 -88t70 -69q52 -34 87 -34h25q77 0 77 -77q0 -90 -80 -90h-23q-86 0 -165 67t-100 221q-12 -20 -24.5 -38.5t-36.5 -35.5q-35 -24 -85.5 -34.5t-105.5 -10.5q-40 0 -70.5 9.5t-30.5 38.5q9 62 18 100t22.5 63.5t33 45t49.5 43.5q13 10 35.5 25t48 31.5
t49 32t38.5 26.5q-3 23 -3 39q0 29 7 47.5t20 41.5q8 15 15.5 25.5t14.5 10.5q5 0 9.5 -9t8.5 -31q19 -113 31 -203t26 -147zM372 381q-3 17 -5 29.5t-4.5 25l-5.5 27.5t-7 36q-26 -16 -58 -36.5t-60.5 -40t-49 -36t-22.5 -24.5q0 -8 15 -12.5t39 -4.5q35 0 79 9t79 27z" />
    <glyph glyph-name="u064C0651" unicode="&#xfc5e;" arabic-form="isolated" 
d="M-297 416q0 18 5 40t13 44.5t18 45t21 41.5q27 47 65 87.5t83 69.5t96 45.5t105 16.5q27 0 59.5 -6t61 -17.5t47.5 -29t19 -41.5q0 -30 -17.5 -66t-44 -70t-57.5 -63.5t-58 -47.5q-1 -1 -4 1t-9 8t-8 10t0 6q49 42 75 73.5t27 66.5q-5 20 -20 34.5t-35 24.5t-42 14.5
t-41 4.5q-40 0 -87.5 -16.5t-89 -46t-70 -70t-29.5 -88.5q0 -12 11.5 -29t37.5 -34q2 -2 0 -6q-8 -13 -24.5 -31t-48.5 -38q-6 -4 -9 -4t-11.5 5t-17 14.5t-15 22.5t-6.5 29zM23 635q14 0 23.5 -5t17.5 -18q7 -11 9 -25.5t2 -31.5q0 -28 -9.5 -53t-21.5 -51q20 -20 20 -28
q-4 -35 -34 -68l-34 26q-63 -85 -124 -113q-16 -7 -41 -15.5t-54 -16.5t-58.5 -15t-53.5 -11q-31 -5 -31 4q0 5 12 12q248 133 304 186q-20 17 -39.5 39t-19.5 53q0 25 15 47t35 42q42 42 82 42zM-11 556q-9 0 -20 -7t-19 -21q6 -22 48 -46q13 13 13 45q0 13 -5.5 21
t-16.5 8zM-12 74q-54 -86 -108 -86q-35 0 -59 27q-15 18 -21 39t-6 48q0 23 8 52q2 6 5.5 14.5t8.5 16t11 13t12 5.5q7 0 8.5 -7.5t1.5 -21.5q0 -4 -0.5 -14t-0.5 -13q0 -22 14 -32.5t34 -10.5q48 0 66 61l6 18t9.5 24t13 20.5t16.5 8.5q14 0 14 -27v-9q0 -28 26 -28
q23 0 39.5 16t23.5 40q8 29 14.5 40.5t15.5 11.5q7 0 10.5 -7t5 -16t2 -19t0.5 -16q0 -21 -4 -42.5t-14 -41.5q-14 -32 -38 -53.5t-62 -21.5q-14 0 -23 4t-17 9q-5 3 -7 3t-5 -5z" />
    <glyph glyph-name="u064D0651" unicode="&#xfc5f;" arabic-form="isolated" 
d="M78 595q26 0 45.5 28.5t24.5 72.5q7 37 14 44t12 7q6 0 10.5 -10.5t7 -24t3.5 -27t1 -19.5q0 -57 -11.5 -95t-31 -61.5t-44 -33.5t-50.5 -10q-14 0 -28.5 6t-27.5 17q-20 -47 -52.5 -74t-73.5 -27q-15 0 -30 6.5t-29 22.5t-21 37.5t-7 46.5q0 22 4 44t10.5 39.5t15 28.5
t17.5 11q5 0 8 -6.5t3 -15.5q-3 -23 -3 -29v-9q0 -18 13 -30q9 -8 17.5 -10.5t18.5 -2.5q5 0 15.5 2.5t21.5 7.5q32 15 42.5 37t19.5 57q4 22 13 34.5t20 12.5q6 0 9.5 -14.5t5.5 -31.5q1 -12 8.5 -21.5t28.5 -9.5zM183 292q5 2 5.5 -1t0.5 -5q-3 -20 -12.5 -43.5
t-23.5 -40.5q-5 -5 -13 -10.5t-22 -12.5l-309 -144q-6 -2 -6 4q0 9 4 24t10 30q8 20 13 26t8 9q8 8 25 15zM183 443q5 2 5.5 -1t0.5 -5q-3 -20 -12.5 -43.5t-23.5 -40.5q-5 -5 -13 -10.5t-22 -12.5l-309 -144q-6 -2 -6 4q0 9 3.5 23.5t10.5 30.5q8 19 13 25.5t8 9.5
q8 8 25 15z" />
    <glyph glyph-name="u064E0651" unicode="&#xfc60;" arabic-form="isolated" 
d="M148 504q5 2 5.5 -1t0.5 -5q-3 -20 -12.5 -43.5t-23.5 -40.5q-5 -5 -13 -10.5t-22 -12.5l-292 -136q-6 -2 -6 4q0 9 3.5 23.5t10.5 30.5q8 19 13 25.5t8 9.5q8 8 25 15zM-13 95q-26 -44 -54 -69.5t-70 -25.5q-41 0 -62 33.5t-21 78.5q0 14 2 27.5t5 28.5q1 6 4.5 15.5
t8 18.5t10.5 15.5t13 6.5q15 0 15 -42v-19q0 -18 12 -29t35 -11h3q52 3 65 70q1 8 4.5 21t9 26t13 22.5t17.5 9.5q8 0 11.5 -9t5.5 -30q1 -11 7.5 -17.5t19.5 -6.5q26 0 43.5 16.5t20.5 44.5q5 36 13 49t17 13q6 0 10.5 -8.5t7.5 -20.5t4 -25.5t1 -23.5q0 -16 -2.5 -34
t-9.5 -40q-12 -38 -38 -63t-73 -25q-11 0 -19.5 3.5t-13.5 6.5t-7.5 2t-7.5 -9z" />
    <glyph glyph-name="u064F0651" unicode="&#xfc61;" arabic-form="isolated" 
d="M-17 87q-27 -44 -52.5 -64.5t-51.5 -23.5q-2 0 -5 -0.5t-5 -0.5q-14 0 -30 7.5t-28 20.5q-15 19 -21.5 40.5t-6.5 49.5q0 26 9 54q2 6 5.5 14.5t8.5 16.5t11 13.5t13 5.5t8.5 -7.5t1.5 -22.5q0 -4 -0.5 -14t-0.5 -14q0 -20 12.5 -31.5t35.5 -12.5h2q48 0 68 63q2 7 6 19
t9.5 24t13.5 21t17 9q14 0 14 -28v-9q0 -29 27 -29q7 0 11 1q20 4 34 19.5t20 37.5q8 30 15 42t16 12q6 0 10 -6t6 -14q2 -9 2.5 -19t0.5 -21q0 -46 -19 -87q-14 -32 -38.5 -54.5t-64.5 -22.5q-14 0 -23.5 4t-17.5 9t-13 -2zM36 575q-8 0 -17 -7t-16 -24q9 -18 49 -36
q5 8 6.5 19.5t1.5 20.5q0 27 -24 27zM64 653q23 0 34.5 -18.5t15.5 -35.5q3 -16 3 -23q0 -24 -5.5 -46t-13.5 -45q20 -13 21 -24q0 -33 -25 -66l-34 21q-59 -90 -96 -116q-38 -28 -119 -32q-23 0 -27.5 4t3.5 8q148 89 195 159q-10 7 -21.5 15.5t-21 19t-16 22.5t-6.5 26
q0 35 37 82q37 49 76 49z" />
    <glyph glyph-name="u06500651" unicode="&#xfc62;" arabic-form="isolated" 
d="M72 462q26 0 45.5 28.5t24.5 72.5q7 37 14 44t12 7q6 0 10.5 -10.5t7 -24t3.5 -27t1 -19.5q0 -57 -11.5 -95t-31 -61.5t-44 -33.5t-50.5 -10q-14 0 -28.5 6t-27.5 17q-20 -47 -52.5 -74t-73.5 -27q-15 0 -30 6.5t-29 22.5t-21 37.5t-7 46.5q0 22 4 44t10.5 39.5t15 28.5
t17.5 11q5 0 8 -6.5t3 -15.5q-3 -23 -3 -29v-9q0 -18 13 -30q9 -8 17.5 -10.5t18.5 -2.5q5 0 15.5 2.5t21.5 7.5q32 15 42.5 37t19.5 57q4 22 13 34.5t18 12.5t12 -8.5t5 -37.5q1 -12 8.5 -21.5t28.5 -9.5zM173 299q5 2 5.5 -1t0.5 -5q-3 -20 -12.5 -43.5t-23.5 -40.5
q-5 -5 -13 -10.5t-22 -12.5l-303 -139q-6 -2 -6 4q0 9 3.5 23.5t10.5 30.5q8 19 13 25.5t8 9.5q8 8 25 15z" />
    <glyph glyph-name="u06510670" unicode="&#xfc63;" arabic-form="isolated" 
d="M-23 81q-58 -70 -113 -70q-20 0 -35.5 8.5t-26.5 22.5q-13 17 -19 39.5t-6 42.5t3 37.5t11 38.5t20.5 37.5t30.5 16.5q8 0 9 -5.5t-1 -13.5q-2 -13 -3.5 -22.5t-1.5 -24.5q0 -26 16 -38.5t38 -12.5t38.5 18t27.5 44q17 40 34 56t31 16q12 0 11 -21q-1 -7 -1.5 -12
t-0.5 -14q0 -16 8.5 -25.5t30.5 -9.5q18 0 34 12t31 41t22 41t18 12q9 0 10.5 -12.5t1.5 -23.5q0 -64 -34 -120q-14 -24 -38.5 -46t-63.5 -22q-22 0 -35 5.5t-24 15.5q-6 6 -10.5 2.5t-12.5 -13.5zM-52 786q47 -59 79 -129.5t32 -156.5q0 -83 -35 -164q-10 -24 -18 -24
q-6 0 -6 17t1.5 35.5t1.5 38.5q0 78 -22.5 142.5t-67.5 124.5q-4 5 -3 9l28 104q2 8 5 6.5t5 -3.5z" />
    <glyph glyph-name="uniFDFA" unicode="&#xfdfa;" horiz-adv-x="2451" arabic-form="isolated" 
d="M1757 283q0 -61 -20 -112.5t-65 -108.5q-65 -86 -164 -118q-23 -7 -48 -12t-54 -5q-57 0 -107 23.5t-86 71.5q-9 12 -9 19t10 7q7 0 22 -5q47 -16 122 -17h5q76 0 177 40q106 42 146 133q2 5 3 10t1 11t-1 12t-3 14q-22 -48 -78 -48q-27 1 -46.5 11t-31.5 27
q-20 26 -20 68q1 22 8 48t22 58q31 65 56.5 88.5t47.5 23.5q34 0 74 -57q39 -55 39 -182zM2200 329q29 0 58 -13q33 -15 58 -38.5t42 -51.5q5 -10 5 -14q0 -8 -10 -8q-7 0 -15 4q-69 31 -141 32h-4q-70 0 -114 -55q-3 -7 -3 -16q0 -25 20 -44.5t41 -34.5q44 -32 98 -32
q26 0 75 15q10 3 25.5 8t31 9.5t28 8t16.5 3.5q8 0 8 -12q0 -29 -12.5 -52.5t-39.5 -33.5q-86 -33 -155.5 -55t-123.5 -35q-14 -3 -28 -6.5t-29 -3.5q-47 0 -68 49q-11 0 -16 -26q-18 -84 -57 -126q-17 -18 -41 -28.5t-51 -10.5q-77 0 -102 103q-52 -33 -128.5 -59.5
t-166.5 -45t-189.5 -28.5t-197.5 -10q-113 0 -217.5 13.5t-186 42t-131.5 73.5t-55 109q-45 -56 -96 -56q-52 0 -100 13q-37 11 -51 22t-14 24q0 10 3.5 18t8.5 16q36 69 73 95q29 19 70 34.5t104 29.5q5 23 16 46q5 9 14 23t23 14q10 0 10 -17q-2 -18 -2 -35v-32
q0 -51 5.5 -84.5t15.5 -52.5q13 -25 41.5 -46.5t69.5 -38.5q45 -19 102.5 -33.5t123.5 -24.5t137.5 -15t144.5 -5q92 0 182 8t169.5 24.5t143.5 41.5t103 59q7 5 11 5q10 0 10 -31q0 -41 40 -66q19 -11 37 -11q13 0 25.5 4t26.5 15q31 25 31 114v11q0 29 -3 104t-10 197
l-9 199q47 138 71 138q6 0 6 -13q0 -50 0.5 -112.5t1.5 -140.5l12 -273q6 -87 25 -106q11 -9 27 -9q14 0 38 8q-18 14 -36.5 35.5t-18.5 54.5q0 108 114 190q21 15 42 21.5t38 6.5zM1721 -460q-5 -5 -9 -5t-11 5l-85 60q-8 -14 -20 -33t-31 -41l-5 -5t-5 -2q-5 0 -10 4
q-13 8 -38 25.5t-53 40.5q-3 3 -3 6t2 7l62 91q3 5 9 5q4 0 12 -5l89 -68q11 14 22.5 32t24.5 40q7 9 12 9q6 0 18 -9l70 -47q9 -5 9 -12q0 -5 -3 -11zM1412 310q0 -22 -3.5 -43.5t-9.5 -43.5q-30 -105 -115 -120h-4q-40 0 -65 28t-30 55q-42 -98 -124 -105q-4 0 -7 -0.5
t-6 -0.5q-69 0 -89 75q-49 -54 -156 -63q-10 -1 -20 -1.5t-19 -0.5q-81 0 -141 33q-73 40 -106 150q-32 113 -41 236l-57 -38q38 -61 38 -114q0 -38 -16 -77q-16 -40 -60 -42h-7q-40 0 -88 14q-51 17 -81 40q-29 -50 -97 -87q-28 -16 -46 -16q-22 0 -23 28q0 49 47 60
q47 10 85 45q7 5 7 13v2q-3 12 -4.5 25.5t-1.5 24.5q0 33 20 68q26 48 74 48q8 0 18 -0.5t16 -0.5q63 0 102 17t68 53q-2 37 -3 86t-2 112q0 44 31 87q16 23 25 23q7 0 7 -17q2 -54 3.5 -114t4.5 -126q3 -80 9.5 -144t19.5 -117q27 -103 116 -132q32 -9 63.5 -14t63.5 -5
q14 0 29 1t29 3q90 12 134 69q8 10 15 10q9 0 9 -16q0 -5 -1 -12.5t-2 -13.5q-1 -4 -1 -10q0 -35 49 -35h11q68 5 102 75q12 24 19.5 38.5t13 21.5t8.5 9t6 2q20 -2 20 -34q0 -5 -0.5 -10.5t-1.5 -11.5t-1.5 -11t-0.5 -10q0 -17 5 -26.5t16 -16.5q20 -12 45 -12q12 0 28 6.5
t16 23.5q0 6 -4.5 14.5t-15.5 18.5q-6 6 -6 12q0 2 0.5 4t1.5 5l28 71q2 7 6.5 13.5t9.5 6.5q9 0 15.5 -8t11.5 -20.5t7.5 -27.5t2.5 -30zM1660 346q-1 22 -25 40q-13 10 -26 10q-7 0 -18 -7q-20 -15 -20 -30q0 -13 14 -21.5t29 -8.5q27 0 46 17zM393 331q5 0 8.5 2t3.5 8
q0 10 -14 19q-100 52 -146 54q-15 -1 -15 -12q0 -3 2 -9q41 -39 102 -54q21 -5 36 -6.5t23 -1.5zM415 92q-106 -23 -123 -37q-4 -3 -10 -9.5t-6 -13.5q0 -11 14.5 -17.5t24.5 -8.5q32 -7 56 -7q15 0 25.5 3.5t18.5 10.5v79zM1271 1122q0 -9 0.5 -17.5t0.5 -16.5
q0 -60 -7.5 -112.5t-24.5 -106.5q-5 -16 -11 -21.5t-11 -5.5q-7 0 -7 20v8q0 97 -9 275q-5 93 -7 159.5t-3 108.5q2 109 29 162q19 37 30 37q8 0 8 -12q-1 -15 -1 -31.5v-36.5q0 -71 3 -172.5t10 -237.5zM2320 1024q-68 -108 -138 -136q-53 -21 -117.5 -30t-141.5 -9
q-47 0 -100 3q-10 -10 -20 -22t-21 -26q-18 -23 -34 -23q-11 0 -11 13q0 14 11 33l17 30q-74 12 -82 62q-28 -27 -53.5 -37.5t-50.5 -10.5q-27 0 -48 11.5t-36 29.5t-24.5 40.5t-12.5 43.5q-17 -63 -50 -136q174 -31 204 -103q5 -15 5 -28q0 -56 -69 -127q-86 -86 -223 -120
q-87 -22 -171 -22q-33 0 -70.5 4t-74 15t-69 31t-55.5 52q-17 23 -26.5 57.5t-9.5 76.5q0 43 11.5 91.5t37.5 102.5q-19 14 -42.5 42.5t-52.5 73.5q-10 -21 -25 -44t-34.5 -42.5t-42.5 -32t-49 -12.5q-111 0 -144 114q-20 -31 -47 -45.5t-75 -14.5q-30 0 -58.5 7t-39.5 15
q-18 14 -18 34q0 19 12.5 43t26.5 47q41 68 199 128v48q0 29 9 41q10 15 28 33q10 10 17 10t7 -11q2 -91 5 -148.5t6 -82.5q9 -62 84 -62q34 0 59 20q36 29 43 64q-5 35 -13.5 88t-20.5 125q-1 5 -1 14q0 23 13 48t45 61q3 4 7 4t7 -5t4 -19q8 -55 17 -106.5t18 -100.5
q18 -98 61 -150q21 -23 38 -35q8 -6 18 -10t21 -4q17 0 23 5.5t6 17.5q0 8 -1 13q-14 52 -25 114t-21 135v8q0 28 17 77q19 55 33 55q5 0 7 -6t2 -22q0 -15 11 -84t31 -194q3 -20 7.5 -45.5t4.5 -43.5q0 -67 -34 -120q-41 -62 -104 -65q-18 -54 -18 -98q2 -104 106 -153
q66 -28 164 -28q49 0 98 7.5t99 24.5q99 33 153 71q0 2 0.5 3t0.5 3q0 29 -63 47q-34 10 -64.5 16t-58.5 9q-42 5 -42 26q0 10 6 16.5t14 14.5q44 43 66.5 97.5t27.5 123.5q1 14 1.5 44t0.5 75t-0.5 104.5t-1.5 135.5v14q0 60 6.5 103t20.5 71q21 41 36 41q6 0 11 -8
q0 -11 -0.5 -55.5t-1.5 -123.5q-1 -27 -1 -51.5v-46.5v-42.5t1 -36.5q2 -49 5.5 -92.5t8.5 -81.5q12 -75 59 -99q17 -6 36 -6q42 0 80 29q11 13 18 24t15 22q5 6 9 10t10 4q7 0 9 -5.5t2 -12.5q0 -8 -1 -14.5t-2 -10.5t-1.5 -7t-0.5 -6q0 -23 21 -37.5t71 -16.5
q125 115 214 169t149 55q47 0 82 -28q46 -36 46 -99q0 -21 -8 -47zM2226 1031q0 15 -8.5 27t-22 20t-29 12.5t-29.5 4.5q-73 0 -230 -130q88 0 164.5 7.5t143.5 21.5q11 22 11 37zM503 1133q-22 -4 -44.5 -11.5t-45.5 -20.5q-45 -25 -45 -50q5 -5 23.5 -10t42.5 -5t39.5 3
t29.5 12v82zM756 1568q-40 -49 -80 -49q-26 0 -44 23q-9 13 -12 25.5t-4 26.5v6q0 28 12 56q15 34 31 34q11 0 11 -15q0 -8 -3 -22q-1 -4 -1.5 -7t-0.5 -7q0 -12 7.5 -21.5t28.5 -9.5q30 0 46 44q18 50 37 50q18 0 18 -21q0 -6 -1 -9q0 -2 -0.5 -3.5t-0.5 -3.5q0 -21 23 -21
q15 0 26.5 9.5t17.5 24.5q9 23 16 32t14 9q4 0 7.5 -4t3.5 -17q0 -26 -5 -47.5t-19 -44.5q-27 -43 -66 -45h-4q-16 0 -24.5 4.5t-16.5 9.5q-4 2 -5 2q-4 0 -12 -9zM1755 1537q-42 -51 -81 -51q-32 0 -45 24.5t-13 57.5q0 36 14 69q15 34 31 34q11 0 11 -15q0 -8 -3 -22
q-2 -10 -2 -14q0 -26 29 -31h6q32 0 47 44q17 50 37 50q17 0 17 -21q0 -4 -0.5 -7.5t-0.5 -8.5q0 -21 26 -21q29 1 41 34q10 24 17 32.5t14 8.5q8 0 9.5 -9t1.5 -16q0 -45 -26 -92q-11 -20 -28.5 -37.5t-45.5 -17.5q-17 0 -25 5t-15 11q-4 2 -5 2q-3 0 -11 -9z" />
    <glyph glyph-name=".notdef" horiz-adv-x="770" 
d="M0 1079h770v-1079h-770v1079zM647 1001h-524l262 -393zM694 145v787l-262 -391zM647 78l-262 393l-262 -393h524zM78 145l262 396l-262 391v-787z" />
    <glyph glyph-name=".null" 
 />
    <glyph glyph-name=".null" 
 />
    <glyph glyph-name="nonmarkingreturn" unicode="&#xd;" horiz-adv-x="512" 
 />
    <glyph glyph-name="space" unicode=" " horiz-adv-x="412" 
 />
    <glyph glyph-name="exclam" unicode="!" horiz-adv-x="475" 
d="M330 934q8 0 20.5 -4t18.5 -11q0 -10 -4 -48t-10.5 -91.5t-15 -118.5t-17 -130.5t-16.5 -126.5t-13 -106q-3 -1 -12 -0.5t-18 2t-17 4t-10 5.5q-4 38 -11.5 89t-15.5 107t-17 113t-16 106.5t-12 87t-7 54.5q-2 9 5.5 25.5t18.5 21.5q13 5 34 8.5t43 6.5t42 4.5t30 1.5z
M271 180q40 0 67 -22q18 -19 25 -40t7 -40q0 -13 -6.5 -34t-20.5 -35q-32 -29 -81 -29q-14 0 -32 5.5t-34 20.5q-27 31 -27 73q0 43 32 75q14 12 33 19t37 7z" />
    <glyph glyph-name="quotedbl" unicode="&#x22;" horiz-adv-x="498" 
d="M205 948q0 -34 -3 -77.5t-8 -83t-10.5 -70.5t-10.5 -41q-10 -26 -24.5 -40t-25.5 -25q-2 -1 -9.5 -1h-9.5q-1 48 -4 102.5t-6.5 104t-8.5 87.5t-10 53q3 3 17 11.5t31.5 17.5t34.5 17t26 9l7 -1q7 -2 8 -2q5 -7 5.5 -24.5t0.5 -36.5zM424 955q0 -36 -4 -78t-9.5 -80
t-11.5 -67.5t-11 -39.5q-9 -26 -23 -41.5t-25 -25.5q-2 -2 -10.5 -2.5t-8.5 1.5q-1 48 -4 101t-7 100t-9 83.5t-11 51.5q4 4 19.5 14.5t34 21t35 19t22.5 8.5q2 0 8 -0.5t7 -0.5q5 -7 6.5 -25.5t1.5 -39.5z" />
    <glyph glyph-name="numbersign" unicode="#" horiz-adv-x="708" 
d="M496 897q2 2 10.5 5.5t18 6.5t18 5.5t11.5 2.5q2 0 5 -1.5t3 -2.5l-46 -213q0 -1 2 -3.5t4 -2.5q41 0 83 1.5t65 6.5q0 -3 -1 -11t-2.5 -16.5t-3.5 -16t-4 -9.5q-27 -29 -63 -41t-95 -13q-4 0 -6 -3t-4 -4l-32 -153q0 -8 4 -8q40 0 77.5 1t69.5 7q0 -2 -0.5 -9t-2 -15
t-4 -15.5t-4.5 -10.5q-29 -34 -66.5 -48.5t-91.5 -15.5q-2 0 -4 -3t-2 -5q-5 -22 -11.5 -53.5t-13 -62.5t-12 -58t-8.5 -42q-2 -2 -5.5 -2.5t-5.5 -0.5q-1 0 -8 4t-15.5 9t-15.5 9.5t-7 6.5q4 15 10 41t12 55t12 56.5t9 45.5h-143q-6 0 -6 -6q-6 -24 -13 -56.5t-14 -64
t-13.5 -58t-9.5 -39.5q-2 -2 -6 -3.5t-5 -1.5q-3 1 -10.5 5.5t-15 9.5t-14 9.5t-6.5 6.5q4 20 9.5 45t12 51t13 52.5t11.5 49.5q-61 0 -96.5 2t-44.5 4q-2 4 1.5 20.5t9.5 35.5t12.5 34.5t9.5 17.5q27 -4 60 -5.5t71 -1.5l35 167q-12 0 -32.5 0.5t-41.5 1.5t-38 2t-23 2
q-1 5 2.5 20t9.5 32.5t12.5 31.5t10.5 15q27 -1 57.5 -2t62.5 -1l39 185q0 1 8.5 4t19 6.5t20.5 6t12 2.5q1 0 3.5 -2t3.5 -4l-40 -190q0 -7 5 -9l138 -2zM293 595q-2 0 -4.5 -3.5t-4.5 -5.5l-34 -148q0 -2 1.5 -6t3.5 -4h139l37 167h-138z" />
    <glyph glyph-name="dollar" unicode="$" horiz-adv-x="754" 
d="M244 724q0 -28 8.5 -50.5t23.5 -40.5t36 -33.5t46 -29.5q6 -4 7 4l28 285q0 6 -6 6q-37 -3 -64.5 -16t-44.5 -32t-25.5 -43t-8.5 -50zM369 63q2 -6 4 -6q28 0 54.5 8t47.5 25t34.5 43t13.5 62q2 57 -28 92t-89 69q-2 2 -5.5 0t-3.5 -4zM306 -8q0 8 -7 8q-29 2 -60 8
t-58 12.5t-48.5 13t-32.5 9.5q-6 9 -12.5 34.5t-11.5 57t-9 62.5t-6 50q1 2 8 5t15 5.5t15.5 4t10.5 0.5q19 -57 39.5 -93.5t44.5 -58.5t52 -33t61 -17q6 -4 6 3l33 310q-4 9 -8 11q-52 28 -95 55.5t-74 60t-48 72.5t-17 93q0 58 21.5 104t60 78t91.5 49.5t116 17.5q5 0 8 5
l11 108q3 2 11 4.5t17 4t17.5 2t12.5 0.5l-14 -118q0 -6 7 -6q29 -3 59 -7.5t54 -8.5q23 -3 45.5 -5t37.5 -4q-10 -39 -17.5 -90t-13.5 -103q-1 -2 -8.5 -4t-16 -2.5t-16 0t-8.5 3.5q-2 44 -9.5 74t-22 49t-37 29.5t-54.5 16.5q-6 0 -6 -5l-31 -306q2 -7 3 -8.5t3 -3.5
q48 -24 94 -48.5t82 -56t57.5 -72t21.5 -97.5q0 -55 -20 -101t-59.5 -80.5t-97.5 -56t-133 -26.5q-6 0 -8 -6l-10 -118q-3 -2 -11.5 -4t-18 -3.5t-18 -1.5t-11.5 1z" />
    <glyph glyph-name="percent" unicode="%" horiz-adv-x="1092" 
d="M209 22q80 117 156.5 230.5t152.5 226.5t152.5 227t155.5 231q5 3 14 6t19 6t19 4.5t13 1.5q3 0 6 -4t3 -8q-11 -14 -40.5 -57t-71.5 -105t-93 -138t-104.5 -156.5t-106.5 -160t-99.5 -148.5t-82.5 -122.5t-56 -81.5q-2 -2 -7 -2.5t-7 0.5q-2 2 -5.5 8.5t-7.5 14
t-6.5 15.5t-3.5 12zM843 533q44 0 78.5 -19.5t58 -52t35.5 -73t12 -82.5q0 -51 -8.5 -88t-21 -63.5t-28 -44t-29.5 -28.5q-43 -36 -82.5 -50.5t-83.5 -14.5q-42 0 -76.5 18t-59 49.5t-37.5 73t-13 88.5q0 78 20.5 128t58.5 86q29 29 76.5 51t99.5 22zM803 476q-26 0 -43 -17
t-27.5 -43.5t-14.5 -58.5t-4 -62q0 -60 10 -101t25.5 -66.5t35 -37t38.5 -11.5q29 0 48 14t30.5 38t16 55.5t4.5 65.5q0 44 -7 84.5t-21.5 71.5t-37 49.5t-53.5 18.5zM319 916q47 0 81.5 -20t57 -52t33.5 -72t11 -81q0 -49 -8.5 -86t-22 -65t-29 -46.5t-29.5 -30.5
q-42 -35 -81 -48.5t-83 -13.5q-42 0 -76.5 17.5t-58.5 48t-37 73t-13 91.5q0 77 21 127t57 85q31 29 78.5 51t98.5 22zM278 860q-26 0 -43 -17.5t-27.5 -44t-14.5 -59t-4 -62.5q0 -59 10 -100t25.5 -66.5t35.5 -37t39 -11.5q29 0 47.5 14t29.5 37.5t15.5 54.5t4.5 65
q0 45 -6.5 86t-21 72.5t-36.5 50t-54 18.5z" />
    <glyph glyph-name="ampersand" unicode="&#x26;" horiz-adv-x="1108" 
d="M419 895q-39 0 -69.5 -32.5t-30.5 -96.5q0 -51 28 -100.5t78 -92.5q2 -2 5.5 -2t5.5 2q43 35 69.5 79t26.5 105q0 26 -7 50.5t-21.5 44t-35.5 31.5t-49 12zM315 457q-7 5 -9 0q-34 -33 -55.5 -68.5t-21.5 -86.5q0 -43 18 -81.5t49 -67t74 -45t92 -16.5q54 0 101 21.5
t76 53.5q4 4 0 8q-40 32 -82.5 67.5t-85 72t-82.5 72.5t-74 70zM445 948q47 0 87 -14.5t69 -40t45 -60.5t16 -76q0 -31 -11 -57.5t-34.5 -51.5t-59 -51t-85.5 -56q-4 -3 -2 -8q22 -20 54.5 -48t69 -58t75.5 -60t74 -55q6 -4 11 1q13 19 25 41.5t22 44.5t18 43t13 37
q6 19 5 34.5t-23 25.5q-25 9 -74 15q-3 1 -3.5 8t0 16t2 16.5t3.5 9.5q18 0 59 -2.5t90 -2.5q72 0 109.5 2.5t51.5 2.5q2 -2 3 -10t0.5 -16.5t-2.5 -15.5t-5 -9q-17 -2 -33 -6t-27 -8q-23 -7 -38 -19t-24 -29q-46 -73 -74 -124t-52 -84q-1 -2 -0.5 -5t2.5 -4
q33 -23 68.5 -49t68 -51t57 -45.5t34.5 -33.5q0 -14 -10.5 -37.5t-24.5 -47.5t-28 -44.5t-21 -27.5q-5 -2 -13.5 -2t-12.5 2q-8 16 -24 31t-25 23q-47 38 -88.5 72t-89.5 71q-4 2 -8 -2q-77 -85 -154.5 -121.5t-158.5 -36.5q-66 0 -121.5 20t-95 56t-61.5 86.5t-22 111.5
q0 32 8.5 59t31 55t62 59.5t100.5 71.5q2 6 0 8q-38 43 -61.5 91.5t-23.5 114.5q0 51 20.5 95t55.5 76t81.5 50.5t98.5 18.5z" />
    <glyph glyph-name="quotesingle" unicode="'" horiz-adv-x="283" 
d="M209 949q0 -34 -3.5 -77t-9 -82.5t-12 -70.5t-11.5 -42q-8 -23 -23.5 -40t-26.5 -26q-5 -1 -11 -2t-9 1q-1 48 -3.5 102.5t-6 104t-8.5 87.5t-10 53q3 3 18 11.5t33.5 17.5t35.5 17t24 9q1 0 8 -0.5t7 -2.5q5 -6 6.5 -23t1.5 -37z" />
    <glyph glyph-name="parenleft" unicode="(" horiz-adv-x="617" 
d="M124 413q0 132 31 245.5t83.5 208t122 168.5t146.5 127q3 0 8.5 -4.5t10.5 -10.5t8.5 -12t3.5 -9q-61 -56 -113.5 -122.5t-90.5 -150t-60 -186t-22 -229.5q0 -230 67 -409t201 -306q1 -3 -2.5 -9t-8.5 -12.5t-11 -11.5t-10 -5q-26 11 -63 41t-77.5 76t-80.5 108.5
t-71.5 139.5t-51.5 168t-20 195z" />
    <glyph glyph-name="parenright" unicode=")" horiz-adv-x="617" 
d="M493 433q0 -133 -30.5 -246.5t-83 -207t-122 -167.5t-147.5 -127q-3 0 -8.5 5t-10.5 11.5t-7.5 12.5t-1.5 9q62 59 113.5 127t89 150.5t58.5 184t21 227.5q0 228 -64 405t-203 309q-1 2 3 8t9.5 12t11 11t6.5 5q28 -12 66 -42t78.5 -76t80 -108t71 -139t51 -168.5
t19.5 -195.5z" />
    <glyph glyph-name="asterisk" unicode="*" horiz-adv-x="570" 
d="M334 832q12 4 35.5 13t50 19.5t53.5 21.5t47 20q2 -2 7 -7.5t3 -9.5q-3 -6 -7 -14.5t-8.5 -17.5t-10 -16t-10.5 -10q-15 -7 -33.5 -15.5t-38 -17t-37.5 -16t-33 -13.5q11 -10 32.5 -27.5t45.5 -35.5t46 -33t34 -21q1 -2 -1 -8t-5 -10q-5 -3 -15.5 -5t-22 -2.5t-23 0
t-18.5 3.5q-38 19 -65.5 41t-53.5 37q-5 -20 -10.5 -47.5t-10.5 -55t-9 -51t-5 -37.5q-3 -3 -9 -3q-9 1 -18.5 8t-17 17t-12 22t-3.5 24q3 26 10 66.5t14 75.5q-11 -4 -36.5 -13t-55 -18.5t-57 -19t-42.5 -14.5q-2 2 -4.5 6t-4.5 8q3 6 8.5 16t11.5 20t12.5 17.5t10.5 9.5
q18 7 33.5 12t30.5 10.5t32.5 11.5t39.5 15q-10 8 -28 24t-37.5 34t-36.5 35l-26 26q-5 5 -5 13.5t5 11.5q14 11 35 19.5t30 8.5q18 -23 50 -55t60 -58q5 24 10.5 48.5t10.5 46t9 38t7 24.5q2 4 11.5 7.5t22 6.5t25 4.5t21.5 1.5q1 -1 2.5 -4t1.5 -6q-6 -13 -12.5 -39
t-13.5 -53.5t-13 -52.5t-9 -37z" />
    <glyph glyph-name="plus" unicode="+" horiz-adv-x="840" 
d="M772 396q0 -4 -2.5 -15.5t-6.5 -24t-8.5 -22.5t-8.5 -10q-6 -1 -35.5 -1h-70t-85.5 -0.5t-83 -1.5q-5 0 -9 -6t-4 -8q-1 -35 -0.5 -82t1 -90.5t0.5 -75.5t-1 -37q-1 -4 -11.5 -9.5t-24 -10t-26 -8t-18.5 -3.5q-2 0 -6 0.5t-6 2.5q-1 8 -0.5 39t0.5 76.5t0.5 100.5
t-0.5 111h-298q-2 0 -2.5 6t-0.5 7q0 6 3 18t6 25t6.5 24.5t4.5 14.5q11 -2 59.5 -1.5t116.5 0.5h105v99q0 31 -0.5 62.5t-1 59t-1 47.5t-0.5 28q6 2 19 5.5t27.5 6.5t26 5t14.5 2q5 0 6.5 -8t1.5 -46v-43.5v-61v-70.5v-73q0 -3 3 -8t8 -5h299q2 -2 2.5 -10t0.5 -9z" />
    <glyph glyph-name="comma" unicode="," horiz-adv-x="341" 
d="M7 -246q-1 1 -3.5 6t-0.5 7q57 52 93 109.5t34 123.5q-1 28 -17 61t-37 62q5 8 19.5 23.5t32 31.5t34 29.5t25.5 16.5q5 2 17 3t17 -3q13 -11 27 -46t16 -81q2 -57 -18.5 -112t-52.5 -103t-70 -84.5t-71 -55.5q-6 -2 -21.5 2.5t-23.5 9.5z" />
    <glyph glyph-name="hyphen" unicode="-" horiz-adv-x="451" 
d="M78 365q27 1 74 2.5t95.5 3t89.5 2.5t56 2q0 -1 1 -9v-8q0 -8 -3 -22t-7 -28t-8 -25t-7 -12t-25.5 -2.5t-54 -3t-68.5 -2.5t-70.5 -1.5t-59 -0.5h-33.5v7q-1 8 -1 9q0 9 2.5 24t5.5 29t6.5 24.5t6.5 10.5z" />
    <glyph glyph-name="period" unicode="." horiz-adv-x="341" 
d="M172 193q18 0 37 -8t32 -19q20 -18 25 -40t5 -41q0 -16 -6 -37.5t-21 -35.5q-16 -16 -36 -23.5t-42 -7.5q-16 0 -34 7t-32 21q-17 15 -24 35.5t-7 43.5q0 20 9 39t23 36q15 14 34 22t37 8z" />
    <glyph glyph-name="slash" unicode="/" horiz-adv-x="702" 
d="M623 1049q8 -6 8 -11q-2 -7 -20 -55t-47 -123.5t-66.5 -171t-77.5 -197t-80.5 -202.5t-76.5 -187t-64.5 -151t-44.5 -94q-3 -5 -13.5 -11.5t-22.5 -12t-23.5 -10t-16.5 -5.5q-5 2 -8.5 5t-3.5 7q21 45 51 115.5t65.5 155.5t73.5 180t75.5 189.5t72.5 184.5t63.5 164.5
t49.5 129t30 78.5q1 2 11.5 6t23 7.5t24.5 6t17 2.5z" />
    <glyph glyph-name="zero" unicode="0" horiz-adv-x="754" 
d="M399 925q38 0 69.5 -8t57 -21t44.5 -29t31 -32q20 -23 39 -56t33.5 -77.5t23 -100t8.5 -123.5q0 -145 -36.5 -256t-120.5 -176q-44 -37 -93 -51t-86 -14q-58 0 -103 14t-80 43q-71 56 -105 162.5t-34 247.5q0 57 7.5 111.5t23 104.5t40.5 93.5t60 77.5q46 48 104 69
t117 21zM367 866q-23 0 -41 -9.5t-30 -22.5q-33 -38 -53 -127t-20 -211q0 -232 46 -342t125 -110q23 0 40 8.5t28 19.5q15 16 28 44t22 72t14.5 106.5t5.5 147.5q0 211 -44 317.5t-121 106.5z" />
    <glyph glyph-name="one" unicode="1" horiz-adv-x="754" 
d="M619 43q1 -2 1 -9t-0.5 -15t-2.5 -15t-4 -9q-42 0 -100.5 2.5t-131.5 2.5q-76 0 -132.5 -2.5t-93.5 -2.5q-2 2 -3 9t-1 15t1 15t3 9q29 3 49.5 5t41.5 6q35 7 44 31t11 60q2 51 2.5 132.5t2.5 178.5q0 51 -0.5 97.5t-1 85t-1.5 66.5t-2 41q-2 19 -10.5 33.5t-29.5 16.5
q-15 2 -39.5 4t-44.5 3q-3 3 -3.5 10t0.5 15t2.5 14.5t3.5 8.5q37 3 76.5 11t76.5 18.5t70 22.5t56 22q3 2 11.5 -1t8.5 -7q-1 -20 -2.5 -41.5t-2 -55t-1 -84t-0.5 -129.5v-102t0.5 -131.5t1.5 -128t3 -93.5q2 -42 10.5 -65t37.5 -30q26 -6 46.5 -8.5t46.5 -5.5z" />
    <glyph glyph-name="two" unicode="2" horiz-adv-x="754" 
d="M270 790q-49 0 -94.5 -24t-93.5 -80q-4 -1 -10 3t-11.5 10t-9.5 12.5t-4 10.5q23 40 55.5 76.5t72 64.5t84.5 45t93 17q52 0 98 -20t80.5 -56t54.5 -87t20 -113q0 -81 -43 -158t-124 -163q-27 -29 -49.5 -52t-43.5 -43.5t-40.5 -39t-40.5 -39.5q-2 -2 -1.5 -7t5.5 -5
q19 -3 55.5 -4.5t78.5 -2.5t84.5 -1t72.5 1q11 0 24 6t28 21t31.5 40.5t34.5 64.5q3 2 10 0.5t14.5 -4.5t13.5 -6.5t7 -6.5q-4 -19 -14 -53t-22.5 -70.5t-26.5 -69t-26 -48.5q-5 -6 -20.5 -10t-55.5 -4q-40 -1 -90.5 -0.5t-105 2t-109.5 2.5t-103 1q-26 0 -49 -1t-40 -2
q-4 7 -5 19.5t-1 20.5q39 32 72.5 62t65 61.5t63.5 67t66 79.5q53 71 84 145t31 146q0 38 -9.5 73t-29.5 61.5t-51.5 42t-75.5 15.5z" />
    <glyph glyph-name="three" unicode="3" horiz-adv-x="754" 
d="M375 925q51 0 92 -17t70.5 -46t45.5 -67.5t16 -82.5q0 -34 -12 -62.5t-31.5 -52t-44.5 -43.5t-51 -38q-6 -4 -1 -6q44 -14 84 -35t70 -50.5t48 -68.5t18 -89q0 -81 -43 -147.5t-113 -110.5q-54 -35 -116 -54.5t-129 -19.5q-45 0 -79.5 7.5t-60.5 19.5q-17 8 -27.5 20
t-21.5 35t-18.5 55.5t-10.5 57.5q1 3 6.5 7t12.5 8t13 6.5t9 2.5q20 -45 47.5 -75.5t58.5 -47.5q30 -18 61 -24.5t73 -6.5q31 0 61.5 10.5t54.5 33.5t39 58.5t15 84.5q1 47 -15 87t-46 69.5t-73 46.5t-96 17q-13 0 -22.5 -0.5t-29.5 -2.5q-1 3 2 14t7.5 23t9.5 22t8 12
q104 22 149 64.5t45 105.5q0 32 -10 61t-29.5 51t-48.5 35t-67 13q-48 0 -90.5 -23t-84.5 -61q-4 -1 -8.5 4t-8 12t-6 14.5t-2.5 10.5q19 23 47.5 51.5t64.5 53t78.5 41.5t89.5 17z" />
    <glyph glyph-name="four" unicode="4" horiz-adv-x="754" 
d="M724 253q-36 0 -73.5 1t-74.5 1q-2 0 -4 -2t-2 -6q0 -70 0.5 -140t0.5 -141q-19 0 -43.5 -2t-48.5 -4.5t-46 -5t-36 -5.5q2 74 2 149.5t2 150.5q0 7 -7 7h-208h-164q-1 3 -0.5 10.5t1.5 16.5t2.5 17t2.5 12q25 36 63 89t82.5 113.5t90.5 123.5t86 117.5t70 95.5t42 58
q8 2 22.5 4.5t30 4.5t30 3t20.5 1q1 -26 1 -70t0.5 -97.5t0.5 -112v-112v-98v-71.5q0 -2 2 -5t4 -3q52 2 94.5 2.5t74.5 2.5q-6 -23 -11.5 -52.5t-6.5 -52.5zM145 353q20 -1 57 -1h75h117q7 0 7 7l6 377q0 1 -2 1h-4q-9 -12 -29 -39.5t-45.5 -63.5t-53.5 -76.5t-53.5 -78.5
t-46.5 -69t-31 -48q-1 -2 0 -5.5t3 -3.5z" />
    <glyph glyph-name="five" unicode="5" horiz-adv-x="754" 
d="M588 931q2 0 11 -7t9 -14q-1 -7 -7 -22t-15.5 -33t-21.5 -37t-26 -33t-31 -21.5t-34 -7.5q-60 0 -109 4.5t-66 4.5q-6 0 -11.5 -3.5t-6.5 -7.5q-11 -20 -22 -47.5t-19 -48.5q-2 -5 1.5 -11.5t5.5 -7.5q24 -12 61 -29.5t77.5 -37.5t80 -41t67.5 -40q70 -45 104.5 -97.5
t34.5 -132.5q0 -74 -35.5 -134.5t-90.5 -103t-122 -65.5t-131 -23q-79 0 -130 24.5t-77 52.5q-9 10 -15.5 24t-6.5 27q0 8 3.5 20t9 25.5t11.5 26t11 20.5q2 2 10 5t12 3q19 -29 44.5 -56.5t57.5 -49t70 -34.5t83 -13q69 0 109.5 42.5t40.5 108.5q0 30 -5.5 56t-20 50.5
t-38.5 48t-60 48.5q-31 21 -70 42t-76 39t-67.5 32.5t-45.5 24.5q-2 6 -3.5 24.5t0.5 26.5q9 33 28 82t40.5 99.5t43.5 94.5t38 65q9 9 18 15.5t20 6.5t30 -1.5t43 -3.5t51 -3.5t54 -1.5q34 0 49.5 5.5t33.5 19.5z" />
    <glyph glyph-name="six" unicode="6" horiz-adv-x="754" 
d="M683 943q-98 -47 -168.5 -98t-118.5 -102t-77 -100t-45 -92q-3 -3 -1 -5t4 -2q57 27 105.5 44t84.5 17q46 0 89 -19t76 -55t53 -87t20 -114q0 -103 -47 -181.5t-135 -126.5q-33 -19 -76.5 -30.5t-81.5 -11.5q-82 0 -141 29t-97.5 77t-56.5 109.5t-18 126.5
q0 108 44.5 210.5t125.5 190.5t194 156.5t249 108.5q3 -1 6.5 -7.5t6.5 -14t4.5 -14.5t0.5 -9zM349 510q-18 0 -40 -5.5t-39 -16.5q-9 -5 -17 -14.5t-12 -23.5q-8 -26 -11 -55.5t-3 -53.5q0 -76 14.5 -132t39.5 -93t58.5 -55t70.5 -18q58 0 96 52t38 152q0 65 -15.5 114
t-41.5 82t-61.5 50t-76.5 17z" />
    <glyph glyph-name="seven" unicode="7" horiz-adv-x="754" 
d="M706 909q4 -2 6.5 -10t1.5 -11q-13 -43 -46 -120t-76.5 -171t-91.5 -194.5t-91 -189.5t-75 -158t-44 -99q-1 -2 -4 -4.5t-5 -2.5q-12 1 -32 9.5t-28 16.5q-3 4 -2 13.5t2 11.5q20 42 51.5 104t68 134t75 148t72 144.5t59 124.5t36.5 88q0 2 -0.5 6t-2.5 4
q-24 0 -73.5 0.5t-105.5 0.5t-110 -1t-87 -4q-18 -1 -31 -6.5t-25 -18t-25.5 -35t-31.5 -58.5q-3 -1 -10.5 0t-15 4t-14 7t-8.5 7q10 31 19.5 66t18.5 70.5t15.5 69.5t10.5 64q22 -7 55.5 -10t69.5 -3h310h44.5t45.5 0.5t41.5 1t32.5 1.5z" />
    <glyph glyph-name="eight" unicode="8" horiz-adv-x="754" 
d="M397 925q54 0 100 -16.5t79.5 -46t52.5 -70.5t19 -90q0 -24 -7.5 -47t-25.5 -47t-48 -49.5t-76 -54.5q-2 -5 2 -8q48 -30 83.5 -57.5t59 -57t35.5 -62.5t12 -75q0 -51 -24 -98.5t-67 -83.5t-101 -57.5t-127 -21.5q-81 0 -137 21.5t-91 55t-50.5 75t-15.5 80.5
q0 25 7.5 48t28.5 48.5t58 55t95 66.5q2 2 2 5t-2 4q-76 54 -114 108.5t-38 123.5q0 54 25.5 103t66.5 82q40 31 90.5 48.5t107.5 17.5zM369 869q-57 0 -91 -36.5t-34 -90.5q0 -34 11 -60.5t35 -51t60.5 -49.5t87.5 -55q2 -1 5.5 0t4.5 3q45 41 60 80.5t15 80.5
q0 39 -11 71.5t-31 56.5t-48.5 37.5t-63.5 13.5zM397 40q59 0 97.5 33t38.5 96q0 34 -11.5 62t-37 55.5t-67.5 57t-102 65.5q-2 1 -6.5 0.5t-6.5 -2.5q-48 -43 -69.5 -83.5t-21.5 -90.5q0 -37 13.5 -71.5t38 -61.5t59 -43.5t75.5 -16.5z" />
    <glyph glyph-name="nine" unicode="9" horiz-adv-x="754" 
d="M124 -80q-3 1 -7.5 7t-7.5 13.5t-5 15.5t-1 12q88 40 152.5 86.5t111.5 98.5t79 108.5t53 116.5q2 3 0 5.5t-6 0.5q-26 -16 -55 -29.5t-57 -23.5t-53.5 -15.5t-43.5 -5.5q-51 0 -94.5 22t-75.5 60t-50 88.5t-18 108.5q0 90 41.5 163.5t119.5 119.5q38 23 86 38t97 15
q77 0 135.5 -30t97.5 -80.5t59 -117t20 -140.5q0 -111 -42.5 -211t-119 -183t-183 -145.5t-233.5 -97.5zM346 866q-30 0 -55.5 -14t-45 -39.5t-30.5 -62.5t-11 -83q0 -67 17 -115t44.5 -79t63.5 -45.5t74 -14.5q25 0 49.5 7t41.5 18q8 5 15 13t8 16q7 31 9.5 53.5t2.5 44.5
q0 62 -12.5 116.5t-35.5 95.5t-57 65t-78 24z" />
    <glyph glyph-name="colon" unicode=":" horiz-adv-x="442" 
d="M223 187q17 0 36 -7t31 -19q19 -17 25 -39t6 -40q0 -14 -6 -35t-20 -35q-33 -31 -78 -31q-17 0 -34.5 7.5t-31.5 20.5q-17 15 -23.5 34t-6.5 42q0 19 8.5 38.5t22.5 34.5q15 14 33.5 21.5t37.5 7.5zM223 570q17 0 36 -7.5t31 -18.5q19 -18 25 -39.5t6 -41.5
q0 -14 -6 -34.5t-20 -34.5q-16 -16 -35.5 -22.5t-41.5 -6.5q-17 0 -35 6t-32 20q-30 30 -30 76q0 20 8 40t23 34t33.5 21.5t37.5 7.5z" />
    <glyph glyph-name="semicolon" unicode=";" horiz-adv-x="442" 
d="M223 568q20 0 37.5 -6t29.5 -17q20 -19 26 -40t6 -39q0 -14 -6 -35t-21 -35q-15 -17 -35 -23t-43 -6q-16 0 -34 5.5t-32 20.5q-16 14 -23 33.5t-7 40.5q0 41 33 74q14 14 33 20.5t36 6.5zM51 -246q-2 1 -3.5 6t-0.5 7q57 52 95 109t36 125q-1 29 -18 62.5t-36 59.5
q3 8 17.5 23.5t32.5 31.5t35 29.5t26 16.5q5 2 16 2t16 -2q12 -10 27.5 -44.5t17.5 -82.5q1 -54 -19.5 -109t-52.5 -103t-70 -86t-73 -57q-6 -2 -22 2.5t-24 9.5z" />
    <glyph glyph-name="less" unicode="&#x3c;" horiz-adv-x="840" 
d="M709 616q-8 -7 -38.5 -25t-73.5 -41t-93.5 -49t-98.5 -50.5t-88.5 -45t-63.5 -32.5q-5 -2 -3 -5.5t2 -5.5q13 -7 51.5 -26.5t89.5 -45l108 -54t107 -54.5t86 -46.5t46 -29.5q2 -2 -1.5 -13t-9 -24t-11.5 -25.5t-9 -17.5q-1 -1 -5 -2.5t-5 -1.5q-16 11 -57 34t-96 52.5
t-119 62t-125.5 63t-115.5 56t-89 40.5q-1 3 1 13.5t6 21.5t8 20.5t6 10.5q33 16 87 43t116.5 59.5t128.5 67t122.5 65t97.5 54t54 33.5q1 0 4 -2.5t3 -4.5q0 -7 -1.5 -22t-4.5 -30.5t-7 -27.5t-9 -15z" />
    <glyph glyph-name="equal" unicode="=" horiz-adv-x="840" 
d="M72 459q-2 1 -4 6.5t-1 7.5q1 6 3.5 18.5t5.5 26t6 24.5t4 14q11 -4 59.5 -3.5t116.5 0.5h510q4 -6 2 -15q-1 -3 -4 -15.5t-6.5 -25.5t-8 -24t-7.5 -11zM72 181q-5 3 -5 14q1 5 3.5 17t6 25.5t6.5 25t5 15.5q11 -3 58.5 -3h115.5h509q2 -3 2.5 -7.5t0.5 -8.5
q-1 -3 -4 -15t-7.5 -25t-9 -23.5t-7.5 -11.5z" />
    <glyph glyph-name="greater" unicode="&#x3e;" horiz-adv-x="840" 
d="M129 123q9 7 39.5 24.5t73.5 40.5t93.5 49.5t98 51t88 45t63.5 31.5q3 3 3 7t-2 4q-12 8 -50.5 27t-89.5 44.5t-108 54.5t-107 55t-86 46.5t-45 29.5q-2 2 1 13t8 24t11 25t9 17q1 2 5 4t5 1q16 -11 57.5 -34.5t96.5 -53t119 -62t125.5 -63t116 -55.5t89.5 -39
q1 -3 -1.5 -13.5t-6 -22t-7.5 -20.5t-6 -11q-33 -16 -87 -43t-116.5 -59.5t-128.5 -67t-122 -65t-97 -53.5t-54 -33q-6 0 -10 6q0 7 2 21.5t5.5 30t7.5 28t7 15.5z" />
    <glyph glyph-name="question" unicode="?" horiz-adv-x="576" 
d="M295 447q0 -11 12.5 -35.5t36.5 -47.5q4 -4 2.5 -11t-5.5 -10q-4 -4 -16 -11.5t-25.5 -14t-26 -12t-18.5 -6.5q-8 -2 -17.5 -1t-17.5 3q-36 15 -55.5 45t-19.5 57q0 14 4.5 28.5t11.5 22.5q11 8 34.5 23.5t51 33t53 34t38.5 26.5q37 28 37 65q0 26 -15 50.5t-41 44.5
t-60.5 35.5t-74.5 23.5q-11 2 -23 4t-22 3q-10 2 -14 12t-4 16t4.5 19t12 27.5t16 28.5t16.5 22q6 5 20 10t30 5q51 0 101 -20t88 -48q50 -39 73 -85t23 -87q0 -35 -10 -61.5t-20 -37.5q-12 -13 -32 -28t-42.5 -30t-45 -29t-39.5 -26q-11 -7 -16 -17.5t-5 -20.5zM281 180
q19 0 36.5 -6.5t31.5 -16.5q20 -19 26 -39.5t6 -39.5q0 -14 -7.5 -34.5t-21.5 -34.5q-16 -15 -37 -22t-44 -7q-14 0 -31.5 6t-34.5 20q-27 33 -27 73q0 42 31 73q15 14 35 21t37 7z" />
    <glyph glyph-name="at" unicode="@" horiz-adv-x="1287" 
d="M897 82q32 0 70.5 18t71.5 56.5t55.5 99t22.5 145.5q0 113 -35 195t-93 134.5t-133.5 77.5t-156.5 24q-45 0 -100 -12.5t-111 -41t-109.5 -75.5t-94.5 -116t-66 -162t-25 -214q0 -111 24.5 -193t62.5 -138t84.5 -88t89.5 -44q26 -8 57.5 -11t55.5 -1q2 -2 1.5 -11
t-1.5 -14q-19 -17 -51.5 -24t-64.5 -7q-20 0 -55 11.5t-76.5 37.5t-84.5 66t-78 98t-57 133.5t-22 171.5q0 147 51 268.5t138 215.5q101 110 228 167t267 57q111 0 195 -40.5t140 -104.5t84.5 -143t28.5 -156q0 -124 -44 -215.5t-110 -151t-142.5 -88.5t-141.5 -29
q-38 0 -56 29.5t-13 83.5q2 20 5 42t9 54q1 4 -2.5 4.5t-5.5 -1.5q-33 -44 -70.5 -82.5t-74.5 -67t-71 -44.5t-60 -16q-25 0 -41.5 15t-25.5 38t-12.5 49.5t-3.5 50.5q0 46 9.5 94t27.5 93.5t43.5 86.5t56.5 74q20 23 55 48.5t77.5 47t89 36t90.5 14.5q48 0 82.5 -5.5
t64.5 -13.5q-13 -30 -21 -54.5t-15 -51.5q-9 -45 -19 -97.5t-18.5 -102t-14.5 -91t-7 -63.5q0 -29 9 -47.5t35 -18.5h2zM545 120q35 0 77 38t90 119q14 23 24 52t21 74q4 14 8.5 32.5t9 37.5t9.5 35t9 24q-14 8 -36.5 11.5t-48.5 3.5q-51 0 -91.5 -28.5t-69.5 -88.5
q-23 -46 -35.5 -104t-12.5 -106q-1 -52 12.5 -76t33.5 -24z" />
    <glyph glyph-name="A" unicode="A" horiz-adv-x="951" 
d="M-32 43q41 6 66.5 12.5t44 20t32.5 37.5t30 64q21 48 45 108.5t49 125.5t49.5 131t46 123.5t38 103.5t25.5 72q9 23 17.5 51.5t10.5 45.5q11 -1 27.5 -2t37.5 -1q23 0 37.5 1t25.5 2q5 -18 11 -40.5t13 -43.5q11 -29 29 -80.5t40.5 -115t47.5 -133.5t48.5 -134.5t44 -119
t33.5 -87.5q18 -43 31 -68t29.5 -39t41.5 -21t67 -13q2 -2 2.5 -9t-0.5 -15t-2.5 -15t-3.5 -9q-29 0 -82.5 2.5t-122.5 2.5q-75 0 -129 -2.5t-87 -2.5q-2 3 -3 10t-1.5 15t0.5 14.5t4 8.5q23 5 44 9t34 9q15 7 17 17.5t-1 18.5q-6 22 -16 53t-21.5 65t-23.5 66l-21 56l-6 6
t-8 4q-17 2 -53.5 1t-78.5 -1h-51h-35t-23 -0.5t-16 -0.5q-5 0 -9.5 -5t-6.5 -10q-11 -30 -23.5 -63.5t-23 -65t-17.5 -56t-7 -36.5q0 -18 6 -31.5t38 -21.5q18 -4 36 -7.5t39 -6.5q2 -2 3 -9t0 -15t-2.5 -15t-4.5 -9q-28 0 -78 2.5t-117 2.5q-54 0 -96 -2.5t-71 -2.5
q-2 2 -3 9t-1 15t1 15t3 9zM436 748q-1 0 -3.5 0.5t-4.5 -0.5q-11 -30 -25 -71.5t-28.5 -85t-28.5 -84t-24 -69.5q-1 -10 5 -11q12 -2 40.5 -2h65.5h62.5t40.5 2q2 0 4 3.5t2 7.5q-9 27 -23 68.5t-29 86t-29.5 86t-24.5 69.5z" />
    <glyph glyph-name="B" unicode="B" horiz-adv-x="920" 
d="M47 892q-2 3 -3 10.5t-1 15.5t1 14.5t3 7.5q27 0 73.5 -2.5t123.5 -2.5q79 0 141.5 2.5t116.5 2.5q46 0 96.5 -8t92.5 -31.5t69 -65t27 -108.5q0 -64 -42 -117t-117 -77q-2 -1 -2 -4t2 -4q48 -10 89.5 -28.5t71.5 -47t47.5 -67.5t17.5 -90q0 -93 -49 -157.5t-140 -103.5
q-52 -23 -118 -32.5t-131 -9.5q-26 0 -75 1t-105.5 2.5t-112 2.5t-94.5 0q-2 2 -3 9t-1 15t1 15t3 9q28 3 54 6.5t46 10.5q21 5 30 20t13 53q2 34 2.5 124.5t0.5 215.5q0 66 0.5 118t0.5 93t-0.5 72.5t-2.5 57.5q-2 32 -11.5 45.5t-29.5 18.5q-17 6 -41 9.5t-44 4.5z
M406 880q-25 0 -45 -5q-5 -1 -8 -8t-4 -13q-1 -17 -1.5 -52.5t-1 -79.5t-0.5 -91v-86q0 -7 7 -7q24 -3 85 -3q46 0 73.5 4.5t41.5 11.5q34 21 49 55.5t15 79.5q0 94 -52.5 144t-158.5 50zM487 47q82 0 131.5 52.5t49.5 158.5q0 105 -66 162.5t-187 57.5h-35t-27 -2
q-7 -2 -7 -9v-86.5v-94.5t0.5 -88t2.5 -66q1 -14 9.5 -30t19.5 -24q11 -9 25.5 -14.5t29.5 -9.5t29.5 -5.5t24.5 -1.5z" />
    <glyph glyph-name="C" unicode="C" horiz-adv-x="1030" 
d="M871 686q-6 40 -12.5 69t-16.5 50.5t-24.5 36.5t-37.5 27q-39 21 -86 29t-98 8q-74 0 -132.5 -27t-99.5 -80t-62.5 -130.5t-21.5 -178.5q0 -85 22 -165t68.5 -142t118 -99t169.5 -37q42 0 84.5 11t74.5 39q29 24 58 64t57 88q8 -2 23 -10.5t18 -17.5q-6 -24 -20 -56.5
t-31 -64t-35.5 -56.5t-32.5 -35q-36 -11 -96 -24t-138 -13q-128 0 -228.5 33t-170 97t-106 158t-36.5 216q0 63 15.5 124.5t46 116t77.5 100.5t110 78t139 50t173 18q47 0 91 -3.5t83.5 -8.5t73 -9.5t60.5 -6.5q-4 -19 -8 -49t-8 -64t-6.5 -69t-2.5 -63q-2 -3 -10.5 -5
t-17.5 -2.5t-16.5 0t-7.5 3.5z" />
    <glyph glyph-name="D" unicode="D" horiz-adv-x="1101" 
d="M40 892q-2 3 -2.5 10t0 15t2 14.5t3.5 8.5q12 0 39.5 -1t59 -1.5t61 -1.5t46.5 -1q39 1 71 2t65 2t71 1.5t88 0.5q102 0 182.5 -24.5t142.5 -76.5q75 -63 113 -153.5t38 -196.5q0 -71 -14.5 -129.5t-38.5 -105.5t-56 -84t-68 -65q-80 -63 -177.5 -90t-218.5 -27
q-69 0 -157.5 2.5t-194.5 3.5h-69q-2 3 -3 10.5t-1 15.5t1 14.5t3 7.5q32 3 53.5 6.5t41.5 8.5q23 6 35 21.5t16 52.5q4 53 4.5 145t0.5 210v94t-0.5 89t-1.5 77t-3 59q-2 36 -11.5 50t-37.5 22q-15 5 -38 8.5t-45 5.5zM352 146q1 -13 7.5 -29.5t19.5 -27.5q13 -10 31 -17.5
t38.5 -11.5t42 -6t39.5 -2q51 0 100.5 18t97.5 66q24 27 43 58.5t32.5 71.5t21 89.5t7.5 110.5q0 112 -41 207t-124 152q-47 32 -107 45t-129 13q-20 0 -39 -2t-27 -6q-5 -1 -9 -8t-6 -14q0 -18 -0.5 -60.5t-0.5 -96.5v-112.5v-108.5v-105.5t0.5 -97.5t1 -78.5t1.5 -47.5z
" />
    <glyph glyph-name="E" unicode="E" horiz-adv-x="877" 
d="M52 894q-3 3 -4 9.5t-0.5 14t2 14.5t4.5 9q37 0 96.5 -3t120.5 -3h305q23 0 48.5 0.5t50 1.5t47 2.5t38.5 3.5q2 0 4 -3t2 -5q-4 -17 -8 -43t-7 -56t-5.5 -61.5t-3.5 -59.5q-3 -2 -11 -3.5t-17 -2t-16.5 0.5t-9.5 2q-5 38 -10 61.5t-13 41.5q-10 26 -25.5 37t-43.5 13
q-13 1 -47 1.5t-71 0.5h-68t-38 -1q-8 -2 -13.5 -13t-5.5 -16q0 -34 -0.5 -75.5t-0.5 -83.5t0.5 -81.5t0.5 -71.5q0 -5 3 -8.5t6 -3.5q19 -1 48 -1h59.5t59.5 1t48 3q26 1 37 13t19 36q3 11 6.5 26.5t6.5 31.5q3 2 11.5 2.5t17.5 0.5t17 -1.5t10 -4.5q-2 -26 -5.5 -67
t-3.5 -80q0 -37 0.5 -76.5t2.5 -69.5q-3 -2 -11 -3.5t-17 -2t-17 0.5t-11 3q-3 15 -5 24t-3.5 15.5t-2 11.5t-2.5 12q-6 17 -17 29t-36 16q-14 1 -41.5 1.5t-59 1t-61.5 0.5h-50q-3 0 -6 -6t-3 -8v-68.5v-78t0.5 -77.5t1.5 -66q0 -21 9.5 -35.5t23.5 -18.5q12 -3 35.5 -5
t53 -3.5t62 -2t60.5 -0.5q26 1 43 3.5t30 7.5t23 14t22 23q20 25 41.5 63.5t37.5 76.5q3 0 10.5 -1.5t15.5 -4.5t15 -6.5t9 -6.5q-3 -16 -10.5 -45t-17 -61.5t-20.5 -62.5t-20 -48q-3 -6 -6.5 -10.5t-12.5 -8t-25 -5t-43 -1.5q-97 0 -196.5 3t-220.5 3q-71 0 -137.5 -2.5
t-123.5 -2.5q-1 3 -2 10.5t-1 15t1 14t2 8.5q38 5 67.5 9t48.5 9q24 6 35 23t13 55q2 42 2.5 140.5t0.5 231.5v94.5t-0.5 86.5t-1 70t-1.5 46q-3 37 -11 50.5t-34 21.5q-17 5 -36 7.5t-44 6.5z" />
    <glyph glyph-name="F" unicode="F" horiz-adv-x="837" 
d="M43 894q-2 3 -3 10t-0.5 14.5t2 14t2.5 7.5q32 0 88.5 -2.5t123.5 -2.5h352q64 0 104.5 3t61.5 7q2 0 4.5 -4t2.5 -7q-4 -17 -8 -42t-7 -55t-5.5 -63.5t-3.5 -67.5q-3 -3 -10.5 -4.5t-16 -2t-15.5 0t-10 3.5q-6 41 -13 68t-15 48q-11 24 -26.5 34t-39.5 12q-19 1 -55 2
t-74 1t-70.5 -0.5t-44.5 -2.5q-7 -2 -12 -11.5t-5 -16.5q0 -31 -0.5 -71t-0.5 -84.5v-90v-87.5q0 -10 7 -10h53t65.5 0.5t63.5 1.5t48 2q29 2 41.5 13.5t20.5 32.5q5 13 10 31t9 38q3 2 11 2t16.5 -0.5t17 -2.5t12.5 -4q-5 -28 -7.5 -69t-2.5 -86q0 -83 3 -152
q-3 -3 -10 -4.5t-15 -2t-15.5 0t-12.5 1.5q-5 24 -9.5 40.5t-9.5 30.5q-8 26 -21 35.5t-31 10.5q-17 1 -51 2t-70.5 1.5t-69 1t-47.5 0.5q-2 0 -4 -4.5t-2 -6.5v-73v-72.5t0.5 -67.5t0.5 -58q2 -36 11.5 -53.5t37.5 -24.5q23 -5 47 -7.5t56 -7.5q1 -3 1.5 -9.5t0 -14
t-1.5 -14.5t-4 -10q-49 0 -104 2.5t-130 2.5q-67 0 -116.5 -2.5t-101.5 -2.5q-2 3 -3.5 10t-2 14.5t0.5 14.5t3 9q22 2 42 4.5t35 6.5q32 8 40.5 24.5t10.5 53.5q1 17 1.5 53t1 83t0.5 101v107q0 131 -0.5 210.5t-2.5 118.5q-2 38 -9.5 52t-32.5 21q-17 5 -39 8t-48 8z" />
    <glyph glyph-name="G" unicode="G" horiz-adv-x="1087" 
d="M983 66q2 -5 0 -17.5t-6 -17.5q-21 -7 -58 -17t-84 -19.5t-100 -16t-104 -6.5q-265 0 -407 126.5t-142 376.5q0 152 72 263.5t201 167.5q63 29 135 43t169 14q50 0 93 -4t81 -9.5t72 -11t64 -7.5q-4 -22 -9 -55t-8.5 -68.5t-6 -70.5t-2.5 -63q-2 -3 -10 -5.5t-17 -3
t-17 0t-11 2.5q-10 82 -25.5 123t-47.5 62q-73 51 -208 51q-74 0 -134 -25t-102 -76t-65 -128t-23 -181q0 -100 25 -185t73 -146.5t118 -96.5t160 -35q23 0 46.5 4.5t36.5 13.5q13 7 20 24t9 33q3 32 3.5 76t-0.5 80q-2 38 -12 56.5t-45 28.5q-20 5 -43 7.5t-57 7.5
q-2 3 -3 10.5t-0.5 15.5t2 15t3.5 9q34 0 97 -2.5t140 -2.5q74 0 114 1.5t63 3.5q2 -2 3 -9t1 -15t-1 -15.5t-3 -10.5q-12 -3 -24 -5.5t-23 -6.5q-23 -5 -30.5 -21t-7.5 -59q-1 -16 -1.5 -40.5t-0.5 -49t0.5 -45t1.5 -29.5q1 -14 7 -22t28 -18z" />
    <glyph glyph-name="H" unicode="H" horiz-adv-x="1153" 
d="M46 892q-2 2 -3 9t-1 15t1.5 15t3.5 9q29 0 81 -2.5t130 -2.5q83 0 130 2.5t78 2.5q2 -2 3 -9t0.5 -15t-2 -15t-4.5 -9q-19 -2 -39.5 -5.5t-32.5 -8.5q-23 -7 -31 -21.5t-8 -50.5q-2 -48 -2.5 -114t-0.5 -156q1 -5 3 -9t6 -5q5 -1 14 -1.5t32.5 -0.5h67h116.5h87.5h61
t38.5 0.5t21 1.5q2 0 5.5 4t3.5 7v68.5v80.5t-0.5 79t-2.5 64q-2 17 -8 31.5t-23 20.5t-38 9t-50 6q-3 2 -4 9t-0.5 15.5t2 15.5t4.5 9q36 0 86 -3t124 -3q75 0 127 2.5t76 2.5q3 -2 4.5 -9t1.5 -14.5t-1.5 -14.5t-4.5 -10q-23 -3 -42 -6t-33 -9q-24 -7 -32 -22t-9 -55
q-2 -28 -2.5 -59t-0.5 -71v-91v-120v-93t0.5 -92t1 -80.5t1.5 -58.5q2 -32 9.5 -49t28.5 -25q17 -5 38.5 -8.5t59.5 -9.5q1 -2 1.5 -9t-0.5 -15t-3 -15t-5 -9q-33 0 -89.5 2.5t-126.5 2.5q-34 0 -66.5 -1t-60.5 -1.5t-50 -1.5t-36 -1q-2 2 -3 9t-1 14.5t1 14.5t3 10
q26 3 45 6.5t36 8.5q20 6 29.5 21.5t10.5 50.5q1 22 1.5 57.5t0.5 76v83.5v80q0 3 -2 7t-7 4q-11 0 -34.5 0.5t-53 0.5h-62h-61.5q-110 -1 -167 -1t-65 -2q-1 -1 -2.5 -4.5t-1.5 -4.5v-74.5t0.5 -81.5t1 -73.5t1.5 -51.5q1 -38 8 -57.5t36 -27.5q17 -5 38 -9t51 -9
q2 -2 2 -9t-1 -15t-3.5 -15t-4.5 -9q-21 0 -75 2.5t-144 2.5q-78 0 -134.5 -2.5t-80.5 -2.5q-2 2 -3.5 9t-1.5 15t1 15t3 9q27 5 44.5 7.5t33.5 7.5q16 4 26 11.5t15.5 19.5t8 30t4.5 44q1 14 1.5 45.5t0.5 73v91v99.5v110.5v99.5t-0.5 78t-1.5 46q-2 35 -11 50t-32 22
q-19 5 -38.5 8t-47.5 6z" />
    <glyph glyph-name="I" unicode="I" horiz-adv-x="523" 
d="M44 892q-2 3 -3 10t-0.5 15t2 14.5t3.5 8.5q32 0 88 -2.5t125 -2.5q85 0 135 2.5t76 2.5q2 -2 3 -8.5t1 -14t-1 -15t-3 -10.5q-24 -2 -44.5 -5t-34.5 -7q-26 -8 -32.5 -26t-8.5 -52q-1 -21 -1.5 -53.5t-1 -73t-0.5 -86.5v-96q0 -127 0.5 -220t2.5 -135q2 -28 9.5 -49
t41.5 -29q15 -5 39 -8.5t50 -8.5q2 -2 2 -9t-1 -15t-2.5 -15t-3.5 -9q-37 2 -91 3.5t-123 1.5q-82 0 -134 -2.5t-93 -2.5q-3 2 -4 9t-1 15t1 15t4 9q46 6 74 12q32 7 42 23t13 51q2 18 2.5 57t1 90.5t0.5 112v121.5q0 107 -0.5 177.5t-4.5 123.5q-2 26 -9 42.5t-30 23.5
q-20 6 -39 9t-50 6z" />
    <glyph glyph-name="J" unicode="J" horiz-adv-x="520" 
d="M47 892q-1 3 -2 10.5t-1 15t1.5 14t3.5 8.5q18 0 38.5 -1t47 -1.5t62 -1.5t83.5 -1q77 0 123.5 2.5t80.5 2.5q2 -2 2.5 -8.5t0.5 -14.5t-1.5 -15t-3.5 -10q-26 -2 -45 -6t-31 -9q-19 -8 -26 -22t-8 -46q0 -30 -0.5 -79t-1 -108.5t-1 -124.5t-1 -126.5t-1.5 -116.5t-3 -93
q-4 -82 -17.5 -148.5t-45.5 -125.5q-30 -54 -68.5 -97t-80.5 -72.5t-85 -45.5t-82 -16q-40 0 -71.5 12.5t-44.5 33.5q0 2 -0.5 12.5t-0.5 11.5q1 11 6 27.5t11 33.5t12 32.5t11 23.5q21 -14 45.5 -27.5t47.5 -24t44.5 -17t36.5 -6.5q20 0 37.5 6t34.5 25q10 13 17 29
t11.5 39t6.5 54.5t3 75.5q1 52 1 124.5v153v162.5t-0.5 153.5t-1.5 125.5t-2 78q-2 30 -10 52.5t-38 30.5q-18 5 -39.5 8.5t-54.5 6.5z" />
    <glyph glyph-name="K" unicode="K" horiz-adv-x="1009" 
d="M346 482q0 -107 0.5 -188t2.5 -152q2 -41 11.5 -58.5t36.5 -25.5q16 -5 37 -7.5t47 -7.5q2 -2 2.5 -9t-0.5 -15t-3 -15t-4 -9q-43 2 -98 3.5t-125 1.5q-72 0 -129 -2.5t-81 -2.5q-2 2 -3 9t-1 15t1 15t3 9q25 3 46.5 6.5t36.5 7.5q29 8 37.5 27.5t9.5 64.5q2 26 2.5 64
t0.5 83v95.5t-1 99.5q0 103 0.5 182t-2.5 135q-1 32 -9 47.5t-32 22.5q-14 5 -37 8.5t-44 5.5q-3 3 -4.5 10t-1.5 14.5t1.5 14.5t4.5 9q26 0 75.5 -2.5t135.5 -2.5q60 0 110.5 2.5t89.5 2.5q2 -2 2.5 -8.5t0.5 -14t-0.5 -15t-2.5 -10.5q-20 -2 -38.5 -5t-33.5 -9
q-26 -7 -33 -23.5t-8 -54.5q-1 -27 -1.5 -66t-1 -82.5t-0.5 -87.5v-82zM588 892q-2 3 -3 10.5t-1 15t1.5 14t3.5 8.5q38 0 79.5 -2.5t100.5 -2.5q41 1 70 1.5t51 1t39.5 1t33.5 1.5q2 -2 3 -8.5t1 -14.5t-1.5 -15t-4.5 -10q-32 -4 -56.5 -9.5t-45.5 -15t-41.5 -26.5
t-45.5 -45q-31 -35 -64.5 -72.5t-66 -73.5t-61 -68t-51.5 -56v-7q16 -26 42.5 -61.5t59 -75t68 -81.5t70.5 -80t67 -70t56 -53q17 -14 32 -24.5t30 -15.5q48 -14 97 -15q2 -2 2 -9t-1 -15t-3 -15t-4 -9q-24 -3 -66 -3.5t-86 1t-82 4.5t-54 9q-20 8 -39.5 23.5t-34.5 30.5
q-27 29 -66.5 74.5t-81 96.5t-81 101.5t-67.5 88.5q-2 5 -11 13t-17 13q0 5 1.5 15t4.5 11q26 12 61 40t73.5 67t79.5 86t79 97q23 30 32.5 50.5t9.5 36.5q0 8 -7 15t-22 12q-14 5 -34 8.5t-49 6.5z" />
    <glyph glyph-name="L" unicode="L" horiz-adv-x="857" 
d="M44 892q-2 3 -3 10.5t0 15.5t2.5 14.5t3.5 7.5q20 0 40 -1t44.5 -1.5t56 -1.5t73.5 -1q80 0 127.5 2.5t80.5 2.5q2 -2 3.5 -8.5t1.5 -14.5t-1.5 -15t-3.5 -10q-31 -3 -47.5 -6.5t-30.5 -5.5q-26 -8 -32 -22t-7 -43q-2 -31 -2.5 -112.5t-2.5 -194.5q0 -65 0.5 -125.5
t1 -111.5t1.5 -89t2 -58t11.5 -31t17.5 -15q14 -4 42 -6.5t60.5 -3t66 -0.5t58.5 1q24 0 45.5 10t43.5 42q11 15 24 36t26 44.5t26 48.5t23 49q3 1 10.5 -0.5t15.5 -4.5t14.5 -6.5t7.5 -7.5q-3 -19 -12 -56t-21 -77.5t-26 -77.5t-26 -56q-5 -9 -20 -15t-56 -6
q-42 0 -100.5 1t-119 2.5t-116 3t-91.5 1.5q-72 0 -133.5 -2.5t-93.5 -2.5q-2 3 -3 10t-1 15t1 14.5t3 8.5q35 5 55 7.5t42 7.5q23 7 32.5 21.5t11.5 40.5q1 15 2.5 50.5t2.5 85.5t1.5 111.5t0.5 128.5q0 128 -0.5 199t-3.5 107q-1 37 -9 54t-37 24q-15 4 -38.5 7t-44.5 5z
" />
    <glyph glyph-name="M" unicode="M" horiz-adv-x="1301" 
d="M51 892q-2 3 -2.5 10.5t0.5 15.5t2.5 14.5t3.5 7.5q31 0 63.5 -1t70.5 -1.5t84 -1.5t103 -1q2 -23 10 -45t20 -49q19 -42 43 -94.5t49.5 -108t51.5 -111t48 -102t39 -81.5t25 -51q3 -3 8 0l27 54t43 88.5t52 108.5t54 114.5t49 106t37 82.5q11 26 18.5 47.5t9.5 40.5
q60 0 104 1t78 1.5t62.5 1.5t57.5 1q3 -1 4 -8t1 -15t-1 -15.5t-4 -9.5q-35 -5 -57.5 -8.5t-39.5 -8.5q-25 -8 -33.5 -25.5t-8.5 -43.5q-1 -25 -0.5 -76.5t2 -116.5t3 -136t4 -136t5 -117.5t4.5 -78.5q2 -36 12.5 -57.5t44.5 -29.5l86 -15q2 -3 2.5 -9.5t0 -14t-2 -14.5
t-3.5 -10q-32 0 -85.5 2.5t-144.5 2.5q-64 0 -118 -2.5t-93 -2.5q-2 3 -3 10t-1 14.5t1 14.5t3 9q28 6 47 9.5t35 8.5q22 7 29 24.5t7 46.5q1 28 1 73v99.5v115t-0.5 117.5t-1 107.5t-0.5 86.5q-3 3 -8 0q-13 -31 -39 -87.5t-57.5 -126t-66 -146t-66 -147t-56 -129
t-36.5 -92.5q-3 -2 -11.5 -2.5t-18 -0.5h-17.5h-10q-9 32 -28.5 83.5t-45.5 115t-55.5 134t-59.5 141.5t-59 138t-52 122q-4 0 -9 -3q-2 -32 -5 -79t-6 -100.5t-5.5 -110.5t-5 -110.5t-4 -98.5t-1.5 -75q0 -42 8.5 -63.5t43.5 -32.5q20 -5 42 -9t55 -9q2 -2 3 -9t0 -15
t-2.5 -15t-3.5 -9q-29 0 -78.5 2.5t-118.5 2.5q-54 0 -102.5 -2.5t-80.5 -2.5q-2 3 -3.5 10t-1.5 14.5t1.5 14.5t3.5 9q23 3 41 6t34 8q18 5 29.5 11.5t19.5 18.5t12.5 30t8.5 46q4 29 9 78.5t10 109.5t10.5 125t10 126t8 113t5.5 85q2 21 -6 41.5t-33 29.5q-20 5 -46 10.5
t-63 10.5z" />
    <glyph glyph-name="N" unicode="N" horiz-adv-x="1114" 
d="M25 892q-2 2 -2.5 9t-0.5 15t1.5 15t2.5 9q35 1 89 -2t118 -3q29 0 53.5 1t37.5 2q5 -14 17 -32.5t40 -51.5q35 -44 79 -99.5t92 -115.5t97 -120.5t93 -115t79.5 -98t56.5 -69.5q3 0 4 1t3 2v157t-0.5 156t-2 138t-4.5 103q-3 35 -15.5 55t-48.5 29q-22 6 -44.5 9
t-52.5 6q-3 2 -4 9.5t-1 15.5t1.5 15t3.5 8q30 0 81.5 -2.5t124.5 -2.5q26 0 52 1t49.5 1.5t41 1.5t26.5 1q2 -2 3.5 -9t1.5 -15t-1.5 -15t-3.5 -9q-17 -2 -32.5 -4.5t-30.5 -7.5q-32 -11 -44.5 -30.5t-14.5 -59.5q-4 -47 -6 -110.5t-3.5 -138.5t-2.5 -161t-1 -178v-54.5
t0.5 -57t1 -54t1.5 -45.5q-7 1 -25 1.5t-37.5 0t-38 -1t-27.5 -0.5q-21 30 -65 88t-99 129.5t-116 150t-117 150.5t-101.5 130t-69.5 88q-4 3 -6 2t-2 -2q-1 -41 -1 -94v-110v-115t0.5 -108t1.5 -88.5t2 -57.5q2 -48 18.5 -67.5t47.5 -26.5q18 -6 40 -9t51 -8q2 -2 3 -9
t0 -14.5t-2.5 -14.5t-3.5 -10q-33 0 -83 2.5t-110 2.5q-66 0 -113.5 -2.5t-78.5 -2.5q-2 2 -3 9t-1 15t1 15t3 9q50 6 84 17q27 8 40 27.5t17 61.5q3 30 5.5 93t4 147.5t3 184.5t2.5 203q0 23 -11.5 48.5t-37.5 37.5q-22 11 -47 18.5t-63 10.5z" />
    <glyph glyph-name="O" unicode="O" horiz-adv-x="1153" 
d="M571 -28q-119 0 -208.5 37.5t-150.5 102.5q-71 75 -102 170t-31 191q0 89 28 170.5t89 149.5q33 38 76.5 69.5t95 54t108.5 34.5t117 12q118 0 207.5 -39t150 -104.5t91 -152t30.5 -182.5q0 -188 -93 -315q-36 -50 -82.5 -87t-99 -62t-110 -37t-116.5 -12zM623 41
q41 0 79 13.5t64 37.5q32 27 53.5 64.5t34.5 81.5t18.5 94t5.5 101q0 61 -9 120.5t-28 113t-48.5 98.5t-70.5 76q-74 59 -175 59q-37 0 -70.5 -8.5t-58.5 -25.5q-37 -24 -64 -60.5t-44 -82t-25 -99t-8 -110.5t9.5 -117t30.5 -115.5t53.5 -104t77.5 -82.5q38 -26 80 -40
t95 -14z" />
    <glyph glyph-name="P" unicode="P" horiz-adv-x="874" 
d="M425 375q-8 5 -15 19.5t-9 21.5q0 9 6 15q8 -2 22 -3t30 -1q30 0 52 6t42 17q45 26 64.5 73t19.5 117q0 53 -13.5 97t-41 76t-69 49.5t-97.5 17.5q-9 0 -27.5 -1.5t-26.5 -6.5q-2 -1 -6 -6.5t-4 -12.5q-1 -16 -2 -41t-1.5 -66t-1 -101t-0.5 -146v-100v-99.5t1 -90.5
t2 -73q2 -34 11.5 -52.5t41.5 -25.5q19 -5 42.5 -8.5t52.5 -6.5q2 -2 3 -9t0.5 -14.5t-2.5 -14.5t-5 -10q-19 0 -47 1t-59.5 1.5t-63.5 1.5t-59 1q-28 0 -58 -1t-59 -1.5t-55 -1.5t-47 -1q-2 3 -3.5 10t-1.5 14.5t1 14.5t2 9q46 6 82 12q28 8 36 27.5t10 58.5q1 42 2 127
t1 219q0 128 0.5 202t-2.5 110q-2 39 -11.5 57t-41.5 26q-15 2 -33.5 5t-40.5 5q-2 4 -3 11.5t0 15t2.5 13.5t3.5 8q12 0 33 -1t47.5 -1.5t55.5 -1.5t58 -1q39 1 72 1.5t64.5 1t64.5 0.5h72q19 0 44.5 -2t53 -7.5t55 -16.5t49.5 -29q41 -30 71 -81.5t30 -128.5
q0 -50 -12.5 -91.5t-33.5 -73.5t-48 -56t-55 -39q-42 -23 -88 -33.5t-91 -10.5q-21 0 -37 1t-29 5z" />
    <glyph glyph-name="Q" unicode="Q" horiz-adv-x="1153" 
d="M1430 -185q-36 -32 -77.5 -55t-84.5 -38t-85.5 -22.5t-80.5 -7.5q-50 0 -99.5 15.5t-101.5 44.5q-36 20 -67 40t-61.5 41t-61.5 42.5t-66 44.5q-29 17 -62.5 32t-71.5 20q-68 12 -127 31t-113 57q-51 36 -87 82t-58.5 99.5t-33 111.5t-10.5 116q0 79 20 153.5t62 136.5
q37 51 86 89.5t105.5 64t118 38t124.5 12.5q114 0 202 -38.5t148.5 -104t92 -151.5t31.5 -182q0 -110 -32 -198t-89 -151q-40 -45 -92 -78t-111 -56q18 -5 40 -13.5t45 -18.5t45 -20.5t41 -19.5q108 -52 182.5 -77t136.5 -25q54 0 100 8.5t82 29.5q3 -3 5 -10t3.5 -15t2 -16
t-0.5 -12zM542 900q-70 0 -120 -31t-82.5 -84t-47.5 -123t-15 -148q0 -98 23 -184.5t68 -151.5t112 -103t156 -38q57 0 102 30t76.5 83t48.5 126t17 159q0 85 -18.5 168t-59 149t-104.5 107t-156 41z" />
    <glyph glyph-name="R" unicode="R" horiz-adv-x="960" 
d="M44 892q-1 3 -2 10.5t0 15.5t2.5 14.5t4.5 7.5q14 0 39 -1t53 -1.5t56 -1.5t47 -1q87 0 151 2.5t119 2.5q69 0 122.5 -18t89.5 -50t54.5 -75.5t18.5 -93.5q0 -46 -14.5 -83.5t-39 -67t-57 -51.5t-68.5 -38q-1 -1 -2 -5t1 -5q16 -28 46 -73t65 -94t71.5 -94.5t64.5 -73.5
q22 -22 37.5 -35t32 -20.5t37.5 -11.5t53 -8q2 -2 1.5 -9.5t-2 -16t-3.5 -15.5t-5 -8q-30 -2 -68.5 -1.5t-77.5 3.5t-73.5 9.5t-57.5 16.5q-22 11 -41.5 28t-33.5 36q-22 27 -48 64.5t-52 79t-51 81.5t-45 71q-19 24 -42 25q-6 1 -17 1h-22t-21 -0.5t-15 -0.5q-2 0 -4 -3
t-2 -5v-71t0.5 -74.5t1 -69t1.5 -54.5q1 -35 10.5 -50.5t34.5 -21.5q20 -5 38 -7.5t47 -7.5q2 -1 3 -8t0.5 -15t-2 -15.5t-4.5 -9.5q-24 0 -78.5 2.5t-138.5 2.5q-85 0 -136 -2.5t-74 -2.5q-2 2 -3.5 9t-1.5 15t1 15t4 9q45 6 74 12q26 6 36.5 23.5t12.5 56.5q0 16 0.5 58
t1 93.5l1 103t0.5 85.5v203.5t-2 130.5q-1 33 -11 49t-36 22q-17 4 -38 7t-44 5zM407 880q-10 0 -23.5 -1.5t-24.5 -4.5q-3 -2 -6.5 -9.5t-3.5 -13.5q-1 -16 -1.5 -53t-1 -87t-0.5 -108.5v-117.5q0 -10 7 -10q65 -2 113.5 1t69.5 14q35 16 60.5 55t25.5 113
q0 103 -53.5 162.5t-161.5 59.5z" />
    <glyph glyph-name="S" unicode="S" horiz-adv-x="753" 
d="M110 274q23 -76 50.5 -124t69.5 -77q30 -22 68.5 -31.5t77.5 -9.5q28 0 54.5 8.5t47 26t33 44.5t12.5 64q0 32 -9 58.5t-31 51.5t-57.5 51t-88.5 57q-51 30 -94 60t-74.5 65.5t-49.5 78.5t-18 99q0 65 25 114.5t68 83.5t100 51.5t121 17.5q42 0 75.5 -3t62 -7t54.5 -8
t52 -7q-8 -42 -14.5 -99t-11.5 -121q-2 -3 -9 -4t-15 -1.5t-15 0.5t-9 2q-9 70 -23 107t-42 55q-25 18 -55 25.5t-66 7.5q-35 0 -62 -12t-46 -32t-28.5 -46t-9.5 -54q-1 -57 25.5 -93t74.5 -68q48 -31 92 -56t88 -51q73 -45 114 -99.5t41 -139.5q0 -58 -23 -110t-68 -91.5
t-111 -62.5t-152 -23q-37 0 -72 5t-65 12.5t-53.5 16t-37.5 16.5q-6 8 -13.5 38.5t-14 67.5t-12 73.5t-6.5 56.5q2 4 9 7.5t15 6t15.5 3.5t10.5 -1z" />
    <glyph glyph-name="T" unicode="T" horiz-adv-x="986" 
d="M724 43q2 -2 2.5 -9t0 -15t-3 -15t-5.5 -9q-38 0 -100.5 2.5t-136.5 2.5q-95 0 -155 -2.5t-94 -2.5q-3 3 -4.5 10t-1.5 14.5t1.5 14.5t4.5 9q32 3 59 6.5t43 8.5q35 7 46 29t13 74q2 51 2.5 131t1 173.5t0.5 194v193.5q0 3 -2.5 7.5t-4.5 4.5q-10 1 -32.5 1.5t-48 0.5
t-51 -0.5t-43.5 -1.5q-22 0 -38.5 -10.5t-30.5 -37.5q-14 -26 -29 -61t-29 -77q-2 -1 -10.5 -0.5t-17.5 2.5t-16.5 5t-8.5 7q4 24 8.5 57.5t9 69.5t8 70.5t5.5 60.5q0 2 5.5 5t10.5 1q27 -11 61.5 -16.5t70.5 -5.5h557q57 0 92.5 4.5t67.5 17.5q3 0 7.5 -4.5t4.5 -6.5
q-6 -22 -11 -53t-9.5 -66t-8.5 -72.5t-7 -71.5q-1 -2 -9 -3.5t-17 -1.5t-17 1t-10 3q-3 41 -10 76t-16 61q-11 24 -24.5 34t-35.5 12q-22 1 -50.5 1.5t-56 0t-50.5 -1t-34 -0.5q-7 -3 -7 -12v-124v-141t0.5 -143.5t1 -132.5t1 -107t1.5 -67q2 -32 11 -51t35 -27
q19 -6 41.5 -8.5t62.5 -8.5z" />
    <glyph glyph-name="U" unicode="U" horiz-adv-x="1084" 
d="M31 892q-2 3 -3 10t-1 15t1.5 14.5t3.5 8.5q15 0 39 -1t52.5 -1.5t60 -1.5t62.5 -1q64 0 118.5 2.5t91.5 2.5q2 -2 3.5 -8.5t1.5 -14.5t-1.5 -15t-3.5 -10q-23 -2 -40.5 -5t-31.5 -7q-28 -7 -37 -26t-10 -57q-1 -49 -2 -104.5t-1 -108t1 -98.5t2 -76q1 -48 5.5 -95.5
t15.5 -79.5q18 -72 80 -119t173 -47q44 0 86.5 9.5t77 38t58 80t29.5 136.5q3 43 4.5 100.5t2 118.5t0 120t-3.5 105q-2 51 -16 72.5t-50 28.5q-18 5 -39 8.5t-48 5.5q-3 7 -2.5 24.5t4.5 23.5q32 0 80 -2.5t109 -2.5q69 0 110 2.5t64 2.5q2 -2 3.5 -9t1.5 -15t-1.5 -15
t-3.5 -9l-34 -6t-31 -8q-32 -8 -42.5 -31.5t-12.5 -78.5q-5 -145 -7.5 -261.5t-15.5 -194.5q-11 -97 -45.5 -162t-86 -104.5t-116.5 -56.5t-139 -17q-97 0 -166 21.5t-114 59.5t-68 89t-30 111q-3 26 -5 68t-3 92.5t-1.5 105.5t-1 107t-0.5 98t-1 78q-2 29 -11.5 48.5
t-35.5 27.5q-12 5 -35.5 8.5t-43.5 5.5z" />
    <glyph glyph-name="V" unicode="V" horiz-adv-x="967" 
d="M-29 892q-2 3 -2.5 11t0 16t2.5 14t4 7q16 0 40.5 -1t52.5 -1.5t58 -1.5t58 -1q36 0 70.5 1t63 1.5t50 1.5t31.5 1q3 -1 4.5 -8t1.5 -15t-1 -15.5t-3 -9.5q-28 -5 -48 -10t-32 -10q-26 -8 -15 -44q10 -28 29 -79.5t42.5 -113.5t49 -128.5t48.5 -125t40.5 -103.5t25.5 -64
q2 0 4.5 -0.5t4.5 1.5q10 22 27 64t38.5 96t45 114t44.5 116t38 104t26 78q14 38 7 60t-39 30q-17 4 -39.5 8t-51.5 7q-1 3 -1.5 10.5t0.5 15.5t3 15t4 8q19 0 64 -3t122 -3q68 0 105.5 2.5t65.5 2.5q2 -1 3 -7.5t1 -14.5t-1 -15.5t-3 -10.5q-22 -3 -40.5 -7t-31.5 -10
q-17 -7 -29 -17t-22 -25t-20 -36t-23 -51q-18 -41 -44.5 -104t-56.5 -136t-62 -151t-61 -150q-29 -74 -48.5 -128t-29.5 -89q-10 1 -25.5 1.5t-31 0.5t-30.5 -0.5t-26 -1.5q-14 46 -31.5 98t-40.5 112q-30 78 -59.5 156.5t-57 150t-51 131.5t-40.5 101q-15 38 -27 62.5
t-24 40.5t-25.5 24.5t-31.5 13.5q-15 5 -31 8t-38 6z" />
    <glyph glyph-name="W" unicode="W" horiz-adv-x="1351" 
d="M-41 892q-2 2 -2.5 9.5t0 16t2 15.5t4.5 8q23 0 46.5 -1t49.5 -2t56.5 -2t67.5 -1q42 1 73 2t54 1.5t41.5 1t36.5 0.5q2 -1 3.5 -7.5t1.5 -14.5t-1.5 -15.5t-3.5 -10.5q-26 -5 -44 -9t-31 -9q-16 -6 -20.5 -19.5t0.5 -29.5q14 -56 34.5 -130t43 -152t45 -152t38.5 -129
q4 -4 8 2q15 40 34 92.5t39.5 110t41 117.5t39 116.5t34 105.5t24.5 85q9 -1 22 -1.5t26.5 -0.5t26.5 0.5t20 1.5q10 -33 28 -86t40 -116t46.5 -130.5t47.5 -129t42 -111t30 -77.5h5t4 2q11 34 25.5 79.5t29.5 96.5t30.5 103.5t29 100.5t24 88.5t16.5 66.5q8 38 3.5 62.5
t-38.5 33.5q-18 7 -40 10t-56 8q-3 2 -3.5 9.5t0 15.5t2 15t3.5 8q27 0 77.5 -2.5t108.5 -2.5q38 0 66 1t49 1.5t36.5 1.5t28.5 1q2 -2 2.5 -8.5t0.5 -14.5t-0.5 -15t-2.5 -10q-24 -5 -39 -8t-29 -9q-26 -9 -43.5 -29t-34.5 -65q-17 -47 -39 -110.5t-46 -136t-49 -148.5
t-48 -148.5t-43.5 -137t-35.5 -112.5q-7 0 -19.5 0.5t-27 0t-27.5 -1t-20 -1.5q-9 31 -26 82t-38.5 112.5t-45 128t-46 128.5t-42 113.5t-32.5 82.5q-4 2 -8 -2q-24 -66 -56 -153.5t-64 -177.5t-60.5 -173t-45.5 -139q-7 0 -19.5 0.5t-27 0.5t-27.5 -0.5t-21 -2.5
q-11 49 -29 116.5t-39 143t-44 154t-45 150t-41 131t-32 97.5q-14 41 -30.5 64.5t-43.5 32.5q-20 8 -36 11t-45 6z" />
    <glyph glyph-name="X" unicode="X" horiz-adv-x="949" 
d="M972 44q3 -2 4 -9t0.5 -15.5t-2.5 -15.5t-5 -9q-18 0 -44 1t-58 1.5t-68.5 1.5t-74.5 1q-86 0 -134 -2.5t-68 -2.5q-2 2 -3.5 9t-2 15t0.5 15t3 9q23 5 43.5 9t35.5 9q9 2 11.5 13t-2.5 20q-12 23 -31 57.5t-41.5 73.5t-47 80t-46.5 76q-2 2 -5.5 2t-5.5 -2
q-70 -106 -117.5 -179t-58.5 -99q-5 -13 -0.5 -26.5t26.5 -18.5q16 -5 33 -7.5t44 -7.5q1 -2 1 -9t-1 -15t-2.5 -15t-3.5 -9q-19 0 -43 1t-50 2t-51.5 1.5t-46.5 0.5l-175 -6q-2 3 -3 10.5t-1 15.5t1 15t3 8q27 5 48 9t44 9q29 9 53.5 28.5t57.5 64.5q26 32 54 69.5
t55.5 76.5t53 76t45.5 68q3 2 3.5 6t-1.5 6q-21 36 -44.5 77.5t-48 83t-48 80t-43.5 69.5q-16 26 -28.5 44.5t-25 31.5t-26.5 21.5t-34 14.5t-38.5 9t-43.5 5q-3 2 -4.5 9.5t-1 16t2 15.5t4.5 8q44 0 93 -3t114 -3q35 0 68.5 1t61.5 2t48.5 2t29.5 1q2 -1 3.5 -8t1.5 -15.5
t-1 -16t-3 -9.5q-15 -1 -31.5 -4.5t-26.5 -7.5q-11 -4 -13.5 -12.5t0.5 -16.5q9 -20 27.5 -53t40 -70.5t44 -75t39.5 -66.5q1 -1 4 -1.5t5 1.5q26 38 51.5 77.5t46.5 74t35.5 61.5t18.5 42q4 12 1 21.5t-19 12.5q-20 8 -38.5 11t-41.5 6q-2 3 -2 10.5t1 15.5t3 14.5t4 7.5
q34 0 75.5 -2.5t93.5 -2.5q67 0 107 2.5t68 2.5q1 -2 2 -8.5t1 -14.5t-1 -15t-3 -10q-23 -3 -42.5 -6.5t-34.5 -8.5q-17 -5 -31.5 -12.5t-29.5 -20t-32 -33t-40 -51.5l-159 -228q-4 -6 0 -13q21 -36 43.5 -75t46 -78t46.5 -76.5t44 -69.5q30 -47 50 -76t36 -46t30.5 -25.5
t33.5 -14.5q19 -5 39 -8.5t44 -5.5z" />
    <glyph glyph-name="Y" unicode="Y" horiz-adv-x="875" 
d="M-31 894q-2 3 -3 10t0 14.5t2.5 13.5t3.5 8q34 0 88.5 -2.5t111.5 -2.5q28 0 60 0.5t60.5 1.5t50 1.5t30.5 1.5q2 -2 3.5 -9t2 -15t-0.5 -15t-3 -9q-12 -1 -28.5 -4.5t-24.5 -5.5q-16 -5 -17 -16t7 -28q9 -19 23.5 -48.5t31.5 -64.5t36 -71.5t36 -69t30.5 -57.5t20.5 -37
h5.5t5.5 1q19 32 45 79t51.5 95.5t46.5 92t30 67.5q7 22 2.5 35t-33.5 20q-18 4 -34 6.5t-42 5.5q-2 4 -2.5 11.5t0.5 15.5t2.5 14t3.5 7q32 0 80 -2.5t98 -2.5q57 0 93.5 2t74.5 3q2 -1 3.5 -8t1.5 -15t-1.5 -15.5t-3.5 -9.5q-17 -2 -34.5 -4.5t-31.5 -7.5
q-17 -5 -30.5 -12t-26 -18.5t-25.5 -28t-29 -41.5q-23 -36 -52 -86t-57.5 -100t-52.5 -94t-37 -70q-6 -15 -10.5 -30.5t-4.5 -32.5q0 -50 1.5 -103t2.5 -112q2 -42 10 -65t40 -30q19 -5 40.5 -8t50.5 -8q1 -1 1 -8t-0.5 -15t-1.5 -15t-3 -9q-18 0 -44 1t-56.5 2t-64.5 2
t-67 1q-44 0 -78 -1t-61 -2t-49 -2t-42 -1q-2 2 -3 9.5t-1 15.5t1.5 14.5t2.5 7.5q32 5 57 8.5t44 8.5q31 7 39 29t8 55q2 57 2.5 103t0.5 96q0 18 -4 38.5t-11 38.5q-12 26 -33.5 68t-46.5 89.5t-51.5 96t-48.5 87.5q-21 38 -36.5 60t-28.5 35t-26 19t-30 10q-16 4 -33 6.5
t-38 4.5z" />
    <glyph glyph-name="Z" unicode="Z" horiz-adv-x="914" 
d="M891 270q-3 -16 -12 -51.5t-21 -75.5t-24.5 -77t-22.5 -56q-3 -4 -7.5 -7t-13.5 -5.5t-24 -4t-39 -1.5q-72 1 -143 2t-137.5 2t-126 2t-106.5 2q-17 -1 -37.5 -1.5l-41 -1t-39 -1t-32.5 -1.5q-3 2 -5 15.5t-1 17.5q29 38 76.5 106.5t102.5 151t113 172t109 169.5t89 143
t54 93q2 2 0.5 5.5t-3.5 3.5h-71t-98 -0.5t-100.5 -2t-77.5 -3.5q-23 -3 -44 -12.5t-41 -41.5q-16 -26 -31.5 -61t-34.5 -80q-2 -1 -10 0t-17 3.5t-16.5 6t-8.5 5.5q14 58 26 129t19 136q2 2 12 4t15 0q21 -13 50.5 -16.5t77.5 -3.5h330q33 0 67 0.5t66 1t59.5 1.5t47.5 2
q2 -2 3 -12t1 -15q-16 -27 -53 -88t-86 -139.5t-104.5 -167t-108 -171.5t-97 -153t-70.5 -111q-2 -3 -1.5 -6.5t4.5 -4.5q14 -2 50.5 -4t84.5 -3.5t101.5 -2t99.5 0.5q23 0 42 7t40 28q26 23 55 73t60 118q2 2 9.5 0.5t16 -4.5t16 -7t9.5 -8z" />
    <glyph glyph-name="bracketleft" unicode="[" horiz-adv-x="593" 
d="M498 1137q0 -21 -1 -37t-4 -27t-8 -12q-17 0 -49 -0.5t-65.5 -0.5h-62.5h-41q-2 0 -5.5 -3.5t-3.5 -7.5q-2 -16 -3.5 -76t-2.5 -146t-1.5 -187.5t-0.5 -200.5q0 -258 2 -406.5t6 -202.5q0 -9 4 -18.5t12 -11.5q12 -3 40 -4.5t62 -2t69.5 -0.5h62.5q1 -4 1 -16t-1.5 -25
t-5 -23t-8.5 -10q-24 -1 -55 -1.5t-65.5 -1t-70 0t-67.5 2.5q-29 2 -43 5.5t-21 8.5v1394q0 2 3 6t5 4h318z" />
    <glyph glyph-name="backslash" unicode="\" horiz-adv-x="676" 
d="M126 1060q3 0 5.5 -1t4.5 -1q22 -59 58 -156.5t79.5 -214t91.5 -242.5t93.5 -242t85 -213t66.5 -156q0 -2 -5 -5.5t-7 -3.5q-8 1 -21.5 4.5t-26.5 8.5t-23.5 10.5t-13.5 10.5q-12 22 -33.5 73.5t-50 123t-62 157.5t-68.5 178l-70 184t-66.5 174t-57.5 150t-44 112
q2 3 10.5 10t18.5 14.5t20 14.5t16 10z" />
    <glyph glyph-name="bracketright" unicode="]" horiz-adv-x="595" 
d="M413 -283q-73 -1 -152 -2t-163 -1q-1 0 -1.5 11.5t0 26t3 26t7.5 11.5h50t66 1t63 2t41 2q2 0 6.5 4.5t4.5 7.5q1 11 2 46t1.5 85t1 111t1 124.5t0.5 125.5v114v216t-0.5 178.5t-2 134t-3.5 82.5q-1 8 -5 19.5t-11 11.5q-12 1 -40.5 2t-63 1.5t-70.5 0.5h-63q-2 3 -2 15
t2 25t5.5 23.5t7.5 10.5q24 0 67 0.5t89 1t86 1t59 0.5q10 0 14 -3.5t9 -8.5l-1 -1397q0 -2 -3 -5.5t-5 -3.5z" />
    <glyph glyph-name="asciicircum" unicode="^" horiz-adv-x="709" 
d="M164 413q-5 -6 -16.5 -10.5t-25 -7t-25.5 -3.5t-18 -1q-5 0 -8.5 4.5t-3.5 7.5q8 11 28 47.5t46 86.5t54.5 108t54 111t45 94.5t26.5 59.5q0 2 9 5t19.5 6t20.5 5t12 2q12 -26 33 -70t46.5 -96t53.5 -106.5t53 -102.5t45 -84t30 -50q0 -2 -1 -3q-1 -3 -3 -4
q-5 -4 -19 -9.5t-28.5 -10t-26.5 -7t-14 -1.5q-7 8 -23 35.5t-36 65.5t-42 82t-42 83.5t-35 70t-21 42.5q-2 2 -5.5 2t-5.5 -2q-9 -20 -24 -52t-33 -69t-37 -75t-35.5 -70t-29 -55t-18.5 -29z" />
    <glyph glyph-name="underscore" unicode="_" horiz-adv-x="812" 
d="M862 -358h-874v78h874v-78z" />
    <glyph glyph-name="grave" unicode="`" horiz-adv-x="614" 
d="M277 940q5 -10 16.5 -41t24 -68.5t24 -74t17.5 -57.5q-1 -2 -6.5 -6t-12.5 -7t-13 -5.5t-9 -1.5q-13 14 -38.5 45t-53.5 66.5t-52 68t-35 47.5q-1 3 1 10t6 9q6 3 24.5 6t40 6t40.5 4t26 -1z" />
    <glyph glyph-name="a" unicode="a" horiz-adv-x="649" 
d="M385 397q0 23 -4.5 45t-18.5 42q-18 27 -48 40.5t-62 13.5q-26 0 -44 -5.5t-24 -13.5q-6 -4 -13.5 -16t-16 -26.5t-16 -30.5t-12.5 -28q-2 -2 -10.5 0.5t-18 7t-16.5 10t-6 9.5q0 6 4.5 20.5t10 30.5t11 29t9.5 16q27 19 58.5 35.5t62 28.5t57 19t42.5 7q56 0 97.5 -24
t68.5 -62q22 -33 29.5 -73t7.5 -81q0 -28 -0.5 -62t-1.5 -67.5t-1.5 -65t-0.5 -54.5q0 -21 10 -40t40 -19q15 0 26 1.5t26 6.5q1 -2 0.5 -10t-2 -17t-3 -17t-3.5 -10q-29 -28 -70.5 -42.5t-74.5 -14.5q-35 0 -56 13t-29 32q-4 7 -6.5 15.5t-4.5 16.5q0 2 -2 2.5t-4 -1.5
q-57 -37 -104.5 -57t-72.5 -20q-49 0 -87 38q-27 26 -42 63.5t-15 80.5q0 9 3 22t7 26t9 24.5t9 16.5q17 11 56.5 23.5t84.5 25.5t86.5 26t62.5 23q4 2 6.5 7t4.5 8q1 10 1 17v15zM384 295q0 1 -2 3.5t-4 2.5q-18 -6 -41.5 -14t-46.5 -16t-42 -16t-28 -14q-4 -4 -9.5 -22
t-5.5 -29q0 -51 31 -79t73 -28q14 0 29.5 4t28.5 13q11 8 14 32q1 15 1.5 38.5t1 48t0.5 45.5v31z" />
    <glyph glyph-name="b" unicode="b" horiz-adv-x="772" 
d="M470 631q58 0 100.5 -21.5t71.5 -55.5q20 -22 33 -47t21.5 -51.5t12 -52t3.5 -48.5q0 -97 -35.5 -167.5t-97.5 -115.5q-23 -18 -55 -34t-65.5 -29t-65 -20.5t-55.5 -7.5q-43 0 -77 5.5t-66 14.5q-17 5 -37 6t-46 -7q-4 0 -9 5t-5 7q2 22 3.5 54t2.5 77.5t1.5 107.5
t0.5 143q-1 80 -1.5 158t-1 144.5t-1 115.5t-2.5 70q-2 18 -9 27.5t-27 15.5q-11 3 -29.5 5.5t-39.5 4.5q-2 3 -2.5 9.5t0 14t2 13.5t3.5 8q30 2 68 7t76 12t72 15.5t56 17.5q4 -2 7.5 -11.5t2.5 -14.5q-5 -7 -8.5 -18.5t-5.5 -37t-3 -71t-1 -122.5q-1 -61 -0.5 -104.5
t0.5 -90.5q0 -2 3 -3.5t5 0.5q26 14 53.5 27t54 23t50.5 16t42 6zM362 535q-23 0 -48 -8t-37 -16q-11 -6 -13 -23q-1 -21 -1.5 -62.5t-0.5 -89t1 -93t2 -73.5q2 -32 9 -48t18 -27q24 -21 55.5 -30.5t58.5 -9.5t50.5 10.5t44.5 37.5q23 27 36.5 75.5t13.5 102.5
q0 65 -13 109.5t-36 75.5q-32 41 -66 55t-74 14z" />
    <glyph glyph-name="c" unicode="c" horiz-adv-x="639" 
d="M605 107q-28 -35 -61.5 -59t-67.5 -39t-67 -21.5t-60 -6.5q-75 0 -131 27.5t-95 79.5q-31 41 -47 95.5t-16 114.5q0 80 39.5 152.5t115.5 117.5q23 14 50 25.5t55 19.5t55.5 13t49.5 5q48 0 77 -6t52 -15q12 -6 28 -16.5t22 -25.5q2 -5 1.5 -13.5t-1.5 -13.5
q-5 -10 -13 -22t-17 -23.5t-17.5 -20.5t-14.5 -12q-3 -1 -10.5 -1t-9.5 1q-12 13 -29 30.5t-38.5 33t-46.5 26.5t-53 11q-35 0 -62 -15.5t-45 -42.5t-27 -63.5t-9 -78.5q0 -51 13 -99t40 -84q35 -45 78 -62.5t93 -17.5q39 0 82.5 15t86.5 53q2 -2 5 -4t3 -7q2 -9 -1 -26
t-7 -25z" />
    <glyph glyph-name="d" unicode="d" horiz-adv-x="787" 
d="M769 85q1 -3 0.5 -10.5t-2 -15.5t-3.5 -14t-4 -8q-18 -9 -51.5 -20t-68.5 -20.5t-66 -15.5t-44 -6q-4 0 -7.5 5.5t-5.5 10.5q-2 10 -2.5 34t-0.5 42q0 5 -7 5q-26 -18 -54.5 -33.5t-57 -27.5t-54 -19t-45.5 -7q-102 0 -166 81q-33 41 -51.5 97.5t-18.5 122.5
q0 76 31.5 142.5t83.5 107.5q24 20 57 37t70.5 30t77.5 20.5t76 7.5q13 0 28.5 -0.5t26.5 -2.5q6 0 6 6q0 97 -0.5 153.5t-2.5 86.5q-1 20 -7 33.5t-25 20.5q-15 5 -39 9t-47 6q-2 3 -2.5 10t0.5 14.5t3 14t6 7.5q35 0 76 4t80 10t72.5 14t53.5 15q2 -2 5.5 -11.5t3.5 -13.5
q-6 -9 -9 -19t-5 -25t-3 -37.5t-1 -57.5q-1 -33 -2 -72.5t-1.5 -90.5t-1 -116.5t-0.5 -149.5q0 -45 0.5 -90.5t1 -85.5t1 -71.5t0.5 -49.5q2 -35 9 -45t19 -12t28.5 -2t38.5 2zM372 565q-26 0 -50.5 -9t-44.5 -30q-26 -26 -41 -70t-15 -104q0 -62 14.5 -110.5t40 -81.5
t61.5 -50.5t78 -17.5q51 0 89 28q9 10 12 31q0 15 0.5 54t1 85t0 91.5t-1.5 74.5q0 28 -8.5 45.5t-28.5 31.5q-23 17 -50 24.5t-57 7.5z" />
    <glyph glyph-name="e" unicode="e" horiz-adv-x="665" 
d="M608 164q2 -1 5 -4t3 -6q1 -10 -2.5 -26t-5.5 -21q-25 -29 -57.5 -52.5t-67.5 -40t-70 -25t-67 -8.5q-64 0 -113 19t-84 55q-48 48 -68.5 114.5t-20.5 132.5q0 99 39 169.5t100 108.5q38 23 86 37t90 14q60 0 101 -22t67.5 -55t40 -71.5t18.5 -70.5q2 -6 8.5 -11.5
t14.5 -9.5q1 -1 0 -6.5t-3 -11.5t-4 -11.5t-4 -6.5q-21 -6 -67.5 -12t-103.5 -10.5t-116 -7.5t-104 -4q-4 -2 -6 -7t-2 -10q2 -35 17.5 -74.5t44.5 -68.5q31 -31 68.5 -45.5t87.5 -14.5q48 0 89.5 14t85.5 49zM327 573q-48 0 -79 -49t-33 -130q0 -2 2 -6t6 -4q16 -1 48 -0.5
t66 1t63 2.5t39 4q9 4 9 15q-3 33 -12 63t-24 53t-36.5 37t-48.5 14z" />
    <glyph glyph-name="f" unicode="f" horiz-adv-x="428" 
d="M31 43q20 3 34.5 6t25.5 6q17 7 23 20.5t6 31.5q0 39 0.5 87.5t0.5 102t0.5 109t1.5 108.5q0 2 -3 7t-5 5l-83 6q0 9 5 26t10 22q15 4 37.5 12.5t32.5 14.5q3 2 4.5 5.5t1.5 4.5q2 119 41 205.5t131 150.5q41 29 83.5 44t74.5 15q45 0 76 -14t45 -36q2 -4 2 -12v-12
q-3 -8 -11.5 -22.5t-18.5 -29.5t-20 -27.5t-15 -16.5q-3 -2 -10.5 -2.5t-10.5 0.5q-13 14 -28.5 28.5t-33 26t-35 19t-34.5 7.5q-28 0 -49 -22q-23 -28 -29 -84.5t-6 -143.5v-38t2 -33q0 -2 2.5 -6t6.5 -4q37 0 63 0.5t43.5 1.5t29 1.5t20.5 0.5q-3 -14 -7.5 -41t-6.5 -47
q-35 0 -74.5 1.5t-69.5 1.5q-3 0 -5 -5.5t-2 -7.5v-119t0.5 -111t1.5 -95.5t2 -72.5q2 -27 10 -40.5t31 -20.5q18 -5 34 -8t48 -6q2 -2 2 -9t-1 -15t-3 -15t-5 -9q-15 0 -32.5 1t-41 1.5t-55 1.5t-73.5 1q-54 0 -96.5 -2.5t-67.5 -2.5q-2 3 -3 10t-1 15t1 14.5t3 8.5z" />
    <glyph glyph-name="g" unicode="g" horiz-adv-x="699" 
d="M346 631q45 0 79 -8t71 -21q20 -7 44.5 -11.5t47.5 -4.5q41 0 58.5 8t33.5 25q4 1 13 -4t10 -8q0 -7 -3.5 -19.5t-9 -27t-12.5 -27t-13 -19.5q-11 -9 -22 -13.5t-33 -4.5h-18.5t-15.5 2q-2 0 -3.5 -2.5t-1.5 -4.5q5 -10 8.5 -31t3.5 -38q0 -75 -24.5 -119.5t-65.5 -75.5
q-32 -23 -76 -39.5t-96 -20.5q-2 0 -7.5 -0.5t-12.5 -0.5h-13h-8q-8 -2 -19.5 -10.5t-11.5 -22.5q0 -20 16.5 -30t40.5 -14q26 -2 61.5 -5t72.5 -6.5t70.5 -8.5t54.5 -11q21 -7 42 -19.5t37 -32t26 -45.5t10 -59q0 -42 -14 -81t-40 -72.5t-62 -61t-80 -48.5
q-47 -23 -93 -32.5t-89 -9.5q-54 0 -101 12t-84 38q-38 27 -61.5 65t-21.5 76q0 15 2 33t7 27q10 10 26.5 22.5t36 26.5t41 28t40.5 28q2 1 2 2.5t-2 1.5q-46 17 -71.5 47t-27.5 65q0 5 2 13t4 12q8 5 23.5 14t33 19t33.5 20t25 17q2 2 2 5t-2 4q-71 23 -111 77.5t-40 139.5
q0 51 22.5 98.5t68.5 79.5q18 14 42 25.5t51 20t54 13.5t50 4zM307 576q-44 0 -71 -39t-27 -107q0 -92 33.5 -149t97.5 -57q16 0 32.5 6.5t28.5 19.5q16 18 26.5 51.5t10.5 77.5q0 38 -7 73t-22.5 63t-40.5 44.5t-61 16.5zM372 -323q50 0 84.5 12t57 31t32.5 43t10 49
q0 70 -68 97q-18 9 -44 14.5t-54.5 9.5t-57.5 5.5t-54 1.5q-17 0 -29.5 -3.5t-19.5 -8.5q-36 -24 -51 -50t-15 -50q0 -26 10 -50.5t34 -47.5q32 -29 74 -41t91 -12z" />
    <glyph glyph-name="h" unicode="h" horiz-adv-x="787" 
d="M12 934q-3 2 -4 8.5t-1 14t1.5 14t3.5 8.5q39 2 79 8t75 13.5t63.5 16t45.5 15.5q5 -2 9.5 -11t2.5 -15q-5 -9 -8 -17.5t-5.5 -23.5t-3.5 -39.5t-2 -63.5v-66.5v-96.5v-93.5v-57.5q0 -2 2 -3.5t5 0.5q54 41 106 63.5t97 22.5q94 0 144.5 -65.5t50.5 -183.5
q0 -31 -0.5 -70.5t-0.5 -79t0.5 -75.5t1.5 -60q0 -8 4 -18t12 -15q14 -8 33.5 -13t41.5 -8q2 -2 2 -9t-1 -15t-3.5 -15t-5.5 -9q-18 0 -60 2.5t-106 2.5q-46 0 -89 -1.5t-66 -3.5q-2 3 -3 10t-1 14.5t1 14.5t3 9q16 2 29.5 5.5t21.5 6.5q17 5 22 18t7 54q0 32 1 75t1 86
t-1.5 81.5t-6.5 61.5q-3 18 -12.5 36t-25.5 32.5t-38.5 23.5t-52.5 9q-26 0 -51 -8t-46 -22q-7 -5 -11.5 -13.5t-4.5 -15.5v-96t0.5 -103t1 -90.5t1.5 -57.5q3 -33 8 -48.5t28 -23.5q13 -2 23.5 -5t30.5 -6q3 -2 4 -9t0.5 -14.5t-2.5 -14.5t-4 -10q-24 0 -63 2.5t-109 2.5
q-65 0 -101.5 -2.5t-59.5 -2.5q-3 3 -4 10.5t-1 15t1.5 14t3.5 8.5q20 3 32 6l24 6q18 7 23 23.5t7 51.5q1 18 1.5 51t1 70.5t0.5 73.5v60v215.5t-0.5 142.5t-1.5 88t-3 51q-2 14 -7 24.5t-21 15.5q-14 5 -32 7.5t-38 4.5z" />
    <glyph glyph-name="i" unicode="i" horiz-adv-x="391" 
d="M280 840q0 -23 -11 -46t-28 -37q-3 -3 -15.5 -5.5t-27 -4t-28 -1t-18.5 2.5q-19 10 -29.5 27t-15.5 41q-1 5 -1.5 13t0.5 17t3 16.5t6 11.5q13 13 40.5 22.5t51.5 9.5q23 0 38 -5.5t20 -10.5q7 -10 11 -25.5t4 -25.5zM372 43q1 -2 1 -9t-1 -15t-3 -15t-5 -9
q-23 0 -63.5 2.5t-105.5 2.5q-57 0 -99 -2.5t-65 -2.5q-2 2 -3 9t-1 15t1 15t3 9q38 6 61 14q17 5 21.5 17.5t6.5 39.5q0 14 0.5 38t0.5 53.5v61.5v61v83t-1 61q0 8 -2 18t-9 17q-11 11 -26.5 18.5t-41.5 18.5q-1 2 -1.5 8t0.5 12.5t2.5 12.5t3.5 8q16 0 44.5 4t62 10.5
t67.5 15.5t60 19q0 -25 -0.5 -56.5t-0.5 -67t-0.5 -71.5t-0.5 -70v-64.5v-67.5t0.5 -65.5t1.5 -57.5q0 -27 7 -39.5t22 -17.5q12 -4 24.5 -6.5t38.5 -7.5z" />
    <glyph glyph-name="j" unicode="j" horiz-adv-x="394" 
d="M283 843q0 -22 -8.5 -44.5t-25.5 -36.5q-4 -2 -17 -5.5t-28.5 -6t-29.5 -3.5t-19 2q-20 12 -30.5 28t-14.5 42q-2 10 -0.5 28t8.5 25q13 14 41 24.5t58 10.5q20 0 36 -6t21 -13q5 -8 7 -21t2 -24zM290 631q0 -51 -0.5 -116.5t-0.5 -133t-0.5 -130.5t-1.5 -109
q0 -62 -2 -105.5t-11 -87.5q-13 -64 -41.5 -119.5t-62.5 -99t-68.5 -74t-60.5 -43.5q-17 1 -29.5 8t-17.5 15q-2 4 -2 9.5t2 7.5q37 22 62.5 50.5t41 68.5t22.5 94t7 126v139.5v142t-0.5 121t-2.5 77.5q-1 14 -6.5 27.5t-22.5 20.5q-12 7 -31.5 11.5t-40.5 9.5q-2 3 -3 10
t-1 14.5t1.5 14t2.5 8.5q33 2 71 6t74 9.5t68 12.5t54 15z" />
    <glyph glyph-name="k" unicode="k" horiz-adv-x="727" 
d="M376 562q-1 3 -1.5 10.5t0.5 15t3 14t4 8.5q43 0 86 1t82.5 2.5t74 3.5t60.5 5q2 -2 3 -9t1 -15t-1 -15t-3 -10q-44 -8 -73.5 -19t-55.5 -37q-32 -33 -70.5 -72.5t-67.5 -71.5q-3 -1 0 -8q12 -22 42.5 -63t65.5 -85.5t69.5 -84t55.5 -57.5q12 -10 22 -16t21.5 -9
t26.5 -4.5t36 -2.5q2 -2 2.5 -9t-0.5 -15t-3 -15t-5 -9q-10 -2 -30.5 -3.5t-45.5 -2t-51 -0.5h-47q-29 2 -49.5 12t-31.5 21q-16 14 -38 41.5t-46 60.5t-49 68.5t-48 65.5q-8 13 -19.5 23t-28.5 12v-95t1 -81q2 -34 10.5 -46t30.5 -17q12 -2 26 -5.5t30 -5.5q2 -3 2.5 -10
t-0.5 -14.5t-3.5 -14.5t-5.5 -9q-25 0 -66 2.5t-102 2.5q-63 0 -101.5 -2.5t-63.5 -2.5q-3 2 -4.5 9t-1.5 15t1.5 15t4.5 9q17 2 29.5 4.5t23.5 6.5q19 5 25.5 17.5t8.5 38.5q1 17 1.5 51t1 74t0.5 79.5v66.5v229t-0.5 148t-1.5 85.5t-3 41.5q-1 16 -6 27t-19 16
q-12 5 -30.5 8t-39.5 5q-2 3 -2.5 9.5t0 13.5t1.5 13t3 8q35 2 72.5 7t73 11.5t65.5 14t49 14.5q3 -2 6.5 -10.5t3.5 -12.5q-4 -8 -7.5 -19t-5.5 -28t-3 -42t-1 -60q-1 -40 -1.5 -88t-1 -110.5t-0.5 -143.5v-187q32 4 70 36q21 17 44 40.5t42.5 46.5t32.5 42.5t14 28.5
q2 8 -3 14.5t-19 11.5q-14 4 -37.5 7t-34.5 4z" />
    </font>
</defs>
</svg>
